<?xml version="1.0" standalone="no"?>
<!DOCTYPE svg PUBLIC "-//W3C//DTD SVG 1.1//EN" "http://www.w3.org/Graphics/SVG/1.1/DTD/svg11.dtd" >
<svg xmlns="http://www.w3.org/2000/svg" xmlns:xlink="http://www.w3.org/1999/xlink" version="1.1">
<metadata>
Created by FontForge 20150824 at Sat Dec 26 10:21:38 2015
 By Everything Fonts

</metadata>
<defs>
<font id="YekanWeb-Regular" horiz-adv-x="0" >
  <font-face 
    font-family="YekanWeb-Regular"
    font-weight="400"
    font-stretch="normal"
    units-per-em="2048"
    panose-1="2 0 5 3 0 0 0 0 0 0"
    ascent="1638"
    descent="-410"
    bbox="-348 -941 2475 2240"
    underline-thickness="100"
    underline-position="-100"
    stemh="162"
    stemv="163"
    unicode-range="U+0020-FEFC"
  />
<missing-glyph horiz-adv-x="1024" 
d="M102 0v1092h820v-1092h-820zM204 102h616v888h-616v-888z" />
    <glyph glyph-name="afii64184" unicode="&#xfedf;&#xfee0;&#x651;&#x670;&#xfeea;" horiz-adv-x="2401" arabic-form="isolated" 
d="M1511 1432h-66v274h66v-274zM1684 1221c0 -67 -40 -115 -102 -115c-31 0 -62 16 -95 49c-18 -33 -47 -49 -88 -49c-77 0 -110 37 -110 115v100h68v-98c0 -27 21 -39 48 -39c32 0 47 13 47 39v98h65v-98c0 -29 26 -43 56 -43h5c23 1 35 14 35 38v103h71v-100zM405 151
c95 0 193 82 193 177c0 38 -11 76 -35 114l-81 81c-36 36 -63 64 -81 82l-7 -8c-71 -65 -119 -116 -141 -152c-22 -35 -34 -71 -34 -109s16 -78 47 -121c32 -43 77 -64 139 -64zM752 224c-71 -154 -185 -237 -350 -237c-193 0 -356 165 -356 359c0 66 25 136 73 207
c24 38 83 101 157 175l-57 66l118 117l567 -603c50 -52 86 -88 108 -106h1l1 -1c25 -12 64 -19 116 -20v-3l62 -2h66c127 0 149 68 149 201v643h168v-679c0 -72 23 -120 69 -144h1l2 -1c42 -10 103 -15 183 -15h117c118 0 141 64 141 196v844h167v-925
c0 -179 -120 -286 -299 -286h-183c-161 0 -187 7 -276 81c-48 -41 -91 -64 -127 -70c-38 -7 -123 -11 -255 -11c-82 2 -133 14 -153 34h-1c-10 4 -80 64 -209 180z" />
    <glyph glyph-name="afii62834" unicode="&#xfedf;&#xfe82;" horiz-adv-x="1115" arabic-form="isolated" 
d="M554 10c-223 0 -363 75 -363 286v925h171v-844c0 -94 13 -151 38 -171c18 -17 69 -25 154 -25h171c53 0 93 17 119 52l1 1v1c12 28 18 76 18 142v844h164v-925c0 -182 -109 -286 -290 -286h-183zM576 1369h-396c-50 0 -88 -13 -113 -38c-24 -24 -47 -56 -69 -98l-130 48
c41 96 76 154 105 176c57 47 96 62 196 64h407v-152z" />
    <glyph glyph-name="afii62835" unicode="&#xfee0;&#xfe82;" horiz-adv-x="1194" arabic-form="final" 
d="M352 302h-169v919h169v-919zM1005 358c0 -140 71 -175 213 -177v-171c-104 3 -187 48 -251 136c-65 -90 -152 -136 -259 -136h-405c-84 0 -126 49 -126 146c0 10 0 19 1 25h515c122 0 141 68 141 196v844h171v-863zM588 1376h-396c-50 0 -88 -13 -113 -38
c-24 -24 -47 -56 -69 -98l-130 48c41 96 76 154 105 176c57 47 96 62 196 64h407v-152z" />
    <glyph glyph-name="afii62836" unicode="&#xfedf;&#xfe84;" horiz-adv-x="1066" arabic-form="isolated" 
d="M523 10c-223 0 -363 75 -363 286v925h171v-844c0 -94 13 -151 38 -171c18 -17 69 -25 154 -25h171c53 0 93 17 119 52l1 1v1c12 28 18 76 18 142v844h164v-925c0 -182 -109 -286 -290 -286h-183zM192 1566c0 -46 45 -67 92 -67h1c29 0 77 13 146 40l29 -69l-364 -132
l-20 65l94 36c-39 36 -58 69 -58 100c0 96 84 179 175 181c38 0 73 -15 106 -44l-43 -63c-20 18 -43 26 -70 26c-46 0 -88 -28 -88 -73z" />
    <glyph glyph-name="afii62837" unicode="&#xfee0;&#xfe84;" horiz-adv-x="1185" arabic-form="final" 
d="M343 302h-169v919h169v-919zM996 358c0 -140 71 -175 213 -177v-171c-104 3 -187 48 -251 136c-65 -90 -152 -136 -259 -136h-405c-84 0 -126 49 -126 146c0 10 0 19 1 25h515c122 0 141 68 141 196v844h171v-863zM176 1578c0 -46 45 -67 92 -67h1c29 0 77 13 146 40
l29 -69l-364 -132l-20 65l94 36c-39 36 -58 69 -58 100c0 96 84 179 175 181c38 0 73 -15 106 -44l-43 -63c-20 18 -43 26 -70 26c-46 0 -88 -28 -88 -73z" />
    <glyph glyph-name="afii62838" unicode="&#xfedf;&#xfe88;" horiz-adv-x="1065" arabic-form="isolated" 
d="M224 -304c0 -46 45 -67 92 -67h1c29 0 77 13 146 40l29 -69l-364 -132l-20 65l94 36c-39 36 -58 69 -58 100c0 96 84 179 175 181c38 0 73 -15 106 -44l-43 -63c-20 18 -43 26 -70 26c-46 0 -88 -28 -88 -73zM510 10c-223 0 -363 75 -363 286v925h171v-844
c0 -94 13 -151 38 -171c18 -17 69 -25 154 -25h171c53 0 93 17 119 52l1 1v1c12 28 18 76 18 142v844h164v-925c0 -182 -109 -286 -290 -286h-183z" />
    <glyph glyph-name="afii62839" unicode="&#xfee0;&#xfe88;" horiz-adv-x="1167" arabic-form="final" 
d="M325 302h-169v919h169v-919zM978 358c0 -140 71 -175 213 -177v-171c-104 3 -187 48 -251 136c-65 -90 -152 -136 -259 -136h-405c-84 0 -126 49 -126 146c0 10 0 19 1 25h515c122 0 141 68 141 196v844h171v-863zM227 -328c0 -46 45 -67 92 -67h1c29 0 77 13 146 40
l29 -69l-364 -132l-20 65l94 36c-39 36 -58 69 -58 100c0 96 84 179 175 181c38 0 73 -15 106 -44l-43 -63c-20 18 -43 26 -70 26c-46 0 -88 -28 -88 -73z" />
    <glyph glyph-name="afii62840" unicode="&#xfedf;&#xfe8e;" horiz-adv-x="1071" arabic-form="isolated" 
d="M510 10c-223 0 -363 75 -363 286v925h171v-844c0 -94 13 -151 38 -171c18 -17 69 -25 154 -25h171c53 0 93 17 119 52l1 1v1c12 28 18 76 18 142v844h164v-925c0 -182 -109 -286 -290 -286h-183z" />
    <glyph glyph-name="afii62841" unicode="&#xfee0;&#xfe8e;" horiz-adv-x="1122" arabic-form="final" 
d="M280 302h-169v919h169v-919zM933 358c0 -140 71 -175 213 -177v-171c-104 3 -187 48 -251 136c-65 -90 -152 -136 -259 -136h-405c-84 0 -126 49 -126 146c0 10 0 19 1 25h515c122 0 141 68 141 196v844h171v-863z" />
    <glyph glyph-name="uni0675.fina" unicode="&#x675;" horiz-adv-x="550" 
d="M353 377c0 -96 3 -165 78 -185c47 -12 74 -9 138 -11v-171c-159 1 -267 31 -325 91c-42 45 -63 110 -63 195v898h172v-817zM210 1539c0 -46 45 -67 92 -67h1c29 0 77 13 146 40l29 -69l-364 -132l-20 65l94 36c-39 36 -58 69 -58 100c0 96 84 179 175 181
c38 0 73 -15 106 -44l-43 -63c-20 18 -43 26 -70 26c-46 0 -88 -28 -88 -73z" />
    <glyph glyph-name="uni0676.fina" unicode="&#x676;" horiz-adv-x="951" 
d="M650 10c-303 0 -486 68 -486 360c0 153 37 262 113 329c48 38 122 57 221 57c142 0 241 -59 296 -178c32 -76 47 -205 47 -387v-10h130v-171h-130v-10c0 -191 -105 -332 -234 -408c-75 -44 -157 -67 -249 -67h-238l-26 168h233c98 0 178 31 240 93s93 133 93 214v10h-10z
M669 375c0 120 -64 212 -182 212c-99 0 -148 -69 -148 -207c0 -78 22 -132 65 -160c43 -27 127 -39 254 -39h11v194zM425 1159c0 -46 45 -67 92 -67h1c29 0 77 13 146 40l29 -69l-364 -132l-20 65l94 36c-39 36 -58 69 -58 100c0 96 84 179 175 181c38 0 73 -15 106 -44
l-43 -63c-20 18 -43 26 -70 26c-46 0 -88 -28 -88 -73z" />
    <glyph glyph-name="uni0678.fina" unicode="&#x678;" horiz-adv-x="1373" 
d="M1394 10h-177l9 -103c0 -106 -42 -196 -127 -271c-82 -74 -176 -111 -282 -111h-298c-142 0 -259 55 -349 163c-77 104 -115 231 -115 381v331h174v-408c0 -69 24 -134 72 -194v-1h1c64 -69 151 -104 261 -104h245c65 0 123 19 173 57c49 38 73 94 73 168
c0 41 -32 67 -97 78c-57 10 -157 14 -298 14l-14 171h749v-171zM368 870c0 -46 45 -67 92 -67h1c29 0 77 13 146 40l29 -69l-364 -132l-20 65l94 36c-39 36 -58 69 -58 100c0 96 84 179 175 181c38 0 73 -15 106 -44l-43 -63c-20 18 -43 26 -70 26c-46 0 -88 -28 -88 -73z
" />
    <glyph glyph-name="afii57459" unicode="&#x6a1;" horiz-adv-x="894" 
d="M649 514c0 117 -68 222 -184 222c-73 0 -144 -37 -144 -108c0 -64 20 -101 59 -112c13 -8 56 -12 130 -12h139v10zM831 320c0 -108 -37 -188 -109 -241c-59 -46 -118 -69 -180 -69h-566v171h569c79 0 119 51 119 154v10h-11c-175 0 -287 6 -337 18
c-102 43 -152 127 -152 252c0 93 31 167 93 220c64 54 139 81 225 81c85 0 162 -31 228 -93c79 -69 118 -162 118 -281z" />
    <glyph glyph-name="afii57374" unicode="&#x6a1;" horiz-adv-x="912" 
d="M445 592c-76 0 -164 -81 -164 -158c0 -81 67 -151 200 -211l5 -4c42 34 74 67 95 97s32 62 32 95c0 83 -86 181 -168 181zM121 448c0 183 143 308 327 308c100 0 180 -34 237 -102c53 -66 79 -142 79 -228c0 -88 -25 -169 -75 -245h265v-169l-51 4h-51l-136 3
c-53 0 -103 5 -150 13l-90 31c-46 -35 -224 -53 -535 -53v171h297l-14 16c-69 81 -103 165 -103 251z" />
    <glyph glyph-name="afii52258" unicode="&#x6a1;" horiz-adv-x="1725" 
d="M1473 411c0 83 -81 181 -163 181c-79 0 -172 -75 -172 -155c0 -78 68 -149 204 -214l5 -3l4 4c81 50 122 113 122 187zM261 341c0 -102 53 -160 154 -160h686l-14 16c-69 81 -103 163 -103 246s29 157 88 220c58 62 136 93 233 93c96 0 174 -34 236 -103
c55 -66 83 -141 83 -226c0 -89 -25 -170 -75 -246h192v-171c-211 0 -347 16 -407 47c-26 -34 -97 -32 -172 -38c-54 -4 -117 -5 -189 -5l-638 -4c-69 0 -130 35 -182 104c-41 63 -61 130 -61 199v280h169v-252z" />
    <glyph glyph-name="uniFB51" unicode="&#x671;" horiz-adv-x="550" arabic-form="final" 
d="M353 377c0 -96 3 -165 78 -185c47 -12 74 -9 138 -11v-171c-159 1 -267 31 -325 91c-42 45 -63 110 -63 195v898h172v-817zM353 1388c-2 34 -16 50 -42 50c-10 0 -26 -6 -46 -19l-83 -73h171v42zM311 1479c61 0 81 -38 83 -102l-1 -72h-315v41h51l120 104
c24 20 45 29 62 29z" />
    <glyph glyph-name="afii62958" unicode="&#x67e;" horiz-adv-x="1824" arabic-form="final" 
d="M269 341c0 -118 35 -160 151 -160h891c57 0 94 7 112 21h1c28 24 42 70 42 139v252h173v-252c0 -128 78 -158 210 -160v-171l-108 6l-81 11c-43 13 -77 34 -104 65c-64 -55 -126 -82 -185 -82h-1010c-149 0 -264 154 -264 303v280h172v-252zM1034 -191
c63 0 120 -56 120 -118c0 -64 -56 -119 -120 -119s-118 55 -118 119c0 63 54 118 118 118zM843 -309c0 -62 -57 -119 -119 -119c-64 0 -117 54 -117 119c0 63 55 118 117 118c63 0 119 -55 119 -118zM991 -601c0 -62 -57 -119 -119 -119c-64 0 -117 54 -117 119
c0 62 55 119 117 119s119 -57 119 -119z" />
    <glyph glyph-name="afii62956" unicode="&#x67e;" horiz-adv-x="623" arabic-form="initial" 
d="M546 313c0 -150 -123 -303 -271 -303h-300v171h240c66 0 113 17 138 52v1h1c10 17 15 52 15 107v252h177v-280zM480 -193c63 0 120 -56 120 -118c0 -64 -56 -119 -120 -119s-118 55 -118 119c0 63 54 118 118 118zM289 -311c0 -62 -57 -119 -119 -119
c-64 0 -117 54 -117 119c0 63 55 118 117 118c63 0 119 -55 119 -118zM437 -603c0 -62 -57 -119 -119 -119c-64 0 -117 54 -117 119c0 62 55 119 117 119s119 -57 119 -119z" />
    <glyph glyph-name="afii52957" unicode="&#x67e;" horiz-adv-x="785" arabic-form="medial" 
d="M315 181c118 0 150 40 150 160v252h174v-252c0 -132 43 -158 176 -160v-171l-102 4l-55 8l-42 21l-60 48c-65 -54 -126 -81 -184 -81h-401v171h344zM580 -184c63 0 120 -56 120 -118c0 -64 -56 -119 -120 -119s-118 55 -118 119c0 63 54 118 118 118zM389 -302
c0 -62 -57 -119 -119 -119c-64 0 -117 54 -117 119c0 63 55 118 117 118c63 0 119 -55 119 -118zM537 -594c0 -62 -57 -119 -119 -119c-64 0 -117 54 -117 119c0 62 55 119 117 119s119 -57 119 -119z" />
    <glyph glyph-name="afii62961" unicode="&#x686;" horiz-adv-x="1270" arabic-form="final" 
d="M1310 10c-157 2 -264 26 -311 128l-29 105l-389 -217c-173 -98 -260 -220 -260 -367c0 -105 44 -199 131 -281c88 -82 180 -122 277 -122h551l14 -175h-515c-197 0 -358 71 -483 214c-91 112 -136 236 -136 370v39l4 42c18 174 108 304 271 389l601 329
c-34 62 -81 99 -141 111c-53 10 -221 15 -504 15l-25 166h451c248 0 390 -132 392 -378l-177 -101c6 -42 35 -69 86 -81c44 -10 108 -15 192 -15v-171zM991 -120c63 0 120 -56 120 -118c0 -64 -56 -119 -120 -119s-118 55 -118 119c0 63 54 118 118 118zM800 -238
c0 -62 -57 -119 -119 -119c-64 0 -117 54 -117 119c0 63 55 118 117 118c63 0 119 -55 119 -118zM948 -530c0 -62 -57 -119 -119 -119c-64 0 -117 54 -117 119c0 62 55 119 117 119s119 -57 119 -119z" />
    <glyph glyph-name="afii62959" unicode="&#x686;" horiz-adv-x="1099" arabic-form="initial" 
d="M1051 378l-436 -247c-93 -53 -181 -87 -266 -101c-78 -13 -206 -20 -383 -20v171h142c74 0 123 3 148 10c80 9 157 30 228 62c43 18 107 52 191 104l190 104c-20 57 -67 95 -143 114c-58 10 -221 15 -489 15l-25 166h462c256 0 379 -124 381 -378zM752 -171
c63 0 120 -56 120 -118c0 -64 -56 -119 -120 -119s-118 55 -118 119c0 63 54 118 118 118zM561 -289c0 -62 -57 -119 -119 -119c-64 0 -117 54 -117 119c0 63 55 118 117 118c63 0 119 -55 119 -118zM709 -581c0 -62 -57 -119 -119 -119c-64 0 -117 54 -117 119
c0 62 55 119 117 119s119 -57 119 -119z" />
    <glyph glyph-name="afii62960" unicode="&#x686;" horiz-adv-x="1099" arabic-form="medial" 
d="M1120 10c-97 1 -167 13 -211 35c-27 13 -51 42 -73 86l-25 113c-118 -78 -250 -145 -396 -199c-88 -23 -238 -35 -449 -35v171h142c74 0 123 3 148 10c80 9 157 30 228 62c43 18 107 52 191 104l190 104c-20 57 -67 95 -143 114c-58 10 -221 15 -489 15l-25 166h462
c246 0 379 -136 381 -380l-178 -98v-6c0 -60 82 -90 247 -91v-171zM730 -171c63 0 120 -56 120 -118c0 -64 -56 -119 -120 -119s-118 55 -118 119c0 63 54 118 118 118zM539 -289c0 -62 -57 -119 -119 -119c-64 0 -117 54 -117 119c0 63 55 118 117 118
c63 0 119 -55 119 -118zM687 -581c0 -62 -57 -119 -119 -119c-64 0 -117 54 -117 119c0 62 55 119 117 119s119 -57 119 -119z" />
    <glyph glyph-name="afii62962" unicode="&#x698;" horiz-adv-x="976" arabic-form="final" 
d="M998 10c-86 2 -148 32 -186 88l-19 28v-35c0 -173 -49 -316 -147 -430c-90 -90 -200 -136 -328 -136h-239l-31 168h252c80 0 155 28 222 83c66 56 100 126 100 210v607h168v-266c0 -95 69 -144 208 -146v-171zM756 1036c62 0 120 -57 120 -119c0 -64 -57 -118 -120 -118
c-64 0 -118 54 -118 118c0 63 55 119 118 119zM565 917c0 -63 -56 -118 -119 -118c-64 0 -117 54 -117 118c0 62 55 119 117 119s119 -57 119 -119zM713 1209c0 -62 -57 -119 -119 -119c-63 0 -117 55 -117 119c0 62 55 119 117 119s119 -57 119 -119z" />
    <glyph glyph-name="afii62964" unicode="&#x6a9;" horiz-adv-x="1876" arabic-form="final" 
d="M1916 10c-144 2 -240 55 -308 148c-36 -99 -110 -148 -245 -148h-1008c-152 0 -263 149 -263 303v280h173v-252c0 -120 34 -160 153 -160h934c71 0 106 26 106 80c0 27 -15 60 -46 96l-468 522l-32 176l720 277l26 -153l-565 -210l535 -605l139 -140
c41 -27 90 -42 149 -43v-171z" />
    <glyph glyph-name="afii52305" unicode="&#x6a9;" horiz-adv-x="898" arabic-form="initial" 
d="M758 407c35 -43 53 -93 53 -149c0 -57 -24 -114 -72 -169c-52 -52 -128 -79 -225 -79h-548v171h548c80 0 120 26 120 81c0 25 -13 55 -38 89l-505 528l-35 190l750 270l20 -164l-569 -211z" />
    <glyph glyph-name="afii52306" unicode="&#x6a9;" horiz-adv-x="1103" arabic-form="medial" 
d="M784 175c-47 -116 -82 -165 -239 -165h-564v171h543c74 0 110 26 110 81c0 27 -15 59 -46 95l-479 521l-28 205l739 263l27 -171l-573 -211l544 -600c78 -87 135 -140 170 -162l1 -1l52 -16l72 -3v-172c-148 2 -254 53 -318 150z" />
    <glyph glyph-name="afii62967" unicode="&#x6af;" horiz-adv-x="1876" arabic-form="final" 
d="M1916 10c-144 2 -240 55 -308 148c-36 -99 -110 -148 -245 -148h-1008c-152 0 -263 149 -263 303v280h173v-252c0 -120 34 -160 153 -160h934c71 0 106 26 106 80c0 27 -15 60 -46 96l-468 522l-32 185l720 268l26 -153l-565 -210l535 -605l139 -140
c41 -27 90 -42 149 -43v-171zM1617 1454l-725 -277l-14 87l735 273z" />
    <glyph glyph-name="afii62965" unicode="&#x6af;" horiz-adv-x="873" arabic-form="initial" 
d="M772 1478l-710 -256l-6 78l714 252zM758 407c35 -43 53 -93 53 -149c0 -57 -24 -114 -72 -169c-52 -52 -128 -79 -225 -79h-548v171h548c80 0 120 26 120 81c0 25 -13 55 -38 89l-505 528l-36 204l749 262l22 -170l-569 -211z" />
    <glyph glyph-name="afii62966" unicode="&#x6af;" horiz-adv-x="1099" arabic-form="medial" 
d="M789 1471l-703 -256l-9 61l706 252zM784 175c-47 -116 -82 -165 -239 -165h-564v171h543c74 0 110 26 110 81c0 27 -15 59 -46 95l-479 521l-28 205l739 263l27 -171l-573 -211l544 -600c78 -87 135 -140 170 -162l1 -1l52 -16l72 -3v-172c-148 2 -254 53 -318 150z" />
    <glyph glyph-name="uniFBA4" unicode="&#x6c0;" horiz-adv-x="863" arabic-form="isolated" 
d="M442 151c99 0 184 81 184 179c0 43 -10 78 -30 103l-164 172c-70 -70 -119 -124 -148 -162l-2 -1l-21 -42l-13 -67v-1c0 -27 15 -63 44 -110v-3c40 -46 90 -68 150 -68zM709 555c59 -74 88 -151 88 -234c0 -84 -36 -161 -107 -230s-155 -104 -251 -104
c-98 0 -181 35 -249 106s-102 155 -102 253c0 68 20 137 61 207l60 76l102 99l-57 67l116 116zM331 1292c0 -46 45 -67 92 -67h1c29 0 77 13 146 40l29 -69l-364 -132l-20 65l94 36c-39 36 -58 69 -58 100c0 96 84 179 175 181c38 0 73 -15 106 -44l-43 -63
c-20 18 -43 26 -70 26c-46 0 -88 -28 -88 -73z" />
    <glyph glyph-name="uniFBA5" unicode="&#x6c0;" horiz-adv-x="1186" arabic-form="final" 
d="M492 151c94 0 194 83 194 177c0 38 -12 76 -36 114l-81 81c-36 36 -63 64 -81 82l-7 -8c-71 -65 -119 -116 -141 -152c-22 -35 -33 -71 -33 -109s15 -78 46 -119c32 -44 78 -66 139 -66zM839 224c-71 -154 -185 -237 -350 -237c-97 0 -180 35 -250 104s-105 154 -105 255
c0 67 24 136 72 207c24 38 83 101 157 175l-56 66l117 117l567 -603c50 -52 86 -88 108 -106h1l1 -1c25 -12 65 -19 117 -20v-171c-92 1 -148 13 -169 34h-1c-10 4 -80 64 -209 180zM382 1260c0 -46 45 -67 92 -67h1c29 0 77 13 146 40l29 -69l-364 -132l-20 65l94 36
c-39 36 -58 69 -58 100c0 96 84 179 175 181c38 0 73 -15 106 -44l-43 -63c-20 18 -43 26 -70 26c-46 0 -88 -28 -88 -73z" />
    <glyph glyph-name="uniFBA6" unicode="&#x6c1;" horiz-adv-x="491" arabic-form="isolated" 
d="M452 151c99 0 184 81 184 179c0 43 -10 78 -30 103l-164 172c-70 -70 -119 -124 -148 -162l-2 -1l-21 -42l-13 -67v-1c0 -27 15 -63 44 -110v-3c40 -46 90 -68 150 -68zM719 555c59 -74 88 -151 88 -234c0 -84 -36 -161 -107 -230s-155 -104 -251 -104
c-98 0 -181 35 -249 106s-102 155 -102 253c0 68 20 137 61 207l60 76l102 99l-57 67l116 116z" />
    <glyph glyph-name="afii62827" unicode="&#x6be;" horiz-adv-x="851" arabic-form="final" 
d="M554 289c-4 -82 -25 -111 -77 -181l15 -14c60 57 122 87 184 87h194v-171h-136c-99 0 -197 -65 -197 -163v-1l3 -31l43 -188l-165 -50l-49 237l-4 38c0 66 31 134 91 203l-16 14c-45 -39 -101 -59 -169 -59h-322v171h261c62 0 112 18 148 54c15 19 28 57 38 113l32 199
l172 -30l-46 -227v-1z" />
    <glyph glyph-name="uniFBE5" unicode="&#x6d0;" horiz-adv-x="1029" arabic-form="final" 
d="M1394 10h-177l9 -103c0 -106 -42 -196 -127 -271c-82 -74 -176 -111 -282 -111h-298c-142 0 -259 55 -349 163c-77 104 -115 231 -115 381v331h174v-408c0 -69 24 -134 72 -194v-1h1c64 -69 151 -104 261 -104h245c65 0 123 19 173 57c49 38 73 94 73 168
c0 41 -32 67 -97 78c-57 10 -157 14 -298 14l-14 171h749v-171z" />
    <glyph glyph-name="afii52364" unicode="&#x6cc;" horiz-adv-x="1373" arabic-form="final" 
d="M1394 10h-177l9 -103c0 -106 -42 -196 -127 -271c-82 -74 -176 -111 -282 -111h-298c-142 0 -259 55 -349 163c-77 104 -115 231 -115 381v331h174v-408c0 -69 24 -134 72 -194v-1h1c64 -69 151 -104 261 -104h245c65 0 123 19 173 57c49 38 73 94 73 168
c0 41 -32 67 -97 78c-57 10 -157 14 -298 14l-14 171h749v-171z" />
    <glyph glyph-name="uniFBFE" unicode="&#x6cc;" horiz-adv-x="623" arabic-form="initial" 
d="M546 313c0 -150 -123 -303 -271 -303h-300v171h240c66 0 113 17 138 52v1h1c10 17 15 52 15 107v252h177v-280zM164 -194c62 0 119 -57 119 -119c0 -54 -53 -117 -106 -117c-83 0 -131 47 -131 131c0 51 66 105 118 105zM457 -194c62 0 120 -57 120 -119
c0 -54 -53 -117 -106 -117c-84 0 -132 46 -132 131c0 53 64 105 118 105z" />
    <glyph glyph-name="afii62832" unicode="&#x6cc;" horiz-adv-x="785" arabic-form="medial" 
d="M315 181c118 0 150 40 150 160v252h174v-252c0 -132 43 -158 176 -160v-171l-102 4l-55 8l-42 21l-60 48c-65 -54 -126 -81 -184 -81h-401v171h344zM238 -190c62 0 119 -57 119 -119c0 -54 -53 -117 -106 -117c-83 0 -131 47 -131 131c0 51 66 105 118 105zM531 -190
c62 0 120 -57 120 -119c0 -54 -53 -117 -106 -117c-84 0 -132 46 -132 131c0 53 64 105 118 105z" />
    <glyph glyph-name="uniFC5D" unicode="&#xfc5d;" horiz-adv-x="1373" arabic-form="isolated" 
d="M692 350c0 176 151 332 326 332h224l9 -157h-225c-69 0 -119 -34 -152 -101l-1 -1c-15 -54 -24 -127 -24 -221v-11h11c169 0 284 -15 344 -44c64 -34 97 -104 97 -209c0 -83 -12 -148 -36 -196l-1 -1c-14 -55 -49 -109 -105 -162c-89 -85 -196 -128 -321 -128h-296
c-120 0 -224 49 -314 147c-88 96 -131 209 -131 340v383h159v-408c0 -88 39 -164 115 -228c64 -45 133 -67 209 -67h250c69 0 135 23 199 69c70 60 105 123 105 192c0 71 -27 114 -80 131c-49 15 -170 24 -362 24v316zM473 628h-67v275h67v-275z" />
    <glyph glyph-name="afii62882" unicode="&#xfc5e;" arabic-form="isolated" 
d="M-86 80c29 0 52 12 52 40v103h60v-103c0 -29 20 -44 58 -44h10c26 1 39 13 39 37v110h63v-99c-2 -35 -9 -58 -19 -68h-1c-20 -23 -45 -35 -77 -35h-5c-35 0 -67 15 -96 44c-18 -33 -38 -48 -88 -48c-74 0 -112 36 -112 107v99h60v-104c3 -26 22 -39 56 -39zM-75 675
c0 81 61 150 143 150c75 0 143 -63 143 -138v-7c0 -69 -25 -120 -77 -154l-333 -188l-40 66c27 15 45 28 57 36c18 12 29 29 29 49c0 26 -18 38 -43 40h-7c-24 0 -54 -3 -90 -10l-9 68c29 5 56 7 80 7c88 0 125 -30 129 -111l107 65c-51 27 -89 57 -89 127zM140 676
c0 38 -34 73 -72 73c-40 0 -72 -33 -72 -73c0 -39 33 -71 72 -71c40 0 72 31 72 71z" />
    <glyph glyph-name="afii62883" unicode="&#xfc5f;" arabic-form="isolated" 
d="M-84 437c29 0 52 12 52 40v103h60v-103c0 -29 20 -44 58 -44h10c26 1 39 13 39 37v110h63v-99c-2 -35 -9 -58 -19 -68h-1c-20 -23 -45 -35 -77 -35h-5c-35 0 -67 15 -96 44c-18 -33 -38 -48 -88 -48c-74 0 -112 36 -112 107v99h60v-104c3 -26 22 -39 56 -39zM-234 61
l437 114v-61l-437 -111v58zM-234 213l437 113v-61l-437 -111v59z" />
    <glyph glyph-name="afii62884" unicode="&#xfc60;" arabic-form="isolated" 
d="M-86 80c29 0 52 12 52 40v103h60v-103c0 -29 20 -44 58 -44h10c26 1 39 13 39 37v110h63v-99c-2 -35 -9 -58 -19 -68h-1c-20 -23 -45 -35 -77 -35h-5c-35 0 -67 15 -96 44c-18 -33 -38 -48 -88 -48c-74 0 -112 36 -112 107v99h60v-104c3 -26 22 -39 56 -39zM-237 415
l437 113v-61l-437 -111v59z" />
    <glyph glyph-name="afii62885" unicode="&#xfc61;" arabic-form="isolated" 
d="M-86 80c29 0 52 12 52 40v103h60v-103c0 -29 20 -44 58 -44h10c26 1 39 13 39 37v110h63v-99c-2 -35 -9 -58 -19 -68h-1c-20 -23 -45 -35 -77 -35h-5c-35 0 -67 15 -96 44c-18 -33 -38 -48 -88 -48c-74 0 -112 36 -112 107v99h60v-104c3 -26 22 -39 56 -39zM-88 674
c0 81 63 150 144 150c75 0 142 -64 142 -139v-6c0 -69 -25 -120 -76 -154l-334 -188l-40 66l254 143l-17 9c-49 25 -73 65 -73 119zM127 675c0 39 -32 72 -71 72s-73 -33 -73 -72c0 -40 33 -71 73 -71s71 32 71 71z" />
    <glyph glyph-name="afii62886" unicode="&#xfc62;" arabic-form="isolated" 
d="M-81 389c29 0 52 12 52 40v103h60v-103c0 -29 20 -44 58 -44h10c26 1 39 13 39 37v110h63v-99c-2 -35 -9 -58 -19 -68h-1c-20 -23 -45 -35 -77 -35h-5c-35 0 -67 15 -96 44c-18 -33 -38 -48 -88 -48c-74 0 -112 36 -112 107v99h60v-104c3 -26 22 -39 56 -39zM-224 75
l437 113v-61l-437 -111v59z" />
    <glyph glyph-name="uniFC63" unicode="&#xfc63;" arabic-form="isolated" 
d="M-86 80c29 0 52 12 52 40v103h60v-103c0 -29 20 -44 58 -44h10c26 1 39 13 39 37v110h63v-99c-2 -35 -9 -58 -19 -68h-1c-20 -23 -45 -35 -77 -35h-5c-35 0 -67 15 -96 44c-18 -33 -38 -48 -88 -48c-74 0 -112 36 -112 107v99h60v-104c3 -26 22 -39 56 -39zM36 322h-67
v275h67v-275z" />
    <glyph glyph-name="uniFCF2" unicode="&#xfcf2;" horiz-adv-x="498" arabic-form="medial" 
d="M158 490c29 0 52 12 52 40v103h60v-103c0 -29 20 -44 58 -44h10c26 1 39 13 39 37v110h63v-99c-2 -35 -9 -58 -19 -68h-1c-20 -23 -45 -35 -77 -35h-5c-35 0 -67 15 -96 44c-18 -33 -38 -48 -88 -48c-74 0 -112 36 -112 107v99h60v-104c3 -26 22 -39 56 -39zM5 800
l437 113v-61l-437 -111v59zM518 10h-531v171h531v-171z" />
    <glyph glyph-name="uniFCF3" unicode="&#xfcf3;" horiz-adv-x="498" arabic-form="medial" 
d="M159 466c29 0 52 12 52 40v103h60v-103c0 -29 20 -44 58 -44h10c26 1 39 13 39 37v110h63v-99c-2 -35 -9 -58 -19 -68h-1c-20 -23 -45 -35 -77 -35h-5c-35 0 -67 15 -96 44c-18 -33 -38 -48 -88 -48c-74 0 -112 36 -112 107v99h60v-104c3 -26 22 -39 56 -39zM178 1072
c0 81 63 150 144 150c75 0 142 -64 142 -139v-6c0 -69 -25 -120 -76 -154l-334 -188l-40 66l254 143l-17 9c-49 25 -73 65 -73 119zM393 1073c0 39 -32 72 -71 72s-73 -33 -73 -72c0 -40 33 -71 73 -71s71 32 71 71zM518 10h-531v171h531v-171z" />
    <glyph glyph-name="uniFCF4" unicode="&#xfcf4;" horiz-adv-x="498" arabic-form="medial" 
d="M166 708c29 0 52 12 52 40v103h60v-103c0 -29 20 -44 58 -44h10c26 1 39 13 39 37v110h63v-99c-2 -35 -9 -58 -19 -68h-1c-20 -23 -45 -35 -77 -35h-5c-35 0 -67 15 -96 44c-18 -33 -38 -48 -88 -48c-74 0 -112 36 -112 107v99h60v-104c3 -26 22 -39 56 -39zM22 404
l437 113v-61l-437 -111v59zM518 10h-531v171h531v-171z" />
    <glyph glyph-name="uniFE71" unicode="&#xfe71;" horiz-adv-x="498" arabic-form="medial" 
d="M38 469l437 113v-61l-437 -111v59zM38 620l437 113v-61l-437 -111v59zM518 10h-531v171h531v-171z" />
    <glyph glyph-name="uniFE77" unicode="&#xfe77;" horiz-adv-x="498" arabic-form="medial" 
d="M24 514l437 113v-61l-437 -111v59zM518 10h-531v171h531v-171z" />
    <glyph glyph-name="uniFE79" unicode="&#xfe79;" horiz-adv-x="498" arabic-form="medial" 
d="M184 802c0 81 63 150 144 150c75 0 142 -64 142 -139v-6c0 -69 -25 -120 -76 -154l-334 -188l-40 66l254 143l-17 9c-49 25 -73 65 -73 119zM399 803c0 39 -32 72 -71 72s-73 -33 -73 -72c0 -40 33 -71 73 -71s71 32 71 71zM518 10h-531v171h531v-171z" />
    <glyph glyph-name="uniFE7B" unicode="&#xfe7b;" horiz-adv-x="498" arabic-form="medial" 
d="M27 -366l437 113v-61l-437 -111v59zM518 10h-531v171h531v-171z" />
    <glyph glyph-name="uniFE7D" unicode="&#xfe7d;" horiz-adv-x="498" arabic-form="medial" 
d="M189 590c29 0 52 12 52 40v103h60v-103c0 -29 20 -44 58 -44h10c26 1 39 13 39 37v110h63v-99c-2 -35 -9 -58 -19 -68h-1c-20 -23 -45 -35 -77 -35h-5c-35 0 -67 15 -96 44c-18 -33 -38 -48 -88 -48c-74 0 -112 36 -112 107v99h60v-104c3 -26 22 -39 56 -39zM518 10h-531
v171h531v-171z" />
    <glyph glyph-name="uniFE7F" unicode="&#xfe7f;" horiz-adv-x="498" arabic-form="medial" 
d="M80 655c0 103 77 194 179 194h8c101 0 178 -92 178 -193c0 -104 -79 -191 -183 -191s-182 85 -182 190zM380 653c0 63 -53 123 -116 123c-61 0 -114 -61 -114 -123c0 -64 50 -121 114 -121s116 57 116 121zM518 10h-531v171h531v-171z" />
    <glyph glyph-name="afii52399" unicode="&#x621;" horiz-adv-x="799" arabic-form="isolated" 
d="M531 366c-48 0 -82 -32 -82 -80c0 -41 23 -80 65 -80c36 0 92 18 167 54l45 -96l-436 -183l-32 90l166 68l-18 11c-49 28 -71 68 -71 143c6 96 90 183 191 183c47 0 89 -16 125 -47l-43 -91c-31 19 -57 28 -77 28z" />
    <glyph glyph-name="afii62753" unicode="&#x622;" horiz-adv-x="550" arabic-form="final" 
d="M562 1350h-396c-50 0 -88 -13 -113 -38c-24 -24 -47 -56 -69 -98l-130 48c41 96 76 154 105 176c57 47 96 62 196 64h407v-152zM353 377c0 -96 3 -165 78 -185c47 -12 74 -9 138 -11v-171c-159 1 -267 31 -325 91c-42 45 -63 110 -63 195v898h172v-817z" />
    <glyph glyph-name="afii62754" unicode="&#x623;" horiz-adv-x="550" arabic-form="final" 
d="M201 1545c0 -46 45 -67 92 -67h1c29 0 77 13 146 40l29 -69l-364 -132l-20 65l94 36c-39 36 -58 69 -58 100c0 96 84 179 175 181c38 0 73 -15 106 -44l-43 -63c-20 18 -43 26 -70 26c-46 0 -88 -28 -88 -73zM353 377c0 -96 3 -165 78 -185c47 -12 74 -9 138 -11v-171
c-159 1 -267 31 -325 91c-42 45 -63 110 -63 195v898h172v-817z" />
    <glyph glyph-name="afii62755" unicode="&#x624;" horiz-adv-x="951" arabic-form="final" 
d="M650 10c-303 0 -486 68 -486 360c0 153 37 262 113 329c48 38 122 57 221 57c142 0 241 -59 296 -178c32 -76 47 -205 47 -387v-10h130v-171h-130v-10c0 -191 -105 -332 -234 -408c-75 -44 -157 -67 -249 -67h-238l-26 168h233c98 0 178 31 240 93s93 133 93 214v10h-10z
M669 375c0 120 -64 212 -182 212c-99 0 -148 -69 -148 -207c0 -78 22 -132 65 -160c43 -27 127 -39 254 -39h11v194zM390 1141c0 -46 45 -67 92 -67h1c29 0 77 13 146 40l29 -69l-364 -132l-20 65l94 36c-39 36 -58 69 -58 100c0 96 84 179 175 181c38 0 73 -15 106 -44
l-43 -63c-20 18 -43 26 -70 26c-46 0 -88 -28 -88 -73z" />
    <glyph glyph-name="afii62756" unicode="&#x625;" horiz-adv-x="550" arabic-form="final" 
d="M353 377c0 -96 3 -165 78 -185c47 -12 74 -9 138 -11v-171c-159 1 -267 31 -325 91c-42 45 -63 110 -63 195v898h172v-817zM224 -285c0 -46 45 -67 92 -67h1c29 0 77 13 146 40l29 -69l-364 -132l-20 65l94 36c-39 36 -58 69 -58 100c0 96 84 179 175 181
c38 0 73 -15 106 -44l-43 -63c-20 18 -43 26 -70 26c-46 0 -88 -28 -88 -73z" />
    <glyph glyph-name="afii62759" unicode="&#x626;" horiz-adv-x="1373" arabic-form="final" 
d="M1394 10h-177l9 -103c0 -106 -42 -196 -127 -271c-82 -74 -176 -111 -282 -111h-298c-142 0 -259 55 -349 163c-77 104 -115 231 -115 381v331h174v-408c0 -69 24 -134 72 -194v-1h1c64 -69 151 -104 261 -104h245c65 0 123 19 173 57c49 38 73 94 73 168
c0 41 -32 67 -97 78c-57 10 -157 14 -298 14l-14 171h749v-171zM462 847c0 -46 45 -67 92 -67h1c29 0 77 13 146 40l29 -69l-364 -132l-20 65l94 36c-39 36 -58 69 -58 100c0 96 84 179 175 181c38 0 73 -15 106 -44l-43 -63c-20 18 -43 26 -70 26c-46 0 -88 -28 -88 -73z
" />
    <glyph glyph-name="afii62757" unicode="&#x626;" horiz-adv-x="623" arabic-form="initial" 
d="M546 313c0 -150 -123 -303 -271 -303h-300v171h240c66 0 113 17 138 52v1h1c10 17 15 52 15 107v252h177v-280zM302 1010c0 -46 45 -67 92 -67h1c29 0 77 13 146 40l29 -69l-364 -132l-20 65l94 36c-39 36 -58 69 -58 100c0 96 84 179 175 181c38 0 73 -15 106 -44
l-43 -63c-20 18 -43 26 -70 26c-46 0 -88 -28 -88 -73z" />
    <glyph glyph-name="afii62758" unicode="&#x626;" horiz-adv-x="785" arabic-form="medial" 
d="M350 991c0 -46 45 -67 92 -67h1c29 0 77 13 146 40l29 -69l-364 -132l-20 65l94 36c-39 36 -58 69 -58 100c0 96 84 179 175 181c38 0 73 -15 106 -44l-43 -63c-20 18 -43 26 -70 26c-46 0 -88 -28 -88 -73zM315 181c118 0 150 40 150 160v252h174v-252
c0 -132 43 -158 176 -160v-171l-102 4l-55 8l-42 21l-60 48c-65 -54 -126 -81 -184 -81h-401v171h344z" />
    <glyph glyph-name="afii57415" unicode="&#x627;" horiz-adv-x="476" arabic-form="isolated" 
d="M391 10h-171v1211h171v-1211z" />
    <glyph glyph-name="afii62760" unicode="&#x627;" horiz-adv-x="550" arabic-form="final" 
d="M353 377c0 -96 3 -165 78 -185c47 -12 74 -9 138 -11v-171c-159 1 -267 31 -325 91c-42 45 -63 110 -63 195v898h172v-817z" />
    <glyph glyph-name="afii62763" unicode="&#x628;" horiz-adv-x="1824" arabic-form="final" 
d="M269 341c0 -118 35 -160 151 -160h891c57 0 94 7 112 21h1c28 24 42 70 42 139v252h173v-252c0 -128 78 -158 210 -160v-171l-108 6l-81 11c-43 13 -77 34 -104 65c-64 -55 -126 -82 -185 -82h-1010c-149 0 -264 154 -264 303v280h172v-252zM823 -192
c54 0 119 -52 119 -105c0 -64 -43 -131 -105 -131c-85 0 -133 46 -133 131c0 51 67 105 119 105z" />
    <glyph glyph-name="afii62761" unicode="&#x628;" horiz-adv-x="623" arabic-form="initial" 
d="M328 -193c54 0 119 -52 119 -105c0 -64 -43 -131 -105 -131c-85 0 -133 46 -133 131c0 51 67 105 119 105zM546 313c0 -150 -123 -303 -271 -303h-300v171h240c66 0 113 17 138 52v1h1c10 17 15 52 15 107v252h177v-280z" />
    <glyph glyph-name="afii62762" unicode="&#x628;" horiz-adv-x="785" arabic-form="medial" 
d="M450 -197c54 0 119 -52 119 -105c0 -64 -43 -131 -105 -131c-85 0 -133 46 -133 131c0 51 67 105 119 105zM315 181c118 0 150 40 150 160v252h174v-252c0 -132 43 -158 176 -160v-171l-102 4l-55 8l-42 21l-60 48c-65 -54 -126 -81 -184 -81h-401v171h344z" />
    <glyph glyph-name="afii62764" unicode="&#x629;" horiz-adv-x="1186" arabic-form="final" 
d="M492 151c94 0 194 83 194 177c0 38 -12 76 -36 114l-81 81c-36 36 -63 64 -81 82l-7 -8c-71 -65 -119 -116 -141 -152c-22 -35 -33 -71 -33 -109s15 -78 46 -119c32 -44 78 -66 139 -66zM839 224c-71 -154 -185 -237 -350 -237c-97 0 -180 35 -250 104s-105 154 -105 255
c0 67 24 136 72 207c24 38 83 101 157 175l-56 66l117 117l567 -603c50 -52 86 -88 108 -106h1l1 -1c25 -12 65 -19 117 -20v-171c-92 1 -148 13 -169 34h-1c-10 4 -80 64 -209 180zM236 1304c62 0 119 -57 119 -119c0 -54 -53 -117 -106 -117c-83 0 -131 47 -131 131
c0 51 66 105 118 105zM529 1304c62 0 120 -57 120 -119c0 -54 -53 -117 -106 -117c-84 0 -132 46 -132 131c0 53 64 105 118 105z" />
    <glyph glyph-name="afii62767" unicode="&#x62a;" horiz-adv-x="1824" arabic-form="final" 
d="M269 341c0 -118 35 -160 151 -160h891c57 0 94 7 112 21h1c28 24 42 70 42 139v252h173v-252c0 -128 78 -158 210 -160v-171l-108 6l-81 11c-43 13 -77 34 -104 65c-64 -55 -126 -82 -185 -82h-1010c-149 0 -264 154 -264 303v280h172v-252zM741 1027
c62 0 119 -57 119 -119c0 -54 -53 -117 -106 -117c-83 0 -131 47 -131 131c0 51 66 105 118 105zM1034 1027c62 0 120 -57 120 -119c0 -54 -53 -117 -106 -117c-84 0 -132 46 -132 131c0 53 64 105 118 105z" />
    <glyph glyph-name="afii62765" unicode="&#x62a;" horiz-adv-x="623" arabic-form="initial" 
d="M546 313c0 -150 -123 -303 -271 -303h-300v171h240c66 0 113 17 138 52v1h1c10 17 15 52 15 107v252h177v-280zM147 1048c62 0 119 -57 119 -119c0 -54 -53 -117 -106 -117c-83 0 -131 47 -131 131c0 51 66 105 118 105zM440 1048c62 0 120 -57 120 -119
c0 -54 -53 -117 -106 -117c-84 0 -132 46 -132 131c0 53 64 105 118 105z" />
    <glyph glyph-name="afii62766" unicode="&#x62a;" horiz-adv-x="785" arabic-form="medial" 
d="M315 181c118 0 150 40 150 160v252h174v-252c0 -132 43 -158 176 -160v-171l-102 4l-55 8l-42 21l-60 48c-65 -54 -126 -81 -184 -81h-401v171h344zM213 1027c62 0 119 -57 119 -119c0 -54 -53 -117 -106 -117c-83 0 -131 47 -131 131c0 51 66 105 118 105zM506 1027
c62 0 120 -57 120 -119c0 -54 -53 -117 -106 -117c-84 0 -132 46 -132 131c0 53 64 105 118 105z" />
    <glyph glyph-name="afii62770" unicode="&#x62b;" horiz-adv-x="1824" arabic-form="final" 
d="M269 341c0 -118 35 -160 151 -160h891c57 0 94 7 112 21h1c28 24 42 70 42 139v252h173v-252c0 -128 78 -158 210 -160v-171l-108 6l-81 11c-43 13 -77 34 -104 65c-64 -55 -126 -82 -185 -82h-1010c-149 0 -264 154 -264 303v280h172v-252zM1022 1025
c62 0 120 -57 120 -119c0 -64 -57 -118 -120 -118c-64 0 -118 54 -118 118c0 63 55 119 118 119zM831 906c0 -63 -56 -118 -119 -118c-64 0 -117 54 -117 118c0 62 55 119 117 119s119 -57 119 -119zM979 1198c0 -62 -57 -119 -119 -119c-63 0 -117 55 -117 119
c0 62 55 119 117 119s119 -57 119 -119z" />
    <glyph glyph-name="afii62768" unicode="&#x62b;" horiz-adv-x="623" arabic-form="initial" 
d="M546 313c0 -150 -123 -303 -271 -303h-300v171h240c66 0 113 17 138 52v1h1c10 17 15 52 15 107v252h177v-280zM440 1046c62 0 120 -57 120 -119c0 -64 -57 -118 -120 -118c-64 0 -118 54 -118 118c0 63 55 119 118 119zM249 927c0 -63 -56 -118 -119 -118
c-64 0 -117 54 -117 118c0 62 55 119 117 119s119 -57 119 -119zM397 1219c0 -62 -57 -119 -119 -119c-63 0 -117 55 -117 119c0 62 55 119 117 119s119 -57 119 -119z" />
    <glyph glyph-name="afii62769" unicode="&#x62b;" horiz-adv-x="785" arabic-form="medial" 
d="M315 181c118 0 150 40 150 160v252h174v-252c0 -132 43 -158 176 -160v-171l-102 4l-55 8l-42 21l-60 48c-65 -54 -126 -81 -184 -81h-401v171h344zM577 1025c62 0 120 -57 120 -119c0 -64 -57 -118 -120 -118c-64 0 -118 54 -118 118c0 63 55 119 118 119zM386 906
c0 -63 -56 -118 -119 -118c-64 0 -117 54 -117 118c0 62 55 119 117 119s119 -57 119 -119zM534 1198c0 -62 -57 -119 -119 -119c-63 0 -117 55 -117 119c0 62 55 119 117 119s119 -57 119 -119z" />
    <glyph glyph-name="afii62773" unicode="&#x62c;" horiz-adv-x="1270" arabic-form="final" 
d="M806 -240c54 0 119 -52 119 -105c0 -64 -43 -131 -105 -131c-85 0 -133 46 -133 131c0 51 67 105 119 105zM1310 10c-157 2 -264 26 -311 128l-29 105l-389 -217c-173 -98 -260 -220 -260 -367c0 -105 44 -199 131 -281c88 -82 180 -122 277 -122h551l14 -175h-515
c-197 0 -358 71 -483 214c-91 112 -136 236 -136 370v39l4 42c18 174 108 304 271 389l601 329c-34 62 -81 99 -141 111c-53 10 -221 15 -504 15l-25 166h451c248 0 390 -132 392 -378l-177 -101c6 -42 35 -69 86 -81c44 -10 108 -15 192 -15v-171z" />
    <glyph glyph-name="afii62771" unicode="&#x62c;" horiz-adv-x="1099" arabic-form="initial" 
d="M1051 378l-436 -247c-93 -53 -181 -87 -266 -101c-78 -13 -206 -20 -383 -20v171h142c74 0 123 3 148 10c80 9 157 30 228 62c43 18 107 52 191 104l190 104c-20 57 -67 95 -143 114c-58 10 -221 15 -489 15l-25 166h462c256 0 379 -124 381 -378zM680 -172
c54 0 119 -52 119 -105c0 -64 -43 -131 -105 -131c-85 0 -133 46 -133 131c0 51 67 105 119 105z" />
    <glyph glyph-name="afii62772" unicode="&#x62c;" horiz-adv-x="1099" arabic-form="medial" 
d="M1120 10c-97 1 -167 13 -211 35c-27 13 -51 42 -73 86l-25 113c-118 -78 -250 -145 -396 -199c-88 -23 -238 -35 -449 -35v171h142c74 0 123 3 148 10c80 9 157 30 228 62c43 18 107 52 191 104l190 104c-20 57 -67 95 -143 114c-58 10 -221 15 -489 15l-25 166h462
c246 0 379 -136 381 -380l-178 -98v-6c0 -60 82 -90 247 -91v-171zM592 -191c54 0 119 -52 119 -105c0 -64 -43 -131 -105 -131c-85 0 -133 46 -133 131c0 51 67 105 119 105z" />
    <glyph glyph-name="afii62776" unicode="&#x62d;" horiz-adv-x="1270" arabic-form="final" 
d="M1310 10c-157 2 -264 26 -311 128l-29 105l-389 -217c-173 -98 -260 -220 -260 -367c0 -105 44 -199 131 -281c88 -82 180 -122 277 -122h551l14 -175h-515c-197 0 -358 71 -483 214c-91 112 -136 236 -136 370v39l4 42c18 174 108 304 271 389l601 329
c-34 62 -81 99 -141 111c-53 10 -221 15 -504 15l-25 166h451c248 0 390 -132 392 -378l-177 -101c6 -42 35 -69 86 -81c44 -10 108 -15 192 -15v-171z" />
    <glyph glyph-name="afii62774" unicode="&#x62d;" horiz-adv-x="1099" arabic-form="initial" 
d="M1051 378l-436 -247c-93 -53 -181 -87 -266 -101c-78 -13 -206 -20 -383 -20v171h142c74 0 123 3 148 10c80 9 157 30 228 62c43 18 107 52 191 104l190 104c-20 57 -67 95 -143 114c-58 10 -221 15 -489 15l-25 166h462c256 0 379 -124 381 -378z" />
    <glyph glyph-name="afii62775" unicode="&#x62d;" horiz-adv-x="1099" arabic-form="medial" 
d="M1120 10c-97 1 -167 13 -211 35c-27 13 -51 42 -73 86l-25 113c-118 -78 -250 -145 -396 -199c-88 -23 -238 -35 -449 -35v171h142c74 0 123 3 148 10c80 9 157 30 228 62c43 18 107 52 191 104l190 104c-20 57 -67 95 -143 114c-58 10 -221 15 -489 15l-25 166h462
c246 0 379 -136 381 -380l-178 -98v-6c0 -60 82 -90 247 -91v-171z" />
    <glyph glyph-name="afii62779" unicode="&#x62e;" horiz-adv-x="1270" arabic-form="final" 
d="M1310 10c-157 2 -264 26 -311 128l-29 105l-389 -217c-173 -98 -260 -220 -260 -367c0 -105 44 -199 131 -281c88 -82 180 -122 277 -122h551l14 -175h-515c-197 0 -358 71 -483 214c-91 112 -136 236 -136 370v39l4 42c18 174 108 304 271 389l601 329
c-34 62 -81 99 -141 111c-53 10 -221 15 -504 15l-25 166h451c248 0 390 -132 392 -378l-177 -101c6 -42 35 -69 86 -81c44 -10 108 -15 192 -15v-171zM696 1188c54 0 119 -52 119 -105c0 -64 -43 -131 -105 -131c-85 0 -133 46 -133 131c0 51 67 105 119 105z" />
    <glyph glyph-name="afii62777" unicode="&#x62e;" horiz-adv-x="1099" arabic-form="initial" 
d="M1051 378l-436 -247c-93 -53 -181 -87 -266 -101c-78 -13 -206 -20 -383 -20v171h142c74 0 123 3 148 10c80 9 157 30 228 62c43 18 107 52 191 104l190 104c-20 57 -67 95 -143 114c-58 10 -221 15 -489 15l-25 166h462c256 0 379 -124 381 -378zM512 1187
c54 0 119 -52 119 -105c0 -64 -43 -131 -105 -131c-85 0 -133 46 -133 131c0 51 67 105 119 105z" />
    <glyph glyph-name="afii62778" unicode="&#x62e;" horiz-adv-x="1099" arabic-form="medial" 
d="M1120 10c-97 1 -167 13 -211 35c-27 13 -51 42 -73 86l-25 113c-118 -78 -250 -145 -396 -199c-88 -23 -238 -35 -449 -35v171h142c74 0 123 3 148 10c80 9 157 30 228 62c43 18 107 52 191 104l190 104c-20 57 -67 95 -143 114c-58 10 -221 15 -489 15l-25 166h462
c246 0 379 -136 381 -380l-178 -98v-6c0 -60 82 -90 247 -91v-171zM529 1165c54 0 119 -52 119 -105c0 -64 -43 -131 -105 -131c-85 0 -133 46 -133 131c0 51 67 105 119 105z" />
    <glyph glyph-name="afii62780" unicode="&#x62f;" horiz-adv-x="1317" arabic-form="final" 
d="M1248 10c-69 0 -149 47 -243 141c-18 -32 -46 -67 -85 -103c-40 -25 -97 -38 -172 -38h-581l-24 171h594c80 0 120 26 120 81c0 32 -13 60 -37 82l-422 451l113 116l571 -603c60 -62 100 -100 122 -110c20 -10 62 -16 125 -17v-171h-81z" />
    <glyph glyph-name="afii62781" unicode="&#x630;" horiz-adv-x="1317" arabic-form="final" 
d="M1248 10c-69 0 -149 47 -243 141c-18 -32 -46 -67 -85 -103c-40 -25 -97 -38 -172 -38h-581l-24 171h594c80 0 120 26 120 81c0 32 -13 60 -37 82l-422 451l113 116l571 -603c60 -62 100 -100 122 -110c20 -10 62 -16 125 -17v-171h-81zM437 1296c54 0 119 -52 119 -105
c0 -64 -43 -131 -105 -131c-85 0 -133 46 -133 131c0 51 67 105 119 105z" />
    <glyph glyph-name="afii62782" unicode="&#x631;" horiz-adv-x="976" arabic-form="final" 
d="M998 10c-86 2 -148 32 -186 88l-19 28v-35c0 -173 -49 -316 -147 -430c-90 -90 -200 -136 -328 -136h-239l-31 168h252c80 0 155 28 222 83c66 56 100 126 100 210v607h168v-266c0 -95 69 -144 208 -146v-171z" />
    <glyph glyph-name="afii62783" unicode="&#x632;" horiz-adv-x="976" arabic-form="final" 
d="M998 10c-86 2 -148 32 -186 88l-19 28v-35c0 -173 -49 -316 -147 -430c-90 -90 -200 -136 -328 -136h-239l-31 168h252c80 0 155 28 222 83c66 56 100 126 100 210v607h168v-266c0 -95 69 -144 208 -146v-171zM655 1040c54 0 119 -52 119 -105c0 -64 -43 -131 -105 -131
c-85 0 -133 46 -133 131c0 51 67 105 119 105z" />
    <glyph glyph-name="afii62786" unicode="&#x633;" horiz-adv-x="2448" arabic-form="final" 
d="M1772 312c0 -90 67 -131 161 -131c104 0 155 45 155 136v276h168v-280c0 -48 25 -87 75 -116h1l63 -12l80 -4v-171l-68 4c-27 1 -45 3 -53 7l-1 1h-2c-71 9 -128 43 -173 100c-62 -77 -146 -116 -252 -116c-93 0 -176 37 -249 110c-72 -72 -152 -109 -240 -109
c-49 0 -94 24 -136 70l-18 20v-28c0 -161 -44 -291 -134 -392c-89 -101 -199 -152 -328 -152h-302c-122 0 -230 48 -322 144c-92 97 -138 211 -138 343v388h170v-397c0 -172 144 -310 316 -310h250c180 0 317 130 317 310v590h171v-292c0 -68 79 -120 150 -120
c108 0 163 39 163 119v293h176v-281z" />
    <glyph glyph-name="afii62784" unicode="&#x633;" horiz-adv-x="1549" arabic-form="initial" 
d="M1470 307c0 -186 -133 -294 -327 -294c-79 0 -161 36 -246 109c-84 -71 -167 -107 -247 -107c-71 0 -149 35 -234 105l-9 6c-52 -65 -105 -116 -222 -116h-218v171h217c109 0 150 58 150 171v241h163v-239c0 -98 58 -178 156 -178c110 0 165 64 165 175v242h165v-248
c0 -101 63 -169 161 -169c105 0 160 60 160 166v251h166v-286z" />
    <glyph glyph-name="afii62785" unicode="&#x633;" horiz-adv-x="1667" arabic-form="medial" 
d="M1372 121c-65 -74 -141 -117 -240 -117c-83 0 -165 40 -244 119c-79 -79 -165 -119 -258 -119c-89 0 -162 40 -219 119c-44 -57 -94 -116 -195 -116h-1l-257 3v171h169c143 0 193 33 193 177v235h167v-233c0 -88 61 -184 144 -184c114 0 171 59 171 175v242h169v-239
c0 -89 75 -178 161 -178c107 0 158 65 158 175v242h171v-286c0 -64 46 -105 139 -122h1l79 -4v-171l-68 4c-99 4 -179 39 -240 107z" />
    <glyph glyph-name="afii62789" unicode="&#x634;" horiz-adv-x="2448" arabic-form="final" 
d="M1772 312c0 -90 67 -131 161 -131c104 0 155 45 155 136v276h168v-280c0 -48 25 -87 75 -116h1l63 -12l80 -4v-171l-68 4c-27 1 -45 3 -53 7l-1 1h-2c-71 9 -128 43 -173 100c-62 -77 -146 -116 -252 -116c-93 0 -176 37 -249 110c-72 -72 -152 -109 -240 -109
c-49 0 -94 24 -136 70l-18 20v-28c0 -161 -44 -291 -134 -392c-89 -101 -199 -152 -328 -152h-302c-122 0 -230 48 -322 144c-92 97 -138 211 -138 343v388h170v-397c0 -172 144 -310 316 -310h250c180 0 317 130 317 310v590h171v-292c0 -68 79 -120 150 -120
c108 0 163 39 163 119v293h176v-281zM1852 1038c62 0 120 -57 120 -119c0 -64 -57 -118 -120 -118c-64 0 -118 54 -118 118c0 63 55 119 118 119zM1661 919c0 -63 -56 -118 -119 -118c-64 0 -117 54 -117 118c0 62 55 119 117 119s119 -57 119 -119zM1809 1211
c0 -62 -57 -119 -119 -119c-63 0 -117 55 -117 119c0 62 55 119 117 119s119 -57 119 -119z" />
    <glyph glyph-name="afii62787" unicode="&#x634;" horiz-adv-x="1549" arabic-form="initial" 
d="M1470 307c0 -186 -133 -294 -327 -294c-79 0 -161 36 -246 109c-84 -71 -167 -107 -247 -107c-71 0 -149 35 -234 105l-9 6c-52 -65 -105 -116 -222 -116h-218v171h217c109 0 150 58 150 171v241h163v-239c0 -98 58 -178 156 -178c110 0 165 64 165 175v242h165v-248
c0 -101 63 -169 161 -169c105 0 160 60 160 166v251h166v-286zM1110 1048c62 0 120 -57 120 -119c0 -64 -57 -118 -120 -118c-64 0 -118 54 -118 118c0 63 55 119 118 119zM919 929c0 -63 -56 -118 -119 -118c-64 0 -117 54 -117 118c0 62 55 119 117 119s119 -57 119 -119z
M1067 1221c0 -62 -57 -119 -119 -119c-63 0 -117 55 -117 119c0 62 55 119 117 119s119 -57 119 -119z" />
    <glyph glyph-name="afii62788" unicode="&#x634;" horiz-adv-x="1667" arabic-form="medial" 
d="M1372 121c-65 -74 -141 -117 -240 -117c-83 0 -165 40 -244 119c-79 -79 -165 -119 -258 -119c-89 0 -162 40 -219 119c-44 -57 -94 -116 -195 -116h-1l-257 3v171h169c143 0 193 33 193 177v235h167v-233c0 -88 61 -184 144 -184c114 0 171 59 171 175v242h169v-239
c0 -89 75 -178 161 -178c107 0 158 65 158 175v242h171v-286c0 -64 46 -105 139 -122h1l79 -4v-171l-68 4c-99 4 -179 39 -240 107zM1046 1026c62 0 120 -57 120 -119c0 -64 -57 -118 -120 -118c-64 0 -118 54 -118 118c0 63 55 119 118 119zM855 907
c0 -63 -56 -118 -119 -118c-64 0 -117 54 -117 118c0 62 55 119 117 119s119 -57 119 -119zM1003 1199c0 -62 -57 -119 -119 -119c-63 0 -117 55 -117 119c0 62 55 119 117 119s119 -57 119 -119z" />
    <glyph glyph-name="afii62792" unicode="&#x635;" horiz-adv-x="2401" arabic-form="final" 
d="M2050 584h-2c-65 0 -133 -42 -202 -125c-51 -55 -112 -148 -182 -278h392c77 0 115 65 115 196c0 85 -20 147 -61 188c-10 7 -29 13 -60 19zM239 -14c0 -151 151 -293 303 -293h271c76 0 147 34 213 101c65 66 98 130 98 192v607h171v-275c0 -92 64 -137 194 -137h7l2 6
c150 381 323 571 516 571c137 0 241 -89 290 -183c29 -60 44 -121 44 -184c0 -64 -12 -134 -35 -210h113v-171h-862c-139 0 -221 32 -245 96l-20 53v-57c0 -172 -44 -310 -118 -411c-71 -98 -192 -166 -356 -166h-297c-132 0 -239 50 -324 149c-70 85 -128 211 -128 361v365
h163v-414z" />
    <glyph glyph-name="afii62790" unicode="&#x635;" horiz-adv-x="1580" arabic-form="initial" 
d="M1239 584h-2c-57 0 -124 -42 -202 -125c-60 -65 -120 -158 -180 -278h390c80 0 120 65 120 196c0 82 -22 145 -65 188c-10 7 -30 13 -61 19zM170 181c98 0 145 56 145 154v258h168v-238c0 -116 66 -174 198 -174h8l2 6c69 182 148 323 240 423c89 97 183 146 282 146
c38 0 85 -15 140 -45c120 -67 181 -180 181 -339c0 -96 -44 -267 -96 -307c-44 -36 -120 -55 -228 -55h-490c-143 0 -221 61 -268 163l-11 -13c-76 -99 -160 -150 -254 -150h-220v171h203z" />
    <glyph glyph-name="afii62791" unicode="&#x635;" horiz-adv-x="1667" arabic-form="medial" 
d="M1239 584h-2c-57 0 -124 -42 -202 -125c-60 -65 -120 -158 -180 -278h390c80 0 120 65 120 196c0 82 -22 145 -65 188c-10 7 -30 13 -61 19zM170 181c98 0 145 56 145 154v258h168v-238c0 -116 66 -174 198 -174h8l2 6c69 182 148 323 240 423c89 97 183 146 282 146
c46 0 94 -15 145 -45c118 -70 176 -183 176 -339c0 -48 -9 -111 -29 -191h175v-171h-960c-143 0 -221 61 -268 163l-11 -13c-76 -99 -160 -150 -254 -150h-220v171h203z" />
    <glyph glyph-name="afii62795" unicode="&#x636;" horiz-adv-x="2401" arabic-form="final" 
d="M2050 584h-2c-65 0 -133 -42 -202 -125c-51 -55 -112 -148 -182 -278h392c77 0 115 65 115 196c0 85 -20 147 -61 188c-10 7 -29 13 -60 19zM239 -14c0 -151 151 -293 303 -293h271c76 0 147 34 213 101c65 66 98 130 98 192v607h171v-275c0 -92 64 -137 194 -137h7l2 6
c150 381 323 571 516 571c137 0 241 -89 290 -183c29 -60 44 -121 44 -184c0 -64 -12 -134 -35 -210h113v-171h-862c-139 0 -221 32 -245 96l-20 53v-57c0 -172 -44 -310 -118 -411c-71 -98 -192 -166 -356 -166h-297c-132 0 -239 50 -324 149c-70 85 -128 211 -128 361v365
h163v-414zM1498 1124c54 0 119 -52 119 -105c0 -64 -43 -131 -105 -131c-85 0 -133 46 -133 131c0 51 67 105 119 105z" />
    <glyph glyph-name="afii62793" unicode="&#x636;" horiz-adv-x="1580" arabic-form="initial" 
d="M1239 584h-2c-57 0 -124 -42 -202 -125c-60 -65 -120 -158 -180 -278h390c80 0 120 65 120 196c0 82 -22 145 -65 188c-10 7 -30 13 -61 19zM170 181c98 0 145 56 145 154v258h168v-238c0 -116 66 -174 198 -174h8l2 6c69 182 148 323 240 423c89 97 183 146 282 146
c38 0 85 -15 140 -45c120 -67 181 -180 181 -339c0 -96 -44 -267 -96 -307c-44 -36 -120 -55 -228 -55h-490c-143 0 -221 61 -268 163l-11 -13c-76 -99 -160 -150 -254 -150h-220v171h203zM716 1165c54 0 119 -52 119 -105c0 -64 -43 -131 -105 -131c-85 0 -133 46 -133 131
c0 51 67 105 119 105z" />
    <glyph glyph-name="afii62794" unicode="&#x636;" horiz-adv-x="1667" arabic-form="medial" 
d="M1239 584h-2c-57 0 -124 -42 -202 -125c-60 -65 -120 -158 -180 -278h390c80 0 120 65 120 196c0 82 -22 145 -65 188c-10 7 -30 13 -61 19zM170 181c98 0 145 56 145 154v258h168v-238c0 -116 66 -174 198 -174h8l2 6c69 182 148 323 240 423c89 97 183 146 282 146
c46 0 94 -15 145 -45c118 -70 176 -183 176 -339c0 -48 -9 -111 -29 -191h175v-171h-960c-143 0 -221 61 -268 163l-11 -13c-76 -99 -160 -150 -254 -150h-220v171h203zM755 1166c54 0 119 -52 119 -105c0 -64 -43 -131 -105 -131c-85 0 -133 46 -133 131
c0 51 67 105 119 105z" />
    <glyph glyph-name="afii62798" unicode="&#x637;" horiz-adv-x="1113" arabic-form="final" 
d="M749 584h-2c-55 0 -121 -42 -198 -125c-71 -69 -130 -162 -180 -278h383c30 0 60 21 90 63l1 1c20 38 31 84 31 139c0 84 -21 145 -64 181c-10 7 -30 13 -61 19zM1037 284c0 -24 -8 -59 -25 -103h109v-171h-1031l-34 171h159v1040h171v-707l19 25
c114 145 222 217 321 217c34 0 80 -15 140 -45c117 -68 176 -186 176 -353v-26z" />
    <glyph glyph-name="afii62796" unicode="&#x637;" horiz-adv-x="1048" arabic-form="initial" 
d="M667 584h-2c-56 0 -121 -39 -195 -116c-73 -76 -133 -167 -182 -273l-8 -14h393c79 0 119 64 119 194c0 91 -23 154 -68 190c-7 6 -25 13 -57 19zM786 711c107 -58 182 -212 182 -377c0 -84 -24 -158 -73 -220c-52 -69 -128 -104 -225 -104h-695v171h164v1040h169v-704
l19 24c113 144 219 215 318 215c39 0 86 -15 141 -45z" />
    <glyph glyph-name="afii62797" unicode="&#x637;" horiz-adv-x="1009" arabic-form="medial" 
d="M630 584h-2c-57 0 -125 -42 -202 -125c-68 -71 -126 -160 -174 -264l-7 -14h388c31 0 61 21 91 63l2 1v1c18 35 26 81 26 138c0 80 -20 140 -61 181c-10 7 -30 13 -61 19zM920 363c0 -71 -11 -131 -33 -182h134v-171h-1063v171h139v1040h168v-707l19 25
c114 145 223 217 327 217c34 0 78 -15 133 -45c117 -68 176 -184 176 -348z" />
    <glyph glyph-name="afii62801" unicode="&#x638;" horiz-adv-x="1113" arabic-form="final" 
d="M749 584h-2c-55 0 -121 -42 -198 -125c-71 -69 -130 -162 -180 -278h383c30 0 60 21 90 63l1 1c20 38 31 84 31 139c0 84 -21 145 -64 181c-10 7 -30 13 -61 19zM1037 284c0 -24 -8 -59 -25 -103h109v-171h-1031l-34 171h159v1040h171v-707l19 25
c114 145 222 217 321 217c34 0 80 -15 140 -45c117 -68 176 -186 176 -353v-26zM798 1198c54 0 119 -52 119 -105c0 -64 -43 -131 -105 -131c-85 0 -133 46 -133 131c0 51 67 105 119 105z" />
    <glyph glyph-name="afii62799" unicode="&#x638;" horiz-adv-x="1048" arabic-form="initial" 
d="M663 1170c54 0 119 -52 119 -105c0 -64 -43 -131 -105 -131c-85 0 -133 46 -133 131c0 51 67 105 119 105zM667 584h-2c-56 0 -121 -39 -195 -116c-73 -76 -133 -167 -182 -273l-8 -14h393c79 0 119 64 119 194c0 91 -23 154 -68 190c-7 6 -25 13 -57 19zM786 711
c107 -58 182 -212 182 -377c0 -84 -24 -158 -73 -220c-52 -69 -128 -104 -225 -104h-695v171h164v1040h169v-704l19 24c113 144 219 215 318 215c39 0 86 -15 141 -45z" />
    <glyph glyph-name="afii62800" unicode="&#x638;" horiz-adv-x="1009" arabic-form="medial" 
d="M627 1160c54 0 119 -52 119 -105c0 -64 -43 -131 -105 -131c-85 0 -133 46 -133 131c0 51 67 105 119 105zM630 584h-2c-57 0 -125 -42 -202 -125c-68 -71 -126 -160 -174 -264l-7 -14h388c31 0 61 21 91 63l2 1v1c18 35 26 81 26 138c0 80 -20 140 -61 181
c-10 7 -30 13 -61 19zM920 363c0 -71 -11 -131 -33 -182h134v-171h-1063v171h139v1040h168v-707l19 25c114 145 223 217 327 217c34 0 78 -15 133 -45c117 -68 176 -184 176 -348z" />
    <glyph glyph-name="afii62804" unicode="&#x639;" horiz-adv-x="1272" arabic-form="final" 
d="M1015 523c0 34 -35 57 -104 69h-332l232 -247c65 37 122 68 156 97c33 28 48 55 48 81zM929 226c67 -30 193 -45 376 -45v-171c-127 0 -219 6 -275 17c-106 19 -186 61 -240 125l-8 -3c-313 -130 -469 -294 -469 -495c0 -94 44 -189 133 -282c83 -78 172 -116 266 -116
h551l16 -175h-517c-170 0 -313 62 -431 185c-120 111 -180 246 -180 405c0 116 39 225 116 327c78 103 210 194 396 274l-265 253l65 111l59 120h401c158 0 245 -67 263 -201c0 -54 -4 -85 -13 -94v-1c-15 -71 -91 -146 -226 -224z" />
    <glyph glyph-name="afii62802" unicode="&#x639;" horiz-adv-x="964" arabic-form="initial" 
d="M246 181c-43 102 -65 184 -65 247c0 97 38 181 114 251c27 24 63 43 109 57l63 14l86 6c49 0 100 -13 151 -37h1c28 -10 50 -24 68 -42c22 -12 45 -30 68 -54l-84 -133c-97 74 -180 111 -250 111c-74 0 -124 -37 -150 -109h-1l-14 -51v-36c0 -36 9 -74 26 -113
c31 -74 77 -111 139 -111h376l31 -171h-947v171h279z" />
    <glyph glyph-name="afii62803" unicode="&#x639;" horiz-adv-x="886" arabic-form="medial" 
d="M634 519c0 58 -46 61 -95 73h-333l232 -243c65 33 114 62 147 89s49 54 49 81zM581 234c91 -35 200 -52 329 -53v-171c-116 0 -202 6 -257 19c-50 10 -119 52 -204 124c-78 -65 -159 -109 -244 -131c-48 -8 -128 -12 -239 -12v171c174 1 288 27 341 80l-268 264l121 231
h403c157 0 242 -67 257 -201c0 -49 -1 -79 -5 -92c-30 -96 -144 -176 -234 -229z" />
    <glyph glyph-name="afii62807" unicode="&#x63a;" horiz-adv-x="1272" arabic-form="final" 
d="M814 1169c54 0 119 -52 119 -105c0 -64 -43 -131 -105 -131c-85 0 -133 46 -133 131c0 51 67 105 119 105zM1015 523c0 34 -35 57 -104 69h-332l232 -247c65 37 122 68 156 97c33 28 48 55 48 81zM929 226c67 -30 193 -45 376 -45v-171c-127 0 -219 6 -275 17
c-106 19 -186 61 -240 125l-8 -3c-313 -130 -469 -294 -469 -495c0 -94 44 -189 133 -282c83 -78 172 -116 266 -116h551l16 -175h-517c-170 0 -313 62 -431 185c-120 111 -180 246 -180 405c0 116 39 225 116 327c78 103 210 194 396 274l-265 253l65 111l59 120h401
c158 0 245 -67 263 -201c0 -54 -4 -85 -13 -94v-1c-15 -71 -91 -146 -226 -224z" />
    <glyph glyph-name="afii62805" unicode="&#x63a;" horiz-adv-x="964" arabic-form="initial" 
d="M246 181c-43 102 -65 184 -65 247c0 97 38 181 114 251c27 24 63 43 109 57l63 14l86 6c49 0 100 -13 151 -37h1c28 -10 50 -24 68 -42c22 -12 45 -30 68 -54l-84 -133c-97 74 -180 111 -250 111c-74 0 -124 -37 -150 -109h-1l-14 -51v-36c0 -36 9 -74 26 -113
c31 -74 77 -111 139 -111h376l31 -171h-947v171h279zM572 1163c54 0 119 -52 119 -105c0 -64 -43 -131 -105 -131c-85 0 -133 46 -133 131c0 51 67 105 119 105z" />
    <glyph glyph-name="afii62806" unicode="&#x63a;" horiz-adv-x="886" arabic-form="medial" 
d="M634 519c0 58 -46 61 -95 73h-333l232 -243c65 33 114 62 147 89s49 54 49 81zM581 234c91 -35 200 -52 329 -53v-171c-116 0 -202 6 -257 19c-50 10 -119 52 -204 124c-78 -65 -159 -109 -244 -131c-48 -8 -128 -12 -239 -12v171c174 1 288 27 341 80l-268 264l121 231
h403c157 0 242 -67 257 -201c0 -49 -1 -79 -5 -92c-30 -96 -144 -176 -234 -229zM454 1191c54 0 119 -52 119 -105c0 -64 -43 -131 -105 -131c-85 0 -133 46 -133 131c0 51 67 105 119 105z" />
    <glyph glyph-name="afii62810" unicode="&#x641;" horiz-adv-x="1725" arabic-form="final" 
d="M1473 411c0 83 -81 181 -163 181c-79 0 -172 -75 -172 -155c0 -78 68 -149 204 -214l5 -3l4 4c81 50 122 113 122 187zM261 341c0 -102 53 -160 154 -160h686l-14 16c-69 81 -103 163 -103 246s29 157 88 220c58 62 136 93 233 93c96 0 174 -34 236 -103
c55 -66 83 -141 83 -226c0 -89 -25 -170 -75 -246h192v-171c-211 0 -347 16 -407 47c-26 -34 -97 -32 -172 -38c-54 -4 -117 -5 -189 -5l-638 -4c-69 0 -130 35 -182 104c-41 63 -61 130 -61 199v280h169v-252zM1300 1159c54 0 119 -52 119 -105c0 -64 -43 -131 -105 -131
c-85 0 -133 46 -133 131c0 51 67 105 119 105z" />
    <glyph glyph-name="afii62808" unicode="&#x641;" horiz-adv-x="894" arabic-form="initial" 
d="M649 514c0 117 -68 222 -184 222c-73 0 -144 -37 -144 -108c0 -64 20 -101 59 -112c13 -8 56 -12 130 -12h139v10zM831 320c0 -108 -37 -188 -109 -241c-59 -46 -118 -69 -180 -69h-566v171h569c79 0 119 51 119 154v10h-11c-175 0 -287 6 -337 18
c-102 43 -152 127 -152 252c0 93 31 167 93 220c64 54 139 81 225 81c85 0 162 -31 228 -93c79 -69 118 -162 118 -281zM487 1331c54 0 119 -52 119 -105c0 -64 -43 -131 -105 -131c-85 0 -133 46 -133 131c0 51 67 105 119 105z" />
    <glyph glyph-name="afii62809" unicode="&#x641;" horiz-adv-x="912" arabic-form="medial" 
d="M445 592c-76 0 -164 -81 -164 -158c0 -81 67 -151 200 -211l5 -4c42 34 74 67 95 97s32 62 32 95c0 83 -86 181 -168 181zM121 448c0 183 143 308 327 308c100 0 180 -34 237 -102c53 -66 79 -142 79 -228c0 -88 -25 -169 -75 -245h265v-169l-51 4h-51l-136 3
c-53 0 -103 5 -150 13l-90 31c-46 -35 -224 -53 -535 -53v171h297l-14 16c-69 81 -103 165 -103 251zM467 1190c54 0 119 -52 119 -105c0 -64 -43 -131 -105 -131c-85 0 -133 46 -133 131c0 51 67 105 119 105z" />
    <glyph glyph-name="afii62813" unicode="&#x642;" horiz-adv-x="1439" arabic-form="final" 
d="M1142 191c0 112 -95 225 -208 225c-77 0 -150 -31 -150 -106c0 -53 24 -92 72 -115l1 -1c30 -9 122 -13 275 -13h10v10zM622 297c0 180 145 296 327 296c225 0 363 -174 363 -402v-10h154v-171h-159v-10c0 -71 -13 -132 -38 -182v-1c-22 -59 -60 -111 -114 -158v-1
c-90 -88 -198 -133 -325 -133h-297c-115 0 -217 50 -308 149s-137 213 -137 338v270h168v-296c0 -74 35 -140 106 -198c70 -58 140 -87 209 -87h253c78 0 146 29 206 86c71 55 107 126 107 213v10h-10c-187 0 -303 9 -346 26c-106 36 -159 123 -159 261zM803 1030
c62 0 119 -57 119 -119c0 -54 -53 -117 -106 -117c-83 0 -131 47 -131 131c0 51 66 105 118 105zM1096 1030c62 0 120 -57 120 -119c0 -54 -53 -117 -106 -117c-84 0 -132 46 -132 131c0 53 64 105 118 105z" />
    <glyph glyph-name="afii62811" unicode="&#x642;" horiz-adv-x="894" arabic-form="initial" 
d="M649 514c0 117 -68 222 -184 222c-73 0 -144 -37 -144 -108c0 -64 20 -101 59 -112c13 -8 56 -12 130 -12h139v10zM831 320c0 -108 -37 -188 -109 -241c-59 -46 -118 -69 -180 -69h-566v171h569c79 0 119 51 119 154v10h-11c-175 0 -287 6 -337 18
c-102 43 -152 127 -152 252c0 93 31 167 93 220c64 54 139 81 225 81c85 0 162 -31 228 -93c79 -69 118 -162 118 -281zM336 1324c62 0 119 -57 119 -119c0 -54 -53 -117 -106 -117c-83 0 -131 47 -131 131c0 51 66 105 118 105zM629 1324c62 0 120 -57 120 -119
c0 -54 -53 -117 -106 -117c-84 0 -132 46 -132 131c0 53 64 105 118 105z" />
    <glyph glyph-name="afii62812" unicode="&#x642;" horiz-adv-x="912" arabic-form="medial" 
d="M445 592c-76 0 -164 -81 -164 -158c0 -81 67 -151 200 -211l5 -4c42 34 74 67 95 97s32 62 32 95c0 83 -86 181 -168 181zM121 448c0 183 143 308 327 308c100 0 180 -34 237 -102c53 -66 79 -142 79 -228c0 -88 -25 -169 -75 -245h265v-169l-51 4h-51l-136 3
c-53 0 -103 5 -150 13l-90 31c-46 -35 -224 -53 -535 -53v171h297l-14 16c-69 81 -103 165 -103 251zM301 1171c62 0 119 -57 119 -119c0 -54 -53 -117 -106 -117c-83 0 -131 47 -131 131c0 51 66 105 118 105zM594 1171c62 0 120 -57 120 -119c0 -54 -53 -117 -106 -117
c-84 0 -132 46 -132 131c0 53 64 105 118 105z" />
    <glyph glyph-name="afii62816" unicode="&#x643;" horiz-adv-x="1738" arabic-form="final" 
d="M710 901c0 -39 21 -65 60 -65c34 0 88 20 164 60l47 -93l-349 -175l-37 88l85 46c-48 43 -72 89 -72 136c0 96 83 175 178 177c31 -6 68 -17 110 -35l-44 -94c-28 20 -51 30 -69 30c-17 0 -31 -5 -44 -16l13 -16l-17 13c-17 -24 -25 -43 -25 -56zM265 341
c0 -120 34 -160 153 -160l726 -5h62c81 0 123 27 139 92c10 24 15 60 15 109v844h171v-880c0 -72 22 -120 66 -144h1l2 -1c40 -10 99 -15 176 -15v-171h-51c-160 0 -188 8 -277 81c-48 -41 -90 -64 -126 -70c-37 -7 -359 -11 -967 -11c-154 0 -263 146 -263 303v280h173
v-252z" />
    <glyph glyph-name="afii57410" unicode="&#x643;" horiz-adv-x="898" arabic-form="initial" 
d="M758 407c35 -43 53 -93 53 -149c0 -57 -24 -114 -72 -169c-52 -52 -128 -79 -225 -79h-548v171h548c80 0 120 26 120 81c0 25 -13 55 -38 89l-505 528l-35 190l750 270l20 -164l-569 -211z" />
    <glyph glyph-name="afii62815" unicode="&#x643;" horiz-adv-x="1103" arabic-form="medial" 
d="M784 175c-47 -116 -82 -165 -239 -165h-564v171h543c74 0 110 26 110 81c0 27 -15 59 -46 95l-479 521l-28 205l739 263l27 -171l-573 -211l544 -600c78 -87 135 -140 170 -162l1 -1l52 -16l72 -3v-172c-148 2 -254 53 -318 150z" />
    <glyph glyph-name="afii62819" unicode="&#x644;" horiz-adv-x="1501" arabic-form="final" 
d="M825 -307c168 0 317 126 317 293v1235h170v-894c0 -95 74 -144 222 -146v-171c-95 2 -161 32 -199 88l-19 28v-35c0 -174 -49 -317 -148 -430c-88 -90 -197 -136 -329 -136h-294c-119 0 -224 49 -315 148c-92 98 -138 212 -138 339v388h169v-414c0 -74 31 -141 91 -201
c61 -61 138 -92 230 -92h243z" />
    <glyph glyph-name="afii62817" unicode="&#x644;" horiz-adv-x="463" arabic-form="initial" 
d="M404 296c0 -177 -119 -286 -296 -286h-133v171h122c55 0 94 17 118 52l1 1v1c14 29 21 76 21 142v844h167v-925z" />
    <glyph glyph-name="afii62818" unicode="&#x644;" horiz-adv-x="636" arabic-form="medial" 
d="M102 180c130 0 150 60 150 197v844h171v-880c0 -74 23 -118 69 -135c42 -15 101 -24 176 -25v-171h-48c-78 0 -133 5 -164 14s-69 31 -112 67c-48 -41 -90 -64 -126 -70c-37 -7 -118 -11 -243 -11v171z" />
    <glyph glyph-name="afii62822" unicode="&#x645;" horiz-adv-x="1345" arabic-form="final" 
d="M657 310c0 -85 76 -142 161 -142c95 0 161 69 161 164c0 117 -13 187 -37 209c-33 33 -124 49 -274 49h-11v-280zM480 590c-110 0 -224 -89 -224 -197v-868h-164v841c0 124 33 223 99 297c71 62 159 93 264 93h391c197 0 296 -146 296 -438c0 -90 72 -135 214 -137v-171
c-66 1 -121 9 -163 23c-35 18 -75 60 -120 129l-7 -18c-39 -98 -117 -147 -235 -147c-91 0 -168 31 -230 93c-74 62 -111 148 -111 256v244h-10z" />
    <glyph glyph-name="afii62820" unicode="&#x645;" horiz-adv-x="891" arabic-form="initial" 
d="M500 151c126 0 178 90 178 221s-52 218 -178 218s-179 -86 -179 -218s52 -221 179 -221zM820 364c0 -218 -107 -383 -321 -383c-92 0 -163 26 -213 76c-60 -29 -165 -46 -315 -47v171c105 1 166 13 185 35v1c8 8 12 59 12 151v20c0 97 29 184 87 259
c56 73 137 109 241 109c212 0 324 -176 324 -392z" />
    <glyph glyph-name="afii62821" unicode="&#x645;" horiz-adv-x="964" arabic-form="medial" 
d="M310 372c0 -134 51 -221 179 -221c116 0 175 74 175 221c0 146 -59 218 -175 218c-120 0 -179 -72 -179 -218zM981 10c-135 3 -176 31 -226 120l-9 -14c-54 -90 -140 -135 -256 -135c-36 0 -82 15 -138 45c-46 28 -80 59 -104 91l-14 18l-5 -23
c-13 -67 -103 -101 -270 -102v171c105 1 167 13 186 35c7 8 12 24 13 48s2 65 2 124c0 97 29 183 86 259c55 73 134 109 238 109s186 -36 244 -110s87 -165 87 -274c0 -96 0 -166 75 -184c21 -5 52 -6 91 -7v-171z" />
    <glyph glyph-name="afii62825" unicode="&#x646;" horiz-adv-x="1515" arabic-form="final" 
d="M1526 10c-95 2 -161 32 -195 87l-19 31v-37c0 -174 -49 -317 -148 -430c-88 -90 -196 -136 -326 -136h-296c-116 0 -221 49 -313 148c-91 98 -137 212 -137 339v388h168v-414c0 -74 30 -141 89 -201c60 -61 137 -92 231 -92h245c80 0 154 27 219 82s97 126 97 211v607
h168v-266c0 -95 73 -144 217 -146v-171zM797 872c0 -54 -52 -119 -105 -119c-75 0 -132 42 -132 117c0 63 54 120 118 120s119 -54 119 -118z" />
    <glyph glyph-name="afii62823" unicode="&#x646;" horiz-adv-x="623" arabic-form="initial" 
d="M353 1024c54 0 119 -52 119 -105c0 -64 -43 -131 -105 -131c-85 0 -133 46 -133 131c0 51 67 105 119 105zM546 313c0 -150 -123 -303 -271 -303h-300v171h240c66 0 113 17 138 52v1h1c10 17 15 52 15 107v252h177v-280z" />
    <glyph glyph-name="afii62824" unicode="&#x646;" horiz-adv-x="785" arabic-form="medial" 
d="M409 1034c54 0 119 -52 119 -105c0 -64 -43 -131 -105 -131c-85 0 -133 46 -133 131c0 51 67 105 119 105zM315 181c118 0 150 40 150 160v252h174v-252c0 -132 43 -158 176 -160v-171l-102 4l-55 8l-42 21l-60 48c-65 -54 -126 -81 -184 -81h-401v171h344z" />
    <glyph glyph-name="afii62828" unicode="&#x647;" horiz-adv-x="1186" arabic-form="final" 
d="M492 151c94 0 194 83 194 177c0 38 -12 76 -36 114l-81 81c-36 36 -63 64 -81 82l-7 -8c-71 -65 -119 -116 -141 -152c-22 -35 -33 -71 -33 -109s15 -78 46 -119c32 -44 78 -66 139 -66zM839 224c-71 -154 -185 -237 -350 -237c-97 0 -180 35 -250 104s-105 154 -105 255
c0 67 24 136 72 207c24 38 83 101 157 175l-56 66l117 117l567 -603c50 -52 86 -88 108 -106h1l1 -1c25 -12 65 -19 117 -20v-171c-92 1 -148 13 -169 34h-1c-10 4 -80 64 -209 180z" />
    <glyph glyph-name="afii62829" unicode="&#x648;" horiz-adv-x="951" arabic-form="final" 
d="M650 10c-303 0 -486 68 -486 360c0 153 37 262 113 329c48 38 122 57 221 57c142 0 241 -59 296 -178c32 -76 47 -205 47 -387v-10h130v-171h-130v-10c0 -191 -105 -332 -234 -408c-75 -44 -157 -67 -249 -67h-238l-26 168h233c98 0 178 31 240 93s93 133 93 214v10h-10z
M669 375c0 120 -64 212 -182 212c-99 0 -148 -69 -148 -207c0 -78 22 -132 65 -160c43 -27 127 -39 254 -39h11v194z" />
    <glyph glyph-name="afii62830" unicode="&#x649;" horiz-adv-x="1373" arabic-form="final" 
d="M1394 10h-177l9 -103c0 -106 -42 -196 -127 -271c-82 -74 -176 -111 -282 -111h-298c-142 0 -259 55 -349 163c-77 104 -115 231 -115 381v331h174v-408c0 -69 24 -134 72 -194v-1h1c64 -69 151 -104 261 -104h245c65 0 123 19 173 57c49 38 73 94 73 168
c0 41 -32 67 -97 78c-57 10 -157 14 -298 14l-14 171h749v-171z" />
    <glyph glyph-name="afii62833" unicode="&#x64a;" horiz-adv-x="1373" arabic-form="final" 
d="M498 -628c62 0 119 -57 119 -119c0 -54 -53 -117 -106 -117c-83 0 -131 47 -131 131c0 51 66 105 118 105zM791 -628c62 0 120 -57 120 -119c0 -54 -53 -117 -106 -117c-84 0 -132 46 -132 131c0 53 64 105 118 105zM1394 10h-177l9 -103c0 -106 -42 -196 -127 -271
c-82 -74 -176 -111 -282 -111h-298c-142 0 -259 55 -349 163c-77 104 -115 231 -115 381v331h174v-408c0 -69 24 -134 72 -194v-1h1c64 -69 151 -104 261 -104h245c65 0 123 19 173 57c49 38 73 94 73 168c0 41 -32 67 -97 78c-57 10 -157 14 -298 14l-14 171h749v-171z" />
    <glyph glyph-name="afii62831" unicode="&#x64a;" horiz-adv-x="623" arabic-form="initial" 
d="M546 313c0 -150 -123 -303 -271 -303h-300v171h240c66 0 113 17 138 52v1h1c10 17 15 52 15 107v252h177v-280zM175 -193c62 0 119 -57 119 -119c0 -54 -53 -117 -106 -117c-83 0 -131 47 -131 131c0 51 66 105 118 105zM468 -193c62 0 120 -57 120 -119
c0 -54 -53 -117 -106 -117c-84 0 -132 46 -132 131c0 53 64 105 118 105z" />
    <glyph glyph-name=".notdef" horiz-adv-x="1024" 
d="M102 0v1092h820v-1092h-820zM204 102h616v888h-616v-888z" />
    <glyph glyph-name="space" unicode=" " horiz-adv-x="348" 
 />
    <glyph glyph-name="quotedbl" unicode="&#x22;" horiz-adv-x="857" 
d="M517 1227c49 -2 58 -25 58 -78c0 -13 -34 -331 -34 -345h-52c-1 29 -32 336 -32 367c0 41 18 56 60 56zM265 1227c49 -2 58 -25 58 -78c0 -13 -34 -331 -34 -345h-52c-1 29 -32 336 -32 367c0 41 18 56 60 56z" />
    <glyph glyph-name="numbersign" unicode="#" horiz-adv-x="764" 
d="M468 360l55 264h-233l-53 -264h231zM141 280h-117v80h131l56 264h-187v80h202l60 287h78l-60 -287h234l60 287h79l-57 -287h117v-80h-134l-54 -264h188v-80h-205l-57 -286h-81l58 286h-232l-58 -286h-80z" />
    <glyph glyph-name="dollar" unicode="$" horiz-adv-x="764" 
d="M403 70c103 10 184 87 184 199c0 60 -15 102 -43 128s-75 48 -141 68v-395zM353 930c-92 -15 -172 -73 -172 -177c0 -97 57 -158 172 -185v362zM80 743c0 168 115 249 273 266v58h50v-58c153 -17 241 -92 263 -226l-105 -14c-18 92 -71 145 -158 160v-370
c52 -13 94 -25 128 -37c106 -47 159 -128 159 -242c0 -167 -116 -280 -277 -288h-10v-123h-50v119c-63 8 -110 20 -140 35c-91 49 -142 130 -152 243l101 18c23 -132 87 -204 191 -214v405c-57 14 -107 31 -148 53c-83 46 -125 118 -125 215z" />
    <glyph glyph-name="percent" unicode="%" horiz-adv-x="866" 
d="M722 99c0 -48 -39 -86 -87 -86c-49 0 -86 37 -86 86c0 47 39 87 86 87c46 0 87 -41 87 -87zM273 888c0 -45 -41 -86 -86 -86c-47 0 -87 39 -87 86c0 48 39 86 87 86c46 0 86 -40 86 -86zM774 985l-541 -979h-125l535 979h131z" />
    <glyph glyph-name="ampersand" unicode="&#x26;" horiz-adv-x="917" 
d="M358 501c-97 -55 -154 -112 -171 -169c-5 -15 -7 -34 -7 -55c0 -43 16 -87 49 -130c34 -46 81 -68 143 -68c91 0 185 71 218 134zM543 792c0 67 -54 120 -121 120c-68 0 -125 -52 -125 -119c0 -36 16 -72 48 -108l60 -69c59 34 97 64 112 88c18 27 26 56 26 88zM425 991
c118 0 222 -83 222 -199c0 -89 -61 -166 -182 -230l-10 -7l194 -249c26 52 43 100 53 146l106 -24c-24 -86 -54 -154 -88 -204c53 -66 103 -118 150 -153l-68 -80c-49 36 -99 83 -149 140l-8 -8c-76 -86 -165 -129 -267 -129c-101 0 -180 33 -238 99c-47 53 -71 113 -71 178
c0 149 119 241 241 291c-66 84 -104 143 -112 177c-4 15 -5 29 -5 42c0 119 112 210 232 210z" />
    <glyph glyph-name="quotesingle" unicode="'" horiz-adv-x="491" 
d="M265 1227c49 -2 58 -25 58 -78c0 -13 -34 -331 -34 -345h-52c-1 29 -32 336 -32 367c0 41 18 56 60 56z" />
    <glyph glyph-name="parenleft" unicode="(" horiz-adv-x="722" 
d="M387 -55c-183 242 -274 477 -274 704c0 120 26 239 78 358l1 1c33 102 98 209 195 324h96c-81 -151 -132 -265 -152 -341c-36 -116 -54 -243 -54 -382c0 -204 69 -425 207 -664h-97z" />
    <glyph glyph-name="parenright" unicode=")" horiz-adv-x="636" 
d="M121 -55c138 239 207 457 207 653c0 202 -38 383 -112 545c-22 49 -53 112 -94 189h95c97 -112 162 -220 196 -324l1 -1c52 -119 77 -238 77 -358c0 -228 -91 -462 -274 -704h-96z" />
    <glyph glyph-name="asterisk" unicode="*" horiz-adv-x="945" 
d="M487 307l5 297l-198 -201h-59l233 234h-285l12 57h290l-227 223h49l190 -186l5 269l79 26l-5 -284l188 175h60l-237 -223h294l-14 -57h-280l230 -234h-48l-194 200l-8 -271z" />
    <glyph glyph-name="plus" unicode="+" horiz-adv-x="1052" 
d="M469 163v333h-334v119h334v333h119v-333h333v-119h-333v-333h-119z" />
    <glyph glyph-name="comma" unicode="," horiz-adv-x="217" 
d="M177 131l-121 -260h-50l75 260h96z" />
    <glyph glyph-name="hyphen" unicode="-" horiz-adv-x="1054" 
d="M135 496v119h786v-119h-786z" />
    <glyph glyph-name="period" unicode="." horiz-adv-x="571" 
d="M449 142c0 -70 -62 -129 -132 -129s-129 59 -129 129s59 131 129 131c69 0 132 -62 132 -131z" />
    <glyph glyph-name="slash" unicode="/" horiz-adv-x="866" 
d="M774 985l-541 -979h-125l535 979h131z" />
    <glyph glyph-name="colon" unicode=":" horiz-adv-x="558" 
d="M406 736c0 -64 -51 -114 -115 -114c-63 0 -115 51 -115 114s52 116 115 116c62 0 115 -54 115 -116zM406 129c0 -64 -52 -113 -115 -113s-115 49 -115 113c0 63 51 117 115 117c63 0 115 -54 115 -117z" />
    <glyph glyph-name="semicolon" unicode=";" horiz-adv-x="301" 
d="M169 139c36 0 63 -29 63 -65v-106c0 -54 -28 -80 -83 -80h-29v40c41 4 62 21 62 53c0 9 -2 18 -6 27h-7c-43 0 -65 23 -65 66c0 33 32 65 65 65zM237 416c0 -33 -30 -63 -63 -63c-34 0 -64 29 -64 63s30 63 64 63c33 0 63 -30 63 -63z" />
    <glyph glyph-name="less" unicode="&#x3c;" horiz-adv-x="937" 
d="M792 65l-656 314v63l656 312v-89l-538 -254l538 -256v-90z" />
    <glyph glyph-name="equal" unicode="=" horiz-adv-x="971" 
d="M80 460h806v-120h-806v120zM80 717h806v-121h-806v121z" />
    <glyph glyph-name="greater" unicode="&#x3e;" horiz-adv-x="937" 
d="M801 379l-656 -314v90l540 256l-540 254v89l656 -312v-63z" />
    <glyph glyph-name="question" unicode="?" horiz-adv-x="764" 
d="M320 127h117v-117h-117v117zM72 727c23 165 125 264 312 264c161 0 302 -100 302 -257c0 -42 -10 -81 -30 -116c-19 -34 -56 -74 -111 -122c-50 -43 -82 -78 -96 -106s-23 -74 -26 -138h-95v27c0 148 72 208 152 277c41 36 69 67 82 92c15 26 22 51 22 76
c0 103 -98 188 -201 188c-113 0 -182 -65 -208 -197z" />
    <glyph glyph-name="at" unicode="@" horiz-adv-x="1396" 
d="M899 150c0 -29 29 -50 58 -50c23 0 53 12 90 36c86 60 178 185 178 325c0 181 -78 312 -234 395c-75 40 -160 60 -256 60c-166 0 -303 -56 -411 -168s-161 -254 -161 -427c0 -345 242 -522 590 -522c216 0 386 75 479 202h98c-36 -68 -102 -130 -196 -187
c-102 -62 -229 -92 -380 -92h-15c-140 0 -263 29 -370 86c-187 101 -282 271 -284 511c0 107 22 209 66 305c112 246 309 368 590 368c245 0 407 -106 499 -264c43 -80 64 -163 64 -249c0 -129 -44 -241 -134 -338c-79 -88 -167 -133 -261 -133c-83 0 -110 27 -118 103
l-2 24l-16 -17c-64 -73 -131 -110 -200 -110c-88 0 -153 46 -197 136c-23 50 -35 97 -35 140c0 191 122 374 264 421c23 8 48 12 75 12c80 0 145 -40 193 -119l13 -23l28 123h99l-94 -438c-13 -62 -20 -98 -20 -110zM854 442c0 96 -60 197 -154 197
c-120 0 -199 -105 -229 -199c-17 -53 -26 -108 -26 -163c0 -85 59 -190 143 -190c119 0 201 103 236 195c20 53 30 106 30 160z" />
    <glyph glyph-name="braceleft" unicode="{" horiz-adv-x="458" 
d="M49 401c112 6 137 97 137 214c0 15 1 36 1 63v41c0 112 2 155 50 224c24 32 75 47 153 48h28v-85h-13c-91 0 -124 -30 -124 -120c0 -14 -1 -36 -1 -64c0 -78 -2 -138 -7 -184c-19 -104 -44 -133 -128 -173l-22 -10l22 -9c111 -43 135 -124 135 -285c0 -92 2 -150 4 -174
c8 -61 45 -81 116 -81h18v-84h-28c-87 0 -120 8 -158 55c-17 20 -29 46 -35 80c-3 14 -5 70 -9 169s-8 158 -12 176c-15 66 -57 102 -127 109v90z" />
    <glyph glyph-name="braceright" unicode="}" horiz-adv-x="458" 
d="M52 -194c109 0 126 38 126 149c0 117 3 193 9 227c11 80 53 134 126 164l21 9l-21 10c-48 24 -83 56 -104 95c-20 39 -31 109 -31 210c0 107 -3 168 -9 182c-17 46 -51 54 -117 54h-10v85h27c120 0 175 -38 193 -139c1 -10 18 -333 20 -341c15 -69 59 -106 130 -110v-90
c-134 -10 -136 -127 -140 -269c-2 -117 4 -202 -46 -268c-27 -35 -79 -52 -157 -52h-27v84h10z" />
    <glyph glyph-name="copyright" unicode="&#xa9;" horiz-adv-x="1044" 
d="M377 388c0 172 128 310 299 310c49 0 101 -7 154 -22l-25 -97l-25 4l6 67c-47 20 -86 30 -120 30c-99 0 -166 -78 -195 -154c-17 -44 -25 -90 -25 -138c0 -109 54 -171 161 -171c48 0 93 9 136 25l-5 -27c-57 -18 -106 -26 -147 -26c-128 0 -214 73 -214 199zM297 134
c87 -87 191 -130 313 -130s226 43 313 130s130 191 130 313s-43 227 -130 314c-86 86 -191 129 -313 129s-227 -43 -313 -129c-87 -87 -130 -192 -130 -314s43 -226 130 -313zM610 907c127 0 235 -45 325 -135s135 -198 135 -325s-44 -234 -134 -324s-199 -136 -326 -136
c-125 0 -233 46 -325 136c-90 89 -135 197 -135 324c0 128 45 237 135 326c91 90 199 134 325 134z" />
    <glyph glyph-name="guillemotleft" unicode="&#xab;" horiz-adv-x="705" 
d="M245 600c25 41 65 70 120 90c-5 -13 -12 -28 -20 -46c-35 -72 -63 -196 -63 -303v-3c0 -115 24 -222 72 -322c6 -12 10 -20 11 -25c-56 20 -96 49 -120 88c-43 71 -64 157 -64 259c0 103 21 191 64 262zM480 600c25 41 66 70 121 90c-5 -13 -12 -28 -20 -46
c-35 -72 -63 -196 -63 -303v-3c0 -115 23 -222 71 -322c6 -12 11 -20 12 -25c-56 20 -97 49 -121 88c-43 71 -64 157 -64 259c0 103 21 191 64 262z" />
    <glyph glyph-name="logicalnot" unicode="&#xac;" horiz-adv-x="782" 
d="M162 439l8 46h636l-53 -267h-57l44 221h-578z" />
    <glyph glyph-name="registered" unicode="&#xae;" horiz-adv-x="752" 
d="M439 647h43c76 0 114 27 114 81c0 34 -29 51 -86 51h-45zM621 735c0 -38 -30 -71 -88 -100l35 -109h46l-3 -15h-65l-42 119h-68l-23 -119h-70l3 15h46l50 253h-45l3 16h102c79 0 119 -20 119 -60zM487 887c-130 0 -244 -115 -244 -245c0 -131 113 -246 244 -246
c134 0 246 113 246 246s-113 245 -246 245zM488 900c141 0 258 -118 258 -258c0 -139 -119 -258 -259 -258s-257 118 -257 258s118 258 258 258z" />
    <glyph glyph-name="macron" unicode="&#xaf;" horiz-adv-x="938" 
d="M942 1068h-945v88h945v-88z" />
    <glyph glyph-name="degree" unicode="&#xb0;" horiz-adv-x="343" 
d="M332 890c-42 0 -78 -35 -78 -77s36 -78 78 -78s76 36 76 78s-34 77 -76 77zM333 907c52 0 92 -42 92 -94c0 -51 -42 -94 -92 -94c-51 0 -95 44 -95 94c0 51 44 94 95 94z" />
    <glyph glyph-name="periodcentered" unicode="&#xb7;" horiz-adv-x="607" 
d="M395 710h-181v218h181v-218z" />
    <glyph glyph-name="guillemotright" unicode="&#xbb;" horiz-adv-x="693" 
d="M310 80c-24 -41 -65 -70 -121 -89c22 56 49 107 65 184c12 56 18 110 18 163v3c0 115 -23 223 -71 323c-3 5 -7 13 -12 26c56 -20 97 -50 121 -90c43 -71 64 -157 64 -258c0 -104 -21 -191 -64 -262zM545 80c-24 -41 -65 -70 -121 -89c22 56 49 107 65 184
c12 56 18 110 18 163v3c0 115 -23 223 -71 323c-3 5 -7 13 -12 26c56 -20 97 -50 121 -90c43 -71 64 -157 64 -258c0 -104 -21 -191 -64 -262z" />
    <glyph glyph-name="multiply" unicode="&#xd7;" horiz-adv-x="973" 
d="M209 319l236 236l-236 237l84 84l236 -237l235 236l84 -84l-235 -236l235 -235l-84 -85l-235 235l-236 -235z" />
    <glyph glyph-name="divide" unicode="&#xf7;" horiz-adv-x="1081" 
d="M609 91h-130v153h130v-153zM906 442h-724v82h724v-82zM609 722h-130v153h130v-153z" />
    <glyph glyph-name="afii57388" unicode="&#x60c;" horiz-adv-x="512" 
d="M284 244c84 0 126 -38 126 -120c0 -68 -40 -102 -119 -102s-119 34 -119 102c0 112 10 190 29 233c26 65 82 99 168 102v-87c-64 -4 -96 -44 -96 -118v-10h11z" />
    <glyph glyph-name="afii57403" unicode="&#x61b;" horiz-adv-x="574" 
d="M159 151c0 65 52 122 116 122s120 -57 120 -122c0 -66 -54 -119 -120 -119c-67 0 -116 52 -116 119zM250 743c84 0 125 -37 125 -120c0 -68 -40 -102 -118 -102c-79 0 -118 34 -118 102c0 113 9 191 27 233c26 65 82 99 168 102v-88c-63 -4 -95 -42 -95 -116v-11h11z" />
    <glyph glyph-name="afii57407" unicode="&#x61f;" horiz-adv-x="863" 
d="M440 213c75 0 118 -25 118 -96c0 -26 -12 -52 -34 -78c-26 -19 -53 -29 -82 -29c-30 0 -59 10 -86 30c-22 22 -33 48 -33 77c0 72 42 96 117 96zM434 1075c-93 0 -165 -59 -165 -151c0 -38 7 -71 22 -96c59 -71 173 -174 205 -243l22 -97l9 -116h-162
c-1 71 -11 129 -32 172c-8 15 -39 51 -94 108c-58 57 -96 103 -116 137s-31 77 -31 129c0 188 143 306 333 306c165 0 295 -86 333 -213l13 -78l7 -97h-164c-4 160 -63 239 -180 239z" />
    <glyph glyph-name="afii57409" unicode="&#x621;" horiz-adv-x="799" 
d="M531 366c-48 0 -82 -32 -82 -80c0 -41 23 -80 65 -80c36 0 92 18 167 54l45 -96l-436 -183l-32 90l166 68l-18 11c-49 28 -71 68 -71 143c6 96 90 183 191 183c47 0 89 -16 125 -47l-43 -91c-31 19 -57 28 -77 28z" />
    <glyph glyph-name="afii52400" unicode="&#x622;" horiz-adv-x="667" 
d="M447 9h-171v1057h171v-1057zM652 1224h-396c-50 0 -88 -13 -113 -38c-24 -24 -47 -56 -69 -98l-130 48c41 96 76 154 105 176c57 47 96 62 196 64h407v-152z" />
    <glyph glyph-name="afii57411" unicode="&#x623;" horiz-adv-x="476" 
d="M233 1559c0 -46 45 -67 92 -67h1c29 0 77 13 146 40l29 -69l-364 -132l-20 65l94 36c-39 36 -58 69 -58 100c0 96 84 179 175 181c38 0 73 -15 106 -44l-43 -63c-20 18 -43 26 -70 26c-46 0 -88 -28 -88 -73zM391 10h-171v1211h171v-1211z" />
    <glyph glyph-name="afii57412" unicode="&#x624;" horiz-adv-x="885" 
d="M652 393c0 118 -49 194 -162 194c-126 0 -154 -77 -154 -209c0 -80 20 -133 60 -160c39 -25 121 -37 246 -37h10v212zM820 -26c0 -108 -45 -211 -136 -306s-202 -143 -334 -143h-236l-24 168h230c98 0 178 31 240 93s92 133 92 214v10h-10c-145 0 -258 20 -338 60
c-99 48 -149 149 -149 300c0 153 38 263 113 329c49 39 123 59 222 59c141 0 238 -58 290 -174c27 -71 40 -195 40 -369v-241zM348 1129c0 -46 45 -67 92 -67h1c29 0 77 13 146 40l29 -69l-364 -132l-20 65l94 36c-39 36 -58 69 -58 100c0 96 84 179 175 181
c38 0 73 -15 106 -44l-43 -63c-20 18 -43 26 -70 26c-46 0 -88 -28 -88 -73z" />
    <glyph glyph-name="afii57413" unicode="&#x625;" horiz-adv-x="476" 
d="M391 10h-171v1211h171v-1211zM207 -327c0 -46 45 -67 92 -67h1c29 0 77 13 146 40l29 -69l-364 -132l-20 65l94 36c-39 36 -58 69 -58 100c0 96 84 179 175 181c38 0 73 -15 106 -44l-43 -63c-20 18 -43 26 -70 26c-46 0 -88 -28 -88 -73z" />
    <glyph glyph-name="afii57414" unicode="&#x626;" horiz-adv-x="1373" 
d="M692 350c0 176 151 332 326 332h224l9 -157h-225c-69 0 -119 -34 -152 -101l-1 -1c-15 -54 -24 -127 -24 -221v-11h11c169 0 284 -15 344 -44c64 -34 97 -104 97 -209c0 -83 -12 -148 -36 -196l-1 -1c-14 -55 -49 -109 -105 -162c-89 -85 -196 -128 -321 -128h-296
c-120 0 -224 49 -314 147c-88 96 -131 209 -131 340v383h159v-408c0 -88 39 -164 115 -228c64 -45 133 -67 209 -67h250c69 0 135 23 199 69c70 60 105 123 105 192c0 71 -27 114 -80 131c-49 15 -170 24 -362 24v316zM386 908c0 -46 45 -67 92 -67h1c29 0 77 13 146 40
l29 -69l-364 -132l-20 65l94 36c-39 36 -58 69 -58 100c0 96 84 179 175 181c38 0 73 -15 106 -44l-43 -63c-20 18 -43 26 -70 26c-46 0 -88 -28 -88 -73z" />
    <glyph glyph-name="afii57415.001" unicode="&#x627;" horiz-adv-x="476" 
d="M391 10h-171v1211h171v-1211z" />
    <glyph glyph-name="afii57416" unicode="&#x628;" horiz-adv-x="1696" 
d="M353 10c-146 0 -264 157 -264 303v280h171v-252c0 -46 6 -81 18 -106v-1h1c24 -36 68 -53 132 -53h898c116 0 152 43 152 160v252h172v-280c0 -80 -28 -150 -83 -211c-56 -61 -118 -92 -184 -92h-1013zM852 -191c54 0 119 -52 119 -105c0 -64 -43 -131 -105 -131
c-85 0 -133 46 -133 131c0 51 67 105 119 105z" />
    <glyph glyph-name="afii57417" unicode="&#x629;" horiz-adv-x="863" 
d="M442 151c99 0 184 81 184 179c0 43 -10 78 -30 103l-164 172c-70 -70 -119 -124 -148 -162l-2 -1l-21 -42l-13 -67v-1c0 -27 15 -63 44 -110v-3c40 -46 90 -68 150 -68zM709 555c59 -74 88 -151 88 -234c0 -84 -36 -161 -107 -230s-155 -104 -251 -104
c-98 0 -181 35 -249 106s-102 155 -102 253c0 68 20 137 61 207l60 76l102 99l-57 67l116 116zM265 1278c62 0 119 -57 119 -119c0 -54 -53 -117 -106 -117c-83 0 -131 47 -131 131c0 51 66 105 118 105zM558 1278c62 0 120 -57 120 -119c0 -54 -53 -117 -106 -117
c-84 0 -132 46 -132 131c0 53 64 105 118 105z" />
    <glyph glyph-name="afii57418" unicode="&#x62a;" horiz-adv-x="1691" 
d="M353 10c-146 0 -264 157 -264 303v280h171v-252c0 -46 6 -81 18 -106v-1h1c24 -36 68 -53 132 -53h898c116 0 152 43 152 160v252h172v-280c0 -80 -28 -150 -83 -211c-56 -61 -118 -92 -184 -92h-1013zM741 1031c62 0 119 -57 119 -119c0 -54 -53 -117 -106 -117
c-83 0 -131 47 -131 131c0 51 66 105 118 105zM1034 1031c62 0 120 -57 120 -119c0 -54 -53 -117 -106 -117c-84 0 -132 46 -132 131c0 53 64 105 118 105z" />
    <glyph glyph-name="afii57419" unicode="&#x62b;" horiz-adv-x="1698" 
d="M353 10c-146 0 -264 157 -264 303v280h171v-252c0 -46 6 -81 18 -106v-1h1c24 -36 68 -53 132 -53h898c116 0 152 43 152 160v252h172v-280c0 -80 -28 -150 -83 -211c-56 -61 -118 -92 -184 -92h-1013zM1001 1032c62 0 120 -57 120 -119c0 -64 -57 -118 -120 -118
c-64 0 -118 54 -118 118c0 63 55 119 118 119zM810 913c0 -63 -56 -118 -119 -118c-64 0 -117 54 -117 118c0 62 55 119 117 119s119 -57 119 -119zM958 1205c0 -62 -57 -119 -119 -119c-63 0 -117 55 -117 119c0 62 55 119 117 119s119 -57 119 -119z" />
    <glyph glyph-name="afii57420" unicode="&#x62c;" horiz-adv-x="1293" 
d="M855 -205c54 0 119 -52 119 -105c0 -64 -43 -131 -105 -131c-85 0 -133 46 -133 131c0 51 67 105 119 105zM1309 -919h-513c-199 0 -360 71 -485 214c-92 112 -138 236 -138 370v38l5 43c19 174 109 304 270 389l602 329c-36 63 -82 100 -139 111c-53 10 -222 15 -506 15
l-25 166h453c246 0 387 -134 389 -378l-624 -352c-176 -99 -263 -221 -263 -367c0 -106 44 -200 132 -281c88 -82 182 -122 279 -122h549z" />
    <glyph glyph-name="afii57421" unicode="&#x62d;" horiz-adv-x="1293" 
d="M1309 -919h-513c-199 0 -360 71 -485 214c-92 112 -138 236 -138 370v38l5 43c19 174 109 304 270 389l602 329c-36 63 -82 100 -139 111c-53 10 -222 15 -506 15l-25 166h453c246 0 387 -134 389 -378l-624 -352c-176 -99 -263 -221 -263 -367c0 -106 44 -200 132 -281
c88 -82 182 -122 279 -122h549z" />
    <glyph glyph-name="afii57422" unicode="&#x62e;" horiz-adv-x="1293" 
d="M1309 -919h-513c-199 0 -360 71 -485 214c-92 112 -138 236 -138 370v38l5 43c19 174 109 304 270 389l602 329c-36 63 -82 100 -139 111c-53 10 -222 15 -506 15l-25 166h453c246 0 387 -134 389 -378l-624 -352c-176 -99 -263 -221 -263 -367c0 -106 44 -200 132 -281
c88 -82 182 -122 279 -122h549zM691 1182c54 0 119 -52 119 -105c0 -64 -43 -131 -105 -131c-85 0 -133 46 -133 131c0 51 67 105 119 105z" />
    <glyph glyph-name="afii57423" unicode="&#x62f;" horiz-adv-x="1096" 
d="M1037 256c0 -155 -116 -246 -273 -246h-580l-24 171h594c80 0 120 29 120 86c0 29 -13 55 -37 77l-422 451l113 116l429 -452c54 -60 80 -128 80 -203z" />
    <glyph glyph-name="afii57424" unicode="&#x630;" horiz-adv-x="1096" 
d="M1037 256c0 -155 -116 -246 -273 -246h-580l-24 171h594c80 0 120 29 120 86c0 29 -13 55 -37 77l-422 451l113 116l429 -452c54 -60 80 -128 80 -203zM457 1291c54 0 119 -52 119 -105c0 -64 -43 -131 -105 -131c-85 0 -133 46 -133 131c0 51 67 105 119 105z" />
    <glyph glyph-name="afii57425" unicode="&#x631;" horiz-adv-x="872" 
d="M262 -299c140 0 246 48 311 129c35 44 53 96 53 156v607h179v-558c0 -136 -45 -255 -135 -357s-202 -153 -335 -153h-245l-29 176h201z" />
    <glyph glyph-name="afii57426" unicode="&#x632;" horiz-adv-x="872" 
d="M262 -299c140 0 246 48 311 129c35 44 53 96 53 156v607h179v-558c0 -136 -45 -255 -135 -357s-202 -153 -335 -153h-245l-29 176h201zM618 1042c54 0 119 -52 119 -105c0 -64 -43 -131 -105 -131c-85 0 -133 46 -133 131c0 51 67 105 119 105z" />
    <glyph glyph-name="afii57427" unicode="&#x633;" horiz-adv-x="2357" 
d="M2296 307c0 -184 -129 -301 -319 -301c-75 0 -155 37 -242 111c-64 -74 -146 -111 -247 -111c-45 0 -94 24 -149 72l-18 14v-23c0 -161 -45 -291 -135 -392s-199 -152 -329 -152h-294c-123 0 -231 48 -323 144c-92 97 -138 211 -138 343v388h167v-397
c0 -176 142 -310 319 -310h246c180 0 317 130 317 310v590h170v-275c0 -78 83 -142 161 -142c108 0 162 47 162 141v276h175v-273c0 -74 78 -144 154 -144c102 0 152 45 152 133v284h171v-286z" />
    <glyph glyph-name="afii57428" unicode="&#x634;" horiz-adv-x="2353" 
d="M2296 307c0 -184 -129 -301 -319 -301c-75 0 -155 37 -242 111c-64 -74 -146 -111 -247 -111c-45 0 -94 24 -149 72l-18 14v-23c0 -161 -45 -291 -135 -392s-199 -152 -329 -152h-294c-123 0 -231 48 -323 144c-92 97 -138 211 -138 343v388h167v-397
c0 -176 142 -310 319 -310h246c180 0 317 130 317 310v590h170v-275c0 -78 83 -142 161 -142c108 0 162 47 162 141v276h175v-273c0 -74 78 -144 154 -144c102 0 152 45 152 133v284h171v-286zM1892 1025c62 0 120 -57 120 -119c0 -64 -57 -118 -120 -118
c-64 0 -118 54 -118 118c0 63 55 119 118 119zM1701 906c0 -63 -56 -118 -119 -118c-64 0 -117 54 -117 118c0 62 55 119 117 119s119 -57 119 -119zM1849 1198c0 -62 -57 -119 -119 -119c-63 0 -117 55 -117 119c0 62 55 119 117 119s119 -57 119 -119z" />
    <glyph glyph-name="afii57429" unicode="&#x635;" horiz-adv-x="2427" 
d="M2064 181c80 0 132 100 132 182c0 69 -25 136 -74 199c-9 17 -26 25 -52 25c-58 0 -126 -41 -202 -123s-141 -176 -194 -283h390zM2361 341c0 -200 -128 -331 -329 -331h-520c-104 0 -169 32 -193 96l-20 53v-57c0 -165 -45 -303 -135 -413c-89 -109 -200 -164 -333 -164
h-292c-125 0 -234 52 -326 155c-92 102 -137 221 -137 355v365h168v-414c0 -64 32 -128 98 -190c67 -64 138 -95 214 -95h268c76 0 146 30 208 90s94 125 94 195v607h175v-275c0 -92 65 -137 196 -137h8l2 6c69 181 150 322 245 423c92 97 186 146 280 146
c46 0 94 -15 143 -45c57 -32 102 -82 135 -152l38 -111c9 -32 13 -68 13 -107z" />
    <glyph glyph-name="afii57430" unicode="&#x636;" horiz-adv-x="2427" 
d="M2064 181c80 0 132 100 132 182c0 69 -25 136 -74 199c-9 17 -26 25 -52 25c-58 0 -126 -41 -202 -123s-141 -176 -194 -283h390zM2361 341c0 -200 -128 -331 -329 -331h-520c-104 0 -169 32 -193 96l-20 53v-57c0 -165 -45 -303 -135 -413c-89 -109 -200 -164 -333 -164
h-292c-125 0 -234 52 -326 155c-92 102 -137 221 -137 355v365h168v-414c0 -64 32 -128 98 -190c67 -64 138 -95 214 -95h268c76 0 146 30 208 90s94 125 94 195v607h175v-275c0 -92 65 -137 196 -137h8l2 6c69 181 150 322 245 423c92 97 186 146 280 146
c46 0 94 -15 143 -45c57 -32 102 -82 135 -152l38 -111c9 -32 13 -68 13 -107zM1520 1117c54 0 119 -52 119 -105c0 -64 -43 -131 -105 -131c-85 0 -133 46 -133 131c0 51 67 105 119 105z" />
    <glyph glyph-name="afii57431" unicode="&#x637;" horiz-adv-x="1092" 
d="M749 584h-2c-55 0 -121 -42 -198 -125c-71 -69 -130 -162 -180 -278h383c30 0 60 21 90 63l1 1c20 38 31 84 31 139c0 84 -21 145 -64 181c-10 7 -30 13 -61 19zM995 560c35 -68 53 -144 53 -227s-25 -157 -75 -219c-52 -69 -125 -104 -221 -104h-658l-33 171h156v1040
h169v-705l19 23c117 145 224 217 321 217c38 0 84 -15 140 -45c58 -32 101 -81 129 -150v-1z" />
    <glyph glyph-name="afii57432" unicode="&#x638;" horiz-adv-x="1096" 
d="M749 584h-2c-55 0 -121 -42 -198 -125c-71 -69 -130 -162 -180 -278h383c30 0 60 21 90 63l1 1c20 38 31 84 31 139c0 84 -21 145 -64 181c-10 7 -30 13 -61 19zM995 560c35 -68 53 -144 53 -227s-25 -157 -75 -219c-52 -69 -125 -104 -221 -104h-658l-33 171h156v1040
h169v-705l19 23c117 145 224 217 321 217c38 0 84 -15 140 -45c58 -32 101 -81 129 -150v-1zM726 1170c54 0 119 -52 119 -105c0 -64 -43 -131 -105 -131c-85 0 -133 46 -133 131c0 51 67 105 119 105z" />
    <glyph glyph-name="afii57433" unicode="&#x639;" horiz-adv-x="1281" 
d="M586 10c-177 0 -276 -175 -276 -356c0 -102 34 -194 102 -275c69 -83 168 -123 295 -123h512l26 -175h-493c-175 0 -325 62 -448 185c-111 113 -166 246 -166 397c0 113 31 215 95 307c67 97 171 174 311 230c-43 87 -65 162 -65 228c0 98 32 179 97 242
c75 57 162 86 261 86c96 0 198 -46 306 -138l-80 -129c-104 73 -192 109 -261 109c-74 0 -122 -38 -144 -114v-1c-2 -10 -3 -33 -11 -37v-36c0 -35 8 -75 25 -118c34 -74 82 -111 145 -111h371l24 -171h-626z" />
    <glyph glyph-name="afii57434" unicode="&#x63a;" horiz-adv-x="1281" 
d="M586 10c-177 0 -276 -175 -276 -356c0 -102 34 -194 102 -275c69 -83 168 -123 295 -123h512l26 -175h-493c-175 0 -325 62 -448 185c-111 113 -166 246 -166 397c0 113 31 215 95 307c67 97 171 174 311 230c-43 87 -65 162 -65 228c0 98 32 179 97 242
c75 57 162 86 261 86c96 0 198 -46 306 -138l-80 -129c-104 73 -192 109 -261 109c-74 0 -122 -38 -144 -114v-1c-2 -10 -3 -33 -11 -37v-36c0 -35 8 -75 25 -118c34 -74 82 -111 145 -111h371l24 -171h-626zM843 1159c54 0 119 -52 119 -105c0 -64 -43 -131 -105 -131
c-85 0 -133 46 -133 131c0 51 67 105 119 105z" />
    <glyph glyph-name="afii57440" unicode="&#x640;" horiz-adv-x="498" 
d="M518 10h-531v171h531v-171z" />
    <glyph glyph-name="afii57441" unicode="&#x641;" horiz-adv-x="1714" 
d="M1266 743c-94 0 -155 -40 -155 -131c0 -55 27 -88 79 -100l78 -8h193v10c0 69 -23 129 -66 178c-38 34 -81 51 -129 51zM1275 916c193 0 347 -160 347 -353l6 -213c0 -125 -38 -216 -114 -276c-55 -42 -112 -64 -174 -64h-996c-69 0 -133 31 -195 91
c-46 60 -69 130 -69 212v280h168v-252c0 -120 34 -160 153 -160h917c62 0 104 14 124 43c1 3 10 44 25 124h-13c-196 0 -328 16 -397 50c-58 34 -87 108 -87 222c0 180 124 296 305 296zM1291 1313c54 0 119 -52 119 -105c0 -64 -43 -131 -105 -131c-85 0 -133 46 -133 131
c0 51 67 105 119 105z" />
    <glyph glyph-name="afii57442" unicode="&#x642;" horiz-adv-x="1428" 
d="M1189 187c0 102 -82 209 -184 209c-43 0 -81 -8 -115 -25l-1 -1h-1c-29 -24 -44 -52 -44 -86c0 -104 58 -112 169 -112c34 0 89 1 165 4h11v11zM697 272c0 174 136 294 311 294c98 0 180 -37 246 -110s98 -158 98 -256v-168l-4 -71l-4 -82c-19 -123 -76 -221 -172 -294
c-88 -62 -182 -93 -284 -93h-293c-130 0 -237 48 -322 144c-85 97 -128 214 -128 350v252h157v-259c0 -180 130 -327 309 -327h266c85 0 158 32 220 94s94 147 94 253v10h-11c-31 -1 -90 -1 -178 -1c-69 0 -123 6 -160 16c-97 33 -145 116 -145 248zM851 967
c62 0 119 -57 119 -119c0 -54 -53 -117 -106 -117c-83 0 -131 47 -131 131c0 51 66 105 118 105zM1144 967c62 0 120 -57 120 -119c0 -54 -53 -117 -106 -117c-84 0 -132 46 -132 131c0 53 64 105 118 105z" />
    <glyph glyph-name="afii57443" unicode="&#x643;" horiz-adv-x="1633" 
d="M769 897c0 -41 19 -66 59 -66c35 0 90 19 165 60l48 -92l-349 -175l-38 88l87 46c-49 44 -73 88 -73 134c0 97 82 177 177 179c30 -6 66 -18 109 -36l-44 -93c-28 20 -51 30 -69 30s-33 -5 -43 -16l9 -13l-12 9c-18 -23 -26 -41 -26 -55zM1579 296
c0 -183 -113 -286 -296 -286h-933c-72 0 -135 30 -188 90c-48 60 -73 131 -73 213v280h171v-252c0 -118 35 -160 151 -160h859c57 0 99 17 123 52l1 1v1c14 29 21 76 21 142v844h164v-925z" />
    <glyph glyph-name="afii57444" unicode="&#x644;" horiz-adv-x="1400" 
d="M286 -14c0 -81 32 -148 98 -203s142 -82 227 -82h244c74 0 139 27 199 81c75 57 113 124 113 204v1235h172v-1195c0 -151 -49 -272 -147 -364c-96 -91 -204 -137 -324 -137h-295c-114 0 -219 51 -316 153s-145 213 -145 334v388h174v-414z" />
    <glyph glyph-name="afii57445" unicode="&#x645;" horiz-adv-x="1204" 
d="M984 332c0 120 -13 191 -38 214c-32 29 -124 44 -276 44h-11v-277c0 -38 18 -72 52 -100c38 -27 76 -40 114 -40c106 0 159 53 159 159zM92 366c0 231 139 390 368 390h392c122 0 208 -43 258 -128c26 -51 39 -132 39 -241c0 -14 -1 -36 -2 -67c0 -92 -33 -167 -98 -226
c-64 -60 -139 -89 -224 -89s-162 29 -228 89c-68 60 -101 144 -101 252v243l-44 3c-43 0 -86 -20 -129 -58c-42 -38 -63 -84 -63 -141v-868h-168v841z" />
    <glyph glyph-name="afii57446" unicode="&#x646;" horiz-adv-x="1381" 
d="M1309 32c0 -148 -49 -273 -147 -377c-91 -86 -199 -130 -324 -130h-296c-116 0 -221 49 -313 148c-91 98 -137 212 -137 339v388h168v-414c0 -74 30 -141 89 -201c60 -61 137 -92 231 -92h245c80 0 154 27 219 82s97 126 97 211v607h168v-561zM837 880
c0 -54 -52 -119 -104 -119c-75 0 -132 42 -132 118c0 63 54 120 118 120c63 0 118 -56 118 -119z" />
    <glyph glyph-name="afii57447" unicode="&#x647;" horiz-adv-x="863" 
d="M442 151c99 0 184 81 184 179c0 43 -10 78 -30 103l-164 172c-70 -70 -119 -124 -148 -162l-2 -1l-21 -42l-13 -67v-1c0 -27 15 -63 44 -110v-3c40 -46 90 -68 150 -68zM709 555c59 -74 88 -151 88 -234c0 -84 -36 -161 -107 -230s-155 -104 -251 -104
c-98 0 -181 35 -249 106s-102 155 -102 253c0 68 20 137 61 207l60 76l102 99l-57 67l116 116z" />
    <glyph glyph-name="afii57448" unicode="&#x648;" horiz-adv-x="885" 
d="M652 393c0 118 -49 194 -162 194c-126 0 -154 -77 -154 -209c0 -80 20 -133 60 -160c39 -25 121 -37 246 -37h10v212zM820 -26c0 -108 -45 -211 -136 -306s-202 -143 -334 -143h-236l-24 168h230c98 0 178 31 240 93s92 133 92 214v10h-10c-145 0 -258 20 -338 60
c-99 48 -149 149 -149 300c0 153 38 263 113 329c49 39 123 59 222 59c141 0 238 -58 290 -174c27 -71 40 -195 40 -369v-241z" />
    <glyph glyph-name="afii57449" unicode="&#x649;" horiz-adv-x="1373" 
d="M692 350c0 176 151 332 326 332h224l9 -157h-225c-69 0 -119 -34 -152 -101l-1 -1c-15 -54 -24 -127 -24 -221v-11h11c169 0 284 -15 344 -44c64 -34 97 -104 97 -209c0 -83 -12 -148 -36 -196l-1 -1c-14 -55 -49 -109 -105 -162c-89 -85 -196 -128 -321 -128h-296
c-120 0 -224 49 -314 147c-88 96 -131 209 -131 340v383h159v-408c0 -88 39 -164 115 -228c64 -45 133 -67 209 -67h250c69 0 135 23 199 69c70 60 105 123 105 192c0 71 -27 114 -80 131c-49 15 -170 24 -362 24v316z" />
    <glyph glyph-name="afii57450" unicode="&#x64a;" horiz-adv-x="1373" 
d="M692 350c0 176 151 332 326 332h224l9 -157h-225c-69 0 -119 -34 -152 -101l-1 -1c-15 -54 -24 -127 -24 -221v-11h11c169 0 284 -15 344 -44c64 -34 97 -104 97 -209c0 -83 -12 -148 -36 -196l-1 -1c-14 -55 -49 -109 -105 -162c-89 -85 -196 -128 -321 -128h-296
c-120 0 -224 49 -314 147c-88 96 -131 209 -131 340v383h159v-408c0 -88 39 -164 115 -228c64 -45 133 -67 209 -67h250c69 0 135 23 199 69c70 60 105 123 105 192c0 71 -27 114 -80 131c-49 15 -170 24 -362 24v316zM517 -705c62 0 119 -57 119 -119
c0 -54 -53 -117 -106 -117c-83 0 -131 47 -131 131c0 51 66 105 118 105zM810 -705c62 0 120 -57 120 -119c0 -54 -53 -117 -106 -117c-84 0 -132 46 -132 131c0 53 64 105 118 105z" />
    <glyph glyph-name="afii57451" unicode="&#x64b;" 
d="M-232 77l437 113v-61l-437 -111v59zM-232 228l437 113v-61l-437 -111v59z" />
    <glyph glyph-name="afii57452" unicode="&#x64c;" 
d="M-111 341c0 81 61 150 143 150c75 0 143 -63 143 -138v-7c0 -69 -25 -120 -77 -154l-333 -188l-40 66c27 15 45 28 57 36c18 12 29 29 29 49c0 26 -18 38 -43 40h-7c-24 0 -54 -3 -90 -10l-9 68c29 5 56 7 80 7c88 0 125 -30 129 -111l107 65c-51 27 -89 57 -89 127z
M104 342c0 38 -34 73 -72 73c-40 0 -72 -33 -72 -73c0 -39 33 -71 72 -71c40 0 72 31 72 71z" />
    <glyph glyph-name="afii57453" unicode="&#x64d;" 
d="M-232 -75l437 114v-61l-437 -111v58zM-232 77l437 113v-61l-437 -111v59z" />
    <glyph glyph-name="afii57454" unicode="&#x64e;" 
d="M-232 77l437 113v-61l-437 -111v59z" />
    <glyph glyph-name="afii57455" unicode="&#x64f;" 
d="M-108 354c0 81 63 150 144 150c75 0 142 -64 142 -139v-6c0 -69 -25 -120 -76 -154l-334 -188l-40 66l254 143l-17 9c-49 25 -73 65 -73 119zM107 355c0 39 -32 72 -71 72s-73 -33 -73 -72c0 -40 33 -71 73 -71s71 32 71 71z" />
    <glyph glyph-name="afii57456" unicode="&#x650;" 
d="M-232 77l437 113v-61l-437 -111v59z" />
    <glyph glyph-name="afii57457" unicode="&#x651;" 
d="M-86 80c29 0 52 12 52 40v103h60v-103c0 -29 20 -44 58 -44h10c26 1 39 13 39 37v110h63v-99c-2 -35 -9 -58 -19 -68h-1c-20 -23 -45 -35 -77 -35h-5c-35 0 -67 15 -96 44c-18 -33 -38 -48 -88 -48c-74 0 -112 36 -112 107v99h60v-104c3 -26 22 -39 56 -39z" />
    <glyph glyph-name="afii57458" unicode="&#x652;" 
d="M-181 206c0 103 77 194 179 194h8c101 0 178 -92 178 -193c0 -104 -79 -191 -183 -191s-182 85 -182 190zM119 204c0 63 -53 123 -116 123c-61 0 -114 -61 -114 -123c0 -64 50 -121 114 -121s116 57 116 121z" />
    <glyph glyph-name="afii57375" unicode="&#x653;" horiz-adv-x="946" 
d="M804 1369h-396c-50 0 -88 -13 -113 -38c-24 -24 -47 -56 -69 -98l-130 48c41 96 76 154 105 176c57 47 96 62 196 64h407v-152z" />
    <glyph glyph-name="uni0654" unicode="&#x654;" 
d="M-30 1336c0 -46 45 -67 92 -67h1c29 0 77 13 146 40l29 -69l-364 -132l-20 65l94 36c-39 36 -58 69 -58 100c0 96 84 179 175 181c38 0 73 -15 106 -44l-43 -63c-20 18 -43 26 -70 26c-46 0 -88 -28 -88 -73z" />
    <glyph glyph-name="uni0655" unicode="&#x655;" 
d="M-32 1335c0 -46 45 -67 92 -67h1c29 0 77 13 146 40l29 -69l-364 -132l-20 65l94 36c-39 36 -58 69 -58 100c0 96 84 179 175 181c38 0 73 -15 106 -44l-43 -63c-20 18 -43 26 -70 26c-46 0 -88 -28 -88 -73z" />
    <glyph glyph-name="uni0656" unicode="&#x656;" 
d="M38 13h-67v275h67v-275z" />
    <glyph glyph-name="afii57392.001" unicode="&#x660;" horiz-adv-x="633" 
d="M322 637c-60 0 -112 -51 -112 -110s53 -109 112 -109c69 0 112 53 112 108c0 60 -52 111 -112 111zM517 527c0 -103 -92 -189 -195 -189s-193 86 -193 189c0 104 89 188 193 188c103 0 195 -86 195 -188z" />
    <glyph glyph-name="afii57393.001" unicode="&#x661;" horiz-adv-x="579" 
d="M237 588c0 231 -26 381 -89 594l163 54l63 -250c20 -136 30 -268 30 -398v-578h-167v578z" />
    <glyph glyph-name="afii57394.001" unicode="&#x662;" horiz-adv-x="1041" 
d="M576 805c92 0 159 69 159 163v1l-28 219l158 52c22 -153 33 -243 33 -271l1 -71c0 -86 -32 -147 -95 -183c-64 -37 -116 -56 -157 -56h-49c-41 0 -93 20 -157 58l3 -703h-171v549c0 260 -28 466 -85 619l163 57l72 -307c20 -85 71 -127 153 -127z" />
    <glyph glyph-name="afii57395.001" unicode="&#x663;" horiz-adv-x="1314" 
d="M458 805c89 0 165 74 165 163v1l-38 219l162 59c27 -148 41 -256 41 -325l-4 -54c31 -47 72 -70 123 -70c98 0 156 72 156 170v1l-29 219l161 51l29 -247l2 -53c0 -66 -24 -128 -72 -185c-56 -50 -120 -76 -192 -76h-1c-5 -1 -13 -1 -23 -1c-86 0 -154 42 -204 126
l-13 20l-7 -22c-28 -91 -80 -138 -192 -138c-74 0 -140 22 -198 66l3 -715h-168v549c0 234 -31 440 -93 619l168 57l70 -307c22 -85 74 -127 154 -127z" />
    <glyph glyph-name="afii57396" unicode="&#x664;" horiz-adv-x="1104" 
d="M89 328c0 173 140 305 259 373c-84 62 -184 168 -184 304v18c0 77 34 145 102 205l3 4v4c69 57 142 85 220 85c76 0 159 -19 251 -56c-18 -36 -32 -81 -45 -133c-74 27 -132 41 -177 41c-99 0 -182 -66 -182 -165c0 -108 77 -192 180 -194h7c48 0 124 28 230 85l58 -139
c-212 -106 -345 -178 -399 -217c-57 -42 -96 -76 -115 -102c-20 -26 -30 -54 -32 -85v-1c0 -99 80 -164 164 -182h1l451 -8l-9 -155l-406 6h-1c-20 -1 -33 -2 -40 -2c-186 0 -336 130 -336 314z" />
    <glyph glyph-name="afii57397" unicode="&#x665;" horiz-adv-x="1335" 
d="M645 156c184 0 347 21 347 205c0 67 -30 142 -90 223c-50 67 -149 165 -299 294c-107 -122 -184 -227 -231 -313c-40 -76 -60 -144 -60 -202c0 -30 5 -61 15 -95l1 -1l1 -2c60 -85 165 -109 316 -109zM1173 323c0 -185 -122 -285 -287 -310c-90 -13 -156 -20 -197 -20
c-228 0 -384 35 -505 151c-35 55 -53 112 -53 169c0 66 8 124 25 171c60 166 219 395 308 484l6 17l-5 44l-12 21l-14 9l79 98c437 -332 655 -610 655 -834z" />
    <glyph glyph-name="afii57398" unicode="&#x666;" horiz-adv-x="1026" 
d="M475 1024c153 4 204 96 244 226l166 -24c-69 -201 -104 -559 -104 -1073v-79c0 -26 1 -49 2 -68l-171 10c-5 59 -7 115 -7 168v139c4 184 16 377 38 577c-76 -40 -149 -60 -215 -60c-133 0 -254 84 -296 177c-22 48 -33 89 -33 123c0 29 1 57 5 81h185
c-2 -15 -3 -28 -3 -39c0 -106 63 -158 189 -158z" />
    <glyph glyph-name="afii57399.001" unicode="&#x667;" horiz-adv-x="1288" 
d="M147 1171l77 34l61 41c115 -193 194 -342 238 -447c45 -106 92 -249 140 -427l11 -40l10 41c44 194 84 329 120 407c60 119 117 253 180 364c17 30 37 64 59 102l65 -41l72 -37c-137 -227 -238 -443 -302 -649c-56 -178 -104 -344 -143 -497h-131
c-108 457 -261 840 -457 1149z" />
    <glyph glyph-name="afii57400.001" unicode="&#x668;" horiz-adv-x="1288" 
d="M1168 101l-77 -35l-61 -40c-117 197 -196 346 -238 446c-45 106 -92 250 -140 428l-12 40l-9 -41c-68 -294 -105 -402 -226 -633c-33 -63 -77 -143 -133 -240l-65 40l-74 38c138 228 240 444 304 650c57 182 105 348 143 497h129c109 -457 262 -841 459 -1150z" />
    <glyph glyph-name="afii57401.001" unicode="&#x669;" horiz-adv-x="1066" 
d="M328 947c0 -109 41 -159 150 -159h1c65 0 125 20 180 61v7c-8 127 -29 227 -162 227h-2c-66 0 -111 -17 -134 -49c-22 -31 -33 -60 -33 -87zM841 14h-166v661l-127 -41c-44 -8 -81 -11 -113 -11c-92 0 -160 27 -203 82c-46 46 -68 110 -68 195c0 125 34 215 101 270
c68 55 138 83 209 83c69 0 136 -19 201 -55c62 -34 103 -95 125 -182c38 -160 41 -192 41 -388v-614z" />
    <glyph glyph-name="afii57381" unicode="&#x66a;" horiz-adv-x="1083" 
d="M905 124c0 -60 -51 -110 -112 -110c-60 0 -109 50 -109 110c0 59 50 111 109 111c60 0 112 -51 112 -111zM344 1110c0 -59 -53 -110 -112 -110c-58 0 -110 52 -110 110s52 111 110 111c60 0 112 -51 112 -111zM946 1234l-678 -1229h-137l670 1229h145z" />
    <glyph glyph-name="afii57461" unicode="&#x66b;" horiz-adv-x="989" 
d="M900 596l-678 -1228h-137l670 1228h145z" />
    <glyph glyph-name="afii57388.001" unicode="&#x66c;" horiz-adv-x="296" 
d="M128 742c0 26 24 60 50 60c27 0 40 -21 40 -64c0 -48 -17 -110 -51 -185c-10 -29 -18 -44 -24 -46c34 66 50 122 50 165v8c-37 10 -65 20 -65 62z" />
    <glyph glyph-name="afii63167" unicode="&#x66d;" horiz-adv-x="938" 
d="M556 602l322 3v-82l-314 2l237 -229l-60 -60l-234 243l5 -328h-84l5 328l-235 -243l-59 60l242 230l-318 -3v82l316 -3l-221 217l58 61l217 -220l-5 318h84l-5 -322l215 224l59 -61z" />
    <glyph glyph-name="uni0670" unicode="&#x670;" 
d="M38 13h-67v275h67v-275z" />
    <glyph glyph-name="uni0671" unicode="&#x671;" horiz-adv-x="476" 
d="M391 10h-171v1211h171v-1211zM396 1443c-2 34 -16 50 -42 50c-10 0 -26 -6 -46 -19l-83 -73h171v42zM354 1534c61 0 81 -38 83 -102l-1 -72h-315v41h51l120 104c24 20 45 29 62 29z" />
    <glyph glyph-name="uni0672" unicode="&#x672;" horiz-adv-x="476" 
d="M391 10h-171v1211h171v-1211zM219 1550c0 -46 45 -67 92 -67h1c29 0 77 13 146 40l29 -69l-364 -132l-20 65l94 36c-39 36 -58 69 -58 100c0 96 84 179 175 181c38 0 73 -15 106 -44l-43 -63c-20 18 -43 26 -70 26c-46 0 -88 -28 -88 -73z" />
    <glyph glyph-name="uni0673" unicode="&#x673;" horiz-adv-x="476" 
d="M391 10h-171v1211h171v-1211zM221 -283c0 -46 45 -67 92 -67h1c29 0 77 13 146 40l29 -69l-364 -132l-20 65l94 36c-39 36 -58 69 -58 100c0 96 84 179 175 181c38 0 73 -15 106 -44l-43 -63c-20 18 -43 26 -70 26c-46 0 -88 -28 -88 -73z" />
    <glyph glyph-name="uni0675" unicode="&#x675;" horiz-adv-x="332" 
d="M391 10h-171v1211h171v-1211zM235 2086c0 -46 45 -67 92 -67h1c29 0 77 13 146 40l29 -69l-364 -132l-20 65l94 36c-39 36 -58 69 -58 100c0 96 84 179 175 181c38 0 73 -15 106 -44l-43 -63c-20 18 -43 26 -70 26c-46 0 -88 -28 -88 -73z" />
    <glyph glyph-name="uni0676" unicode="&#x676;" horiz-adv-x="885" 
d="M652 393c0 118 -49 194 -162 194c-126 0 -154 -77 -154 -209c0 -80 20 -133 60 -160c39 -25 121 -37 246 -37h10v212zM820 -26c0 -108 -45 -211 -136 -306s-202 -143 -334 -143h-236l-24 168h230c98 0 178 31 240 93s92 133 92 214v10h-10c-145 0 -258 20 -338 60
c-99 48 -149 149 -149 300c0 153 38 263 113 329c49 39 123 59 222 59c141 0 238 -58 290 -174c27 -71 40 -195 40 -369v-241zM422 1111c0 -46 45 -67 92 -67h1c29 0 77 13 146 40l29 -69l-364 -132l-20 65l94 36c-39 36 -58 69 -58 100c0 96 84 179 175 181
c38 0 73 -15 106 -44l-43 -63c-20 18 -43 26 -70 26c-46 0 -88 -28 -88 -73z" />
    </font>
</defs>
</svg>
