<?xml version="1.0" standalone="no"?>
<!DOCTYPE svg PUBLIC "-//W3C//DTD SVG 1.1//EN" "http://www.w3.org/Graphics/SVG/1.1/DTD/svg11.dtd" >
<svg xmlns="http://www.w3.org/2000/svg" xmlns:xlink="http://www.w3.org/1999/xlink" version="1.1">
<metadata>
Created by FontForge 20160407 at Sat May 28 12:09:44 2016
 By Jimmy Wärting
Copyright (c) 2010-2011 by Titus Nemeth. Published by Rosetta. All rights reserved.
</metadata>
<defs>
<font id="BBCNassim" horiz-adv-x="460" >
  <font-face 
    font-family="BBCNassim"
    font-weight="400"
    font-stretch="normal"
    units-per-em="1000"
    panose-1="2 0 5 0 0 0 0 0 0 0"
    ascent="650"
    descent="-350"
    x-height="383"
    cap-height="527"
    bbox="-53 -662 980 1010"
    underline-thickness="50"
    underline-position="-60"
    unicode-range="U+000D-FEFC"
  />
<missing-glyph horiz-adv-x="355" 
d="M0 0v498h355v-498h-355zM57 462l121 -181l121 181h-242zM320 430l-121 -181l121 -182v363zM299 36l-121 181l-121 -181h242zM36 67l120 182l-120 181v-363z" />
    <glyph glyph-name="uniFEFB" unicode="&#xfedf;&#xfe8e;" horiz-adv-x="459" arabic-form="isolated" 
d="M141 79q51 37 86.5 69.5t59.5 64.5q-33 45 -76.5 86.5t-90.5 72.5l-21 -27q-13 24 -32 45t-37 35l25 83q30 -18 66.5 -45.5t73 -59.5t69.5 -67t56 -66q26 62 26 151q0 41 -4 79.5t-10 63.5l67 56q4 -26 7 -65.5t3 -84.5q0 -75 -15.5 -133.5t-46.5 -108.5
q19 -33 29.5 -61.5t11.5 -45.5q0 -8 -2.5 -20t-6.5 -24.5t-9.5 -24.5t-10.5 -21q-14 -22 -37.5 -34.5t-65.5 -12.5t-76.5 6.5t-60.5 14.5zM350 81q-6 44 -39 97q-50 -57 -126 -109q23 -4 43 -5t45 -1q26 0 46 4t31 14z" />
    <glyph glyph-name="uniFEFC" unicode="&#xfee0;&#xfe8e;" horiz-adv-x="529" arabic-form="final" 
d="M433 621q8 -75 11.5 -172t3.5 -200q0 -96 18.5 -136.5t62.5 -40.5q11 0 20.5 -10t9.5 -29t-9.5 -29.5t-20.5 -10.5q-57 0 -88.5 35.5t-39.5 113.5q-11 -26 -30.5 -50t-45 -45.5t-55 -39t-61.5 -29.5l-166 43l10 20q137 8 225.5 53t117.5 108q0 49 -1.5 99.5t-4 97.5
t-6.5 89.5t-10 76.5zM67 518q57 -32 104 -71t83 -83.5t59.5 -92t32.5 -96.5l-21 -17q-12 34 -33 67.5t-47 63t-55.5 53.5t-59.5 39l-14 -31q-11 21 -31 46.5t-42 42.5z" />
    <glyph glyph-name="uniFEF5" unicode="&#xfedf;&#xfe82;" horiz-adv-x="459" arabic-form="isolated" 
d="M141 79q51 37 86.5 69.5t59.5 64.5q-33 45 -76.5 86.5t-90.5 72.5l-21 -27q-13 24 -32 45t-37 35l25 83q30 -18 66.5 -45.5t73 -59.5t69.5 -67t56 -66q26 62 26 151q0 41 -4 79.5t-10 63.5l67 56q4 -26 7 -65.5t3 -84.5q0 -75 -15.5 -133.5t-46.5 -108.5
q19 -33 29.5 -61.5t11.5 -45.5q0 -8 -2.5 -20t-6.5 -24.5t-9.5 -24.5t-10.5 -21q-14 -22 -37.5 -34.5t-65.5 -12.5t-76.5 6.5t-60.5 14.5zM350 81q-6 44 -39 97q-50 -57 -126 -109q23 -4 43 -5t45 -1q26 0 46 4t31 14zM227 682q12 -7 12 -23q0 -23 -28.5 -39t-78.5 -22
q-58 -8 -88 -23.5t-40 -35.5q-10 4 -17 14t-7 21q0 26 28 41t91 22q61 7 88 16.5t40 28.5z" />
    <glyph glyph-name="uniFEF6" unicode="&#xfee0;&#xfe82;" horiz-adv-x="537" arabic-form="final" 
d="M441 621q8 -75 11.5 -172t3.5 -200q0 -96 18.5 -136.5t62.5 -40.5q11 0 20.5 -10t9.5 -29t-9.5 -29.5t-20.5 -10.5q-57 0 -88.5 35.5t-39.5 113.5q-11 -26 -30.5 -50t-45 -45.5t-55 -39t-61.5 -29.5l-166 43l10 20q137 8 225.5 53t117.5 108q0 49 -1.5 99.5t-4 97.5
t-6.5 89.5t-10 76.5zM75 518q57 -32 104 -71t83 -83.5t59.5 -92t32.5 -96.5l-21 -17q-12 34 -33 67.5t-47 63t-55.5 53.5t-59.5 39l-14 -31q-11 21 -31 46.5t-42 42.5zM232 682q12 -7 12 -23q0 -23 -28.5 -39t-78.5 -22q-58 -8 -88 -23.5t-40 -35.5q-10 4 -17 14t-7 21
q0 26 28 41t91 22q61 7 88 16.5t40 28.5z" />
    <glyph glyph-name="uniFEF7" unicode="&#xfedf;&#xfe84;" horiz-adv-x="459" arabic-form="isolated" 
d="M141 79q51 37 86.5 69.5t59.5 64.5q-33 45 -76.5 86.5t-90.5 72.5l-21 -27q-13 24 -32 45t-37 35l25 83q30 -18 66.5 -45.5t73 -59.5t69.5 -67t56 -66q26 62 26 151q0 41 -4 79.5t-10 63.5l67 56q4 -26 7 -65.5t3 -84.5q0 -75 -15.5 -133.5t-46.5 -108.5
q19 -33 29.5 -61.5t11.5 -45.5q0 -8 -2.5 -20t-6.5 -24.5t-9.5 -24.5t-10.5 -21q-14 -22 -37.5 -34.5t-65.5 -12.5t-76.5 6.5t-60.5 14.5zM350 81q-6 44 -39 97q-50 -57 -126 -109q23 -4 43 -5t45 -1q26 0 46 4t31 14zM108 666q-15 9 -31 9q-14 0 -29 -8.5t-21 -23.5
q9 -11 26 -17t34 -6q18 0 37 7t40 19l-13 -50q-17 -5 -36 -12t-38 -15.5t-37 -18.5t-33 -20q-2 8 -2 12q0 18 14 30t28 16q-44 11 -44 42q0 38 23.5 62.5t57.5 24.5q27 0 47 -15z" />
    <glyph glyph-name="uniFEF8" unicode="&#xfee0;&#xfe84;" horiz-adv-x="529" arabic-form="final" 
d="M433 621q8 -75 11.5 -172t3.5 -200q0 -96 18.5 -136.5t62.5 -40.5q11 0 20.5 -10t9.5 -29t-9.5 -29.5t-20.5 -10.5q-57 0 -88.5 35.5t-39.5 113.5q-11 -26 -30.5 -50t-45 -45.5t-55 -39t-61.5 -29.5l-166 43l10 20q137 8 225.5 53t117.5 108q0 49 -1.5 99.5t-4 97.5
t-6.5 89.5t-10 76.5zM67 518q57 -32 104 -71t83 -83.5t59.5 -92t32.5 -96.5l-21 -17q-12 34 -33 67.5t-47 63t-55.5 53.5t-59.5 39l-14 -31q-11 21 -31 46.5t-42 42.5zM115 676q-15 9 -31 9q-14 0 -29 -8.5t-21 -23.5q9 -11 26 -17t34 -6q18 0 37 7t40 19l-13 -50
q-17 -5 -36 -12t-38 -15.5t-37 -18.5t-33 -20q-2 8 -2 12q0 18 14 30t28 16q-44 11 -44 42q0 38 23.5 62.5t57.5 24.5q27 0 47 -15z" />
    <glyph glyph-name="uniFEF9" unicode="&#xfedf;&#xfe88;" horiz-adv-x="459" arabic-form="isolated" 
d="M141 79q51 37 86.5 69.5t59.5 64.5q-33 45 -76.5 86.5t-90.5 72.5l-21 -27q-13 24 -32 45t-37 35l25 83q30 -18 66.5 -45.5t73 -59.5t69.5 -67t56 -66q26 62 26 151q0 41 -4 79.5t-10 63.5l67 56q4 -26 7 -65.5t3 -84.5q0 -75 -15.5 -133.5t-46.5 -108.5
q19 -33 29.5 -61.5t11.5 -45.5q0 -8 -2.5 -20t-6.5 -24.5t-9.5 -24.5t-10.5 -21q-14 -22 -37.5 -34.5t-65.5 -12.5t-76.5 6.5t-60.5 14.5zM350 81q-6 44 -39 97q-50 -57 -126 -109q23 -4 43 -5t45 -1q26 0 46 4t31 14zM206 -116q-15 9 -31 9q-14 0 -29 -8.5t-21 -23.5
q9 -11 26 -17t34 -6q18 0 37 7t40 19l-13 -50q-17 -5 -36 -12t-38 -15.5t-37 -18.5t-33 -20q-2 8 -2 12q0 18 14 30t28 16q-44 11 -44 42q0 38 23.5 62.5t57.5 24.5q27 0 47 -15z" />
    <glyph glyph-name="uniFEFA" unicode="&#xfee0;&#xfe88;" horiz-adv-x="529" arabic-form="final" 
d="M433 621q8 -75 11.5 -172t3.5 -200q0 -96 18.5 -136.5t62.5 -40.5q11 0 20.5 -10t9.5 -29t-9.5 -29.5t-20.5 -10.5q-57 0 -88.5 35.5t-39.5 113.5q-11 -26 -30.5 -50t-45 -45.5t-55 -39t-61.5 -29.5l-166 43l10 20q137 8 225.5 53t117.5 108q0 49 -1.5 99.5t-4 97.5
t-6.5 89.5t-10 76.5zM67 518q57 -32 104 -71t83 -83.5t59.5 -92t32.5 -96.5l-21 -17q-12 34 -33 67.5t-47 63t-55.5 53.5t-59.5 39l-14 -31q-11 21 -31 46.5t-42 42.5zM176 -116q-15 9 -31 9q-14 0 -29 -8.5t-21 -23.5q9 -11 26 -17t34 -6q18 0 37 7t40 19l-13 -50
q-17 -5 -36 -12t-38 -15.5t-37 -18.5t-33 -20q-2 8 -2 12q0 18 14 30t28 16q-44 11 -44 42q0 38 23.5 62.5t57.5 24.5q27 0 47 -15z" />
    <glyph glyph-name="uni06440671" unicode="&#xfedf;&#xfb51;" horiz-adv-x="459" 
d="M141 79q51 37 86.5 69.5t59.5 64.5q-33 45 -76.5 86.5t-90.5 72.5l-21 -27q-13 24 -32 45t-37 35l25 83q30 -18 66.5 -45.5t73 -59.5t69.5 -67t56 -66q26 62 26 151q0 41 -4 79.5t-10 63.5l67 56q4 -26 7 -65.5t3 -84.5q0 -75 -15.5 -133.5t-46.5 -108.5
q19 -33 29.5 -61.5t11.5 -45.5q0 -8 -2.5 -20t-6.5 -24.5t-9.5 -24.5t-10.5 -21q-14 -22 -37.5 -34.5t-65.5 -12.5t-76.5 6.5t-60.5 14.5zM350 81q-6 44 -39 97q-50 -57 -126 -109q23 -4 43 -5t45 -1q26 0 46 4t31 14zM-16 550q-6 13 -6 25q0 17 10 28t27 14q12 42 36 64.5
t56 22.5q23 0 38 -16.5t15 -42.5q0 -28 -22.5 -46.5t-69.5 -18.5q-20 0 -33 -1t-22.5 -4.5t-16 -9.5t-12.5 -15zM35 620q9 -2 19 -2h19q56 0 56 23q0 12 -9.5 18.5t-23.5 6.5q-17 0 -34 -12t-27 -34z" />
    <glyph glyph-name="uni06440671.fina" unicode="&#xfee0;&#xfb51;" horiz-adv-x="529" 
d="M433 621q8 -75 11.5 -172t3.5 -200q0 -96 18.5 -136.5t62.5 -40.5q11 0 20.5 -10t9.5 -29t-9.5 -29.5t-20.5 -10.5q-57 0 -88.5 35.5t-39.5 113.5q-11 -26 -30.5 -50t-45 -45.5t-55 -39t-61.5 -29.5l-166 43l10 20q137 8 225.5 53t117.5 108q0 49 -1.5 99.5t-4 97.5
t-6.5 89.5t-10 76.5zM67 518q57 -32 104 -71t83 -83.5t59.5 -92t32.5 -96.5l-21 -17q-12 34 -33 67.5t-47 63t-55.5 53.5t-59.5 39l-14 -31q-11 21 -31 46.5t-42 42.5zM1 560q-6 13 -6 25q0 17 10 28t27 14q12 42 36 64.5t56 22.5q23 0 38 -16.5t15 -42.5q0 -28 -22.5 -46.5
t-69.5 -18.5q-20 0 -33 -1t-22.5 -4.5t-16 -9.5t-12.5 -15zM52 630q9 -2 19 -2h19q56 0 56 23q0 12 -9.5 18.5t-23.5 6.5q-17 0 -34 -12t-27 -34z" />
    <glyph glyph-name="uni0621" unicode="&#x621;" horiz-adv-x="335" arabic-form="isolated" 
d="M58 20q-1 2 -2 5t-1 13q0 15 15 35t56 39q-29 5 -45 21t-16 35q0 26 9 51.5t24.5 46t37.5 33.5t49 13q20 0 40.5 -7.5t37.5 -21.5l-38 -57q-29 23 -62 23q-22 0 -39.5 -14.5t-22.5 -34.5q13 -19 36.5 -30t58.5 -11q26 0 57 7t67 22l-28 -71q-60 -16 -121.5 -41
t-112.5 -56z" />
    <glyph glyph-name="uni0622" unicode="&#x622;" horiz-adv-x="200" arabic-form="isolated" 
d="M137 575q0 -59 2 -120.5t4 -121.5q3 -57 5 -108t2 -93q0 -40 -1.5 -58t-5.5 -32q-4 -12 -11 -28t-15 -30h-20q0 107 -4.5 184t-10.5 142q-5 62 -8.5 117t-3.5 121l67 56v-29zM223 737q12 -7 12 -23q0 -23 -28.5 -39t-78.5 -22q-58 -8 -88 -23.5t-40 -35.5q-10 4 -17 14
t-7 21q0 26 28 41t91 22q61 7 88 16.5t40 28.5z" />
    <glyph glyph-name="uniFE82" unicode="&#x622;" horiz-adv-x="220" arabic-form="final" 
d="M121 604q3 -35 5.5 -77.5t4 -90t2 -99t0.5 -103.5q0 -54 5.5 -86.5t16.5 -49t27 -21.5t38 -5q11 0 20.5 -10t9.5 -29t-9.5 -29.5t-20.5 -10.5q-44 0 -71.5 12.5t-39.5 29.5q-8 11 -14 23t-9.5 32.5t-5.5 53t-2 84.5q0 85 -3.5 166t-11.5 154zM218 737q12 -7 12 -23
q0 -23 -28.5 -39t-78.5 -22q-58 -8 -88 -23.5t-40 -35.5q-10 4 -17 14t-7 21q0 26 28 41t91 22q61 7 88 16.5t40 28.5z" />
    <glyph glyph-name="uni0623" unicode="&#x623;" horiz-adv-x="200" arabic-form="isolated" 
d="M137 575q0 -59 2 -120.5t4 -121.5q3 -57 5 -108t2 -93q0 -40 -1.5 -58t-5.5 -32q-4 -12 -11 -28t-15 -30h-20q0 107 -4.5 184t-10.5 142q-5 62 -8.5 117t-3.5 121l67 56v-29zM131 746q-15 9 -31 9q-14 0 -29 -8.5t-21 -23.5q9 -11 26 -17t34 -6q18 0 37 7t40 19l-13 -50
q-17 -5 -36 -12t-38 -15.5t-37 -18.5t-33 -20q-2 8 -2 12q0 18 14 30t28 16q-44 11 -44 42q0 38 23.5 62.5t57.5 24.5q27 0 47 -15z" />
    <glyph glyph-name="uniFE84" unicode="&#x623;" horiz-adv-x="217" arabic-form="final" 
d="M118 604q3 -35 5.5 -77.5t4 -90t2 -99t0.5 -103.5q0 -54 5.5 -86.5t16.5 -49t27 -21.5t38 -5q11 0 20.5 -10t9.5 -29t-9.5 -29.5t-20.5 -10.5q-44 0 -71.5 12.5t-39.5 29.5q-8 11 -14 23t-9.5 32.5t-5.5 53t-2 84.5q0 85 -3.5 166t-11.5 154zM122 746q-15 9 -31 9
q-14 0 -29 -8.5t-21 -23.5q9 -11 26 -17t34 -6q18 0 37 7t40 19l-13 -50q-17 -5 -36 -12t-38 -15.5t-37 -18.5t-33 -20q-2 8 -2 12q0 18 14 30t28 16q-44 11 -44 42q0 38 23.5 62.5t57.5 24.5q27 0 47 -15z" />
    <glyph glyph-name="uni0625" unicode="&#x625;" horiz-adv-x="200" arabic-form="isolated" 
d="M132 575q0 -59 2 -120.5t4 -121.5q3 -57 5 -108t2 -93q0 -40 -1.5 -58t-5.5 -32q-4 -12 -11 -28t-15 -30h-20q0 107 -4.5 184t-10.5 142q-5 62 -8.5 117t-3.5 121l67 56v-29zM144 -124q-15 9 -31 9q-14 0 -29 -8.5t-21 -23.5q9 -11 26 -17t34 -6q18 0 37 7t40 19l-13 -50
q-17 -5 -36 -12t-38 -15.5t-37 -18.5t-33 -20q-2 8 -2 12q0 18 14 30t28 16q-44 11 -44 42q0 38 23.5 62.5t57.5 24.5q27 0 47 -15z" />
    <glyph glyph-name="uniFE88" unicode="&#x625;" horiz-adv-x="217" arabic-form="final" 
d="M105 604q3 -35 5.5 -77.5t4 -90t2 -99t0.5 -103.5q0 -54 5.5 -86.5t16.5 -49t27 -21.5t38 -5q11 0 20.5 -10t9.5 -29t-9.5 -29.5t-20.5 -10.5q-44 0 -71.5 12.5t-39.5 29.5q-8 11 -14 23t-9.5 32.5t-5.5 53t-2 84.5q0 85 -3.5 166t-11.5 154zM157 -124q-15 9 -31 9
q-14 0 -29 -8.5t-21 -23.5q9 -11 26 -17t34 -6q18 0 37 7t40 19l-13 -50q-17 -5 -36 -12t-38 -15.5t-37 -18.5t-33 -20q-2 8 -2 12q0 18 14 30t28 16q-44 11 -44 42q0 38 23.5 62.5t57.5 24.5q27 0 47 -15z" />
    <glyph glyph-name="uni0671" unicode="&#x671;" horiz-adv-x="200" arabic-form="isolated" 
d="M137 575q0 -59 2 -120.5t4 -121.5q3 -57 5 -108t2 -93q0 -40 -1.5 -58t-5.5 -32q-4 -12 -11 -28t-15 -30h-20q0 107 -4.5 184t-10.5 142q-5 62 -8.5 117t-3.5 121l67 56v-29zM20 615q-6 13 -6 25q0 17 10 28t27 14q12 42 36 64.5t56 22.5q23 0 38 -16.5t15 -42.5
q0 -28 -22.5 -46.5t-69.5 -18.5q-20 0 -33 -1t-22.5 -4.5t-16 -9.5t-12.5 -15zM71 685q9 -2 19 -2h19q56 0 56 23q0 12 -9.5 18.5t-23.5 6.5q-17 0 -34 -12t-27 -34z" />
    <glyph glyph-name="uniFB51" unicode="&#x671;" horiz-adv-x="217" arabic-form="final" 
d="M118 604q3 -35 5.5 -77.5t4 -90t2 -99t0.5 -103.5q0 -54 5.5 -86.5t16.5 -49t27 -21.5t38 -5q11 0 20.5 -10t9.5 -29t-9.5 -29.5t-20.5 -10.5q-44 0 -71.5 12.5t-39.5 29.5q-8 11 -14 23t-9.5 32.5t-5.5 53t-2 84.5q0 85 -3.5 166t-11.5 154zM8 615q-6 13 -6 25
q0 17 10 28t27 14q12 42 36 64.5t56 22.5q23 0 38 -16.5t15 -42.5q0 -28 -22.5 -46.5t-69.5 -18.5q-20 0 -33 -1t-22.5 -4.5t-16 -9.5t-12.5 -15zM59 685q9 -2 19 -2h19q56 0 56 23q0 12 -9.5 18.5t-23.5 6.5q-17 0 -34 -12t-27 -34z" />
    <glyph glyph-name="uni0627" unicode="&#x627;" horiz-adv-x="200" arabic-form="isolated" 
d="M137 575q0 -59 2 -120.5t4 -121.5q3 -57 5 -108t2 -93q0 -40 -1.5 -58t-5.5 -32q-4 -12 -11 -28t-15 -30h-20q0 107 -4.5 184t-10.5 142q-5 62 -8.5 117t-3.5 121l67 56v-29z" />
    <glyph glyph-name="uniFE8E" unicode="&#x627;" horiz-adv-x="217" arabic-form="final" 
d="M118 604q3 -35 5.5 -77.5t4 -90t2 -99t0.5 -103.5q0 -54 5.5 -86.5t16.5 -49t27 -21.5t38 -5q11 0 20.5 -10t9.5 -29t-9.5 -29.5t-20.5 -10.5q-44 0 -71.5 12.5t-39.5 29.5q-8 11 -14 23t-9.5 32.5t-5.5 53t-2 84.5q0 85 -3.5 166t-11.5 154z" />
    <glyph glyph-name="uni0628" unicode="&#x628;" horiz-adv-x="779" arabic-form="isolated" 
d="M697 358q9 -12 17.5 -31t15 -41.5t10.5 -46.5t4 -47q0 -34 -17.5 -68t-55.5 -60q-30 -20 -70.5 -35.5t-87 -26t-97.5 -15.5t-102 -5q-80 0 -133.5 10.5t-85.5 31.5t-46 53t-14 76q0 38 9 68.5t20 37.5l19 12q-2 -11 -4 -25.5t-2 -22.5q0 -42 13.5 -72t44.5 -49t80.5 -28
t121.5 -9q52 0 103 5t98 14.5t88 23t71 30.5q-6 37 -20.5 74t-31.5 60zM341 -190q-16 7 -35.5 22t-31.5 32l49 60q12 -16 32 -31t34 -23z" />
    <glyph glyph-name="uniFE91" unicode="&#x628;" horiz-adv-x="230" arabic-form="initial" 
d="M138 331q22 -32 34 -73.5t12 -82.5q0 -27 -9.5 -59t-30.5 -62q-20 -31 -59 -46t-85 -15q-11 0 -19 8.5t-8 30.5q0 18 7 29t20 11q44 0 77 8t60 24q-6 44 -20 81.5t-31 59.5zM127 -190q-16 7 -35.5 22t-31.5 32l49 60q12 -16 32 -31t34 -23z" />
    <glyph glyph-name="uniFE92" unicode="&#x628;" horiz-adv-x="305" arabic-form="medial" 
d="M147 218q17 -77 55.5 -111.5t102.5 -34.5q11 0 20.5 -10t9.5 -29t-9.5 -29.5t-20.5 -10.5q-63 0 -102.5 23.5t-62.5 73.5q-22 -46 -56.5 -71.5t-83.5 -25.5q-11 0 -19 10t-8 30q0 19 7.5 29t19.5 10q38 0 69 14.5t54 50.5l-6 44zM159 -190q-16 7 -35.5 22t-31.5 32l49 60
q12 -16 32 -31t34 -23z" />
    <glyph glyph-name="uniFE90" unicode="&#x628;" horiz-adv-x="804" arabic-form="final" 
d="M85 271q-2 -11 -4 -25.5t-2 -22.5q0 -44 14.5 -74t46 -48.5t81.5 -27t122 -8.5q130 0 224.5 32t159.5 92l24 -4l-35 -51q14 -62 88 -62q11 0 20.5 -10t9.5 -29t-9.5 -29.5t-20.5 -10.5q-55 0 -85 25.5t-30 89.5q-64 -57 -163.5 -91.5t-227.5 -34.5q-75 0 -125 11
t-80.5 32.5t-43 53.5t-12.5 74q0 38 9 68.5t20 37.5zM343 -190q-16 7 -35.5 22t-31.5 32l49 60q12 -16 32 -31t34 -23z" />
    <glyph glyph-name="uni062A" unicode="&#x62a;" horiz-adv-x="779" arabic-form="isolated" 
d="M697 358q9 -12 17.5 -31t15 -41.5t10.5 -46.5t4 -47q0 -34 -17.5 -68t-55.5 -60q-30 -20 -70.5 -35.5t-87 -26t-97.5 -15.5t-102 -5q-80 0 -133.5 10.5t-85.5 31.5t-46 53t-14 76q0 38 9 68.5t20 37.5l19 12q-2 -11 -4 -25.5t-2 -22.5q0 -42 13.5 -72t44.5 -49t80.5 -28
t121.5 -9q52 0 103 5t98 14.5t88 23t71 30.5q-6 37 -20.5 74t-31.5 60zM414 297q-14 6 -30.5 18t-28.5 25l-34 -50q-16 7 -35.5 20.5t-31.5 30.5l46 61q10 -13 25 -27t29 -22l39 56q13 -15 33 -29.5t34 -21.5z" />
    <glyph glyph-name="uniFE97" unicode="&#x62a;" horiz-adv-x="230" arabic-form="initial" 
d="M138 331q22 -32 34 -73.5t12 -82.5q0 -27 -9.5 -59t-30.5 -62q-20 -31 -59 -46t-85 -15q-11 0 -19 8.5t-8 30.5q0 18 7 29t20 11q44 0 77 8t60 24q-6 44 -20 81.5t-31 59.5zM173 398q-14 6 -30.5 18t-28.5 25l-34 -50q-16 7 -35.5 20.5t-31.5 30.5l46 61q10 -13 25 -27
t29 -22l39 56q13 -15 33 -29.5t34 -21.5z" />
    <glyph glyph-name="uniFE98" unicode="&#x62a;" horiz-adv-x="305" arabic-form="medial" 
d="M147 218q17 -77 55.5 -111.5t102.5 -34.5q11 0 20.5 -10t9.5 -29t-9.5 -29.5t-20.5 -10.5q-63 0 -102.5 23.5t-62.5 73.5q-22 -46 -56.5 -71.5t-83.5 -25.5q-11 0 -19 10t-8 30q0 19 7.5 29t19.5 10q38 0 69 14.5t54 50.5l-6 44zM184 297q-14 6 -30.5 18t-28.5 25
l-34 -50q-16 7 -35.5 20.5t-31.5 30.5l46 61q10 -13 25 -27t29 -22l39 56q13 -15 33 -29.5t34 -21.5z" />
    <glyph glyph-name="uniFE96" unicode="&#x62a;" horiz-adv-x="804" arabic-form="final" 
d="M85 271q-2 -11 -4 -25.5t-2 -22.5q0 -44 14.5 -74t46 -48.5t81.5 -27t122 -8.5q130 0 224.5 32t159.5 92l24 -4l-35 -51q14 -62 88 -62q11 0 20.5 -10t9.5 -29t-9.5 -29.5t-20.5 -10.5q-55 0 -85 25.5t-30 89.5q-64 -57 -163.5 -91.5t-227.5 -34.5q-75 0 -125 11
t-80.5 32.5t-43 53.5t-12.5 74q0 38 9 68.5t20 37.5zM414 297q-14 6 -30.5 18t-28.5 25l-34 -50q-16 7 -35.5 20.5t-31.5 30.5l46 61q10 -13 25 -27t29 -22l39 56q13 -15 33 -29.5t34 -21.5z" />
    <glyph glyph-name="uni062B" unicode="&#x62b;" horiz-adv-x="779" arabic-form="isolated" 
d="M697 358q9 -12 17.5 -31t15 -41.5t10.5 -46.5t4 -47q0 -34 -17.5 -68t-55.5 -60q-30 -20 -70.5 -35.5t-87 -26t-97.5 -15.5t-102 -5q-80 0 -133.5 10.5t-85.5 31.5t-46 53t-14 76q0 38 9 68.5t20 37.5l19 12q-2 -11 -4 -25.5t-2 -22.5q0 -42 13.5 -72t44.5 -49t80.5 -28
t121.5 -9q52 0 103 5t98 14.5t88 23t71 30.5q-6 37 -20.5 74t-31.5 60zM351 400q-6 2 -16 8.5t-19.5 15t-17 16.5t-10.5 13l48 59q9 -14 27.5 -31t33.5 -25zM414 297q-14 6 -30.5 18t-28.5 25l-34 -50q-16 7 -35.5 20.5t-31.5 30.5l46 61q10 -13 25 -27t29 -22l39 56
q13 -15 33 -29.5t34 -21.5z" />
    <glyph glyph-name="uniFE9B" unicode="&#x62b;" horiz-adv-x="230" arabic-form="initial" 
d="M138 331q22 -32 34 -73.5t12 -82.5q0 -27 -9.5 -59t-30.5 -62q-20 -31 -59 -46t-85 -15q-11 0 -19 8.5t-8 30.5q0 18 7 29t20 11q44 0 77 8t60 24q-6 44 -20 81.5t-31 59.5zM110 501q-6 2 -16 8.5t-19.5 15t-17 16.5t-10.5 13l48 59q9 -14 27.5 -31t33.5 -25zM173 398
q-14 6 -30.5 18t-28.5 25l-34 -50q-16 7 -35.5 20.5t-31.5 30.5l46 61q10 -13 25 -27t29 -22l39 56q13 -15 33 -29.5t34 -21.5z" />
    <glyph glyph-name="uniFE9C" unicode="&#x62b;" horiz-adv-x="305" arabic-form="medial" 
d="M147 218q17 -77 55.5 -111.5t102.5 -34.5q11 0 20.5 -10t9.5 -29t-9.5 -29.5t-20.5 -10.5q-63 0 -102.5 23.5t-62.5 73.5q-22 -46 -56.5 -71.5t-83.5 -25.5q-11 0 -19 10t-8 30q0 19 7.5 29t19.5 10q38 0 69 14.5t54 50.5l-6 44zM131 400q-6 2 -16 8.5t-19.5 15t-17 16.5
t-10.5 13l48 59q9 -14 27.5 -31t33.5 -25zM194 297q-14 6 -30.5 18t-28.5 25l-34 -50q-16 7 -35.5 20.5t-31.5 30.5l46 61q10 -13 25 -27t29 -22l39 56q13 -15 33 -29.5t34 -21.5z" />
    <glyph glyph-name="uniFE9A" unicode="&#x62b;" horiz-adv-x="804" arabic-form="final" 
d="M85 271q-2 -11 -4 -25.5t-2 -22.5q0 -44 14.5 -74t46 -48.5t81.5 -27t122 -8.5q130 0 224.5 32t159.5 92l24 -4l-35 -51q14 -62 88 -62q11 0 20.5 -10t9.5 -29t-9.5 -29.5t-20.5 -10.5q-55 0 -85 25.5t-30 89.5q-64 -57 -163.5 -91.5t-227.5 -34.5q-75 0 -125 11
t-80.5 32.5t-43 53.5t-12.5 74q0 38 9 68.5t20 37.5zM362 400q-6 2 -16 8.5t-19.5 15t-17 16.5t-10.5 13l48 59q9 -14 27.5 -31t33.5 -25zM425 297q-14 6 -30.5 18t-28.5 25l-34 -50q-16 7 -35.5 20.5t-31.5 30.5l46 61q10 -13 25 -27t29 -22l39 56q13 -15 33 -29.5
t34 -21.5z" />
    <glyph glyph-name="uni0646" unicode="&#x646;" horiz-adv-x="496" arabic-form="isolated" 
d="M246 290q-16 7 -35.5 22t-31.5 32l49 60q12 -16 32 -31t34 -23zM97 127q-8 -19 -12 -48t-4 -58q0 -75 34.5 -112.5t113.5 -37.5q60 0 110 20t76 55q-5 58 -16.5 102.5t-31.5 80.5l50 77q20 -41 32 -89t12 -96q0 -45 -7.5 -77.5t-26.5 -62.5q-24 -38 -77 -65.5t-133 -27.5
q-94 0 -138 49t-44 134q0 26 4 50t10.5 43.5t14 33t15.5 18.5z" />
    <glyph glyph-name="uniFEE7" unicode="&#x646;" horiz-adv-x="230" arabic-form="initial" 
d="M138 331q22 -32 34 -73.5t12 -82.5q0 -27 -9.5 -59t-30.5 -62q-20 -31 -59 -46t-85 -15q-11 0 -19 8.5t-8 30.5q0 18 7 29t20 11q44 0 77 8t60 24q-6 44 -20 81.5t-31 59.5zM121 391q-16 7 -35.5 22t-31.5 32l49 60q12 -16 32 -31t34 -23z" />
    <glyph glyph-name="uniFEE8" unicode="&#x646;" horiz-adv-x="305" arabic-form="medial" 
d="M147 218q17 -77 55.5 -111.5t102.5 -34.5q11 0 20.5 -10t9.5 -29t-9.5 -29.5t-20.5 -10.5q-63 0 -102.5 23.5t-62.5 73.5q-22 -46 -56.5 -71.5t-83.5 -25.5q-11 0 -19 10t-8 30q0 19 7.5 29t19.5 10q38 0 69 14.5t54 50.5l-6 44zM140 290q-16 7 -35.5 22t-31.5 32l49 60
q12 -16 32 -31t34 -23z" />
    <glyph glyph-name="uniFEE6" unicode="&#x646;" horiz-adv-x="520" arabic-form="final" 
d="M237 221q-16 7 -35.5 22t-31.5 32l49 60q12 -16 32 -31t34 -23zM87 127q-8 -19 -12 -48t-4 -58q0 -75 35 -112.5t113 -37.5q60 0 110 20t76 55q-5 58 -16 101t-26 72l47 65q23 -54 52 -83t58 -29q11 0 20.5 -11t9.5 -30t-9.5 -28.5t-20.5 -9.5q-25 0 -42 9t-27 21l-1 -1
q1 -45 -6.5 -78t-26.5 -63q-24 -38 -77 -65.5t-133 -27.5q-93 0 -137.5 49t-44.5 133q0 26 4 50.5t10.5 44t14 33t15.5 18.5z" />
    <glyph glyph-name="uni064A" unicode="&#x64a;" horiz-adv-x="629" arabic-form="isolated" 
d="M101 124q-8 -19 -12 -40t-4 -52q0 -73 49.5 -113t134.5 -40q89 0 150 23t87 56q-5 6 -11.5 11.5t-17 13t-27.5 16.5t-42 22q-26 13 -42.5 23t-25.5 19.5t-12.5 19.5t-3.5 22q0 35 16.5 70.5t44.5 64.5t65.5 47.5t79.5 18.5q23 0 42.5 -6t33.5 -14l-37 -74
q-12 6 -27.5 10.5t-34.5 4.5q-46 0 -81.5 -24t-55.5 -65q4 -5 10 -9.5t16.5 -10.5t26.5 -14.5t40 -20.5q48 -24 67 -42t19 -35q0 -12 -3.5 -31.5t-11.5 -39.5q-28 -63 -101.5 -101t-183.5 -38q-105 0 -157.5 52t-52.5 148q0 44 13.5 75t29.5 41zM331 -357q-14 6 -30.5 18
t-28.5 25l-34 -50q-16 7 -35.5 20.5t-31.5 30.5l46 61q10 -13 25 -27t29 -22l39 56q13 -15 33 -29.5t34 -21.5z" />
    <glyph glyph-name="uniFEF3" unicode="&#x64a;" horiz-adv-x="231" arabic-form="initial" 
d="M138 331q22 -32 34 -73.5t12 -82.5q0 -27 -9.5 -59t-30.5 -62q-20 -31 -59 -46t-85 -15q-11 0 -19 8.5t-8 30.5q0 18 7 29t20 11q44 0 77 8t60 24q-6 44 -20 81.5t-31 59.5zM175 -188q-14 6 -30.5 18t-28.5 25l-34 -50q-16 7 -35.5 20.5t-31.5 30.5l46 61q10 -13 25 -27
t29 -22l39 56q13 -15 33 -29.5t34 -21.5z" />
    <glyph glyph-name="uniFEF4" unicode="&#x64a;" horiz-adv-x="305" arabic-form="medial" 
d="M147 218q17 -77 55.5 -111.5t102.5 -34.5q11 0 20.5 -10t9.5 -29t-9.5 -29.5t-20.5 -10.5q-63 0 -102.5 23.5t-62.5 73.5q-22 -46 -56.5 -71.5t-83.5 -25.5q-11 0 -19 10t-8 30q0 19 7.5 29t19.5 10q38 0 69 14.5t54 50.5l-6 44zM219 -188q-14 6 -30.5 18t-28.5 25
l-34 -50q-16 7 -35.5 20.5t-31.5 30.5l46 61q10 -13 25 -27t29 -22l39 56q13 -15 33 -29.5t34 -21.5z" />
    <glyph glyph-name="uniFEF2" unicode="&#x64a;" horiz-adv-x="555" arabic-form="final" 
d="M105 100q-8 -20 -12.5 -40t-4.5 -49q0 -66 45 -103t137 -37q71 0 130 12t92 32q-25 22 -61 44t-68 34q5 17 12.5 33.5t12.5 26.5q10 4 23 7.5t31.5 6t44.5 4t62 1.5q11 0 20.5 -10t9.5 -29t-9.5 -29.5t-20.5 -10.5h-64q22 -12 33.5 -30t11.5 -30q0 -21 -13 -45t-32 -38
q-32 -27 -95.5 -44.5t-149.5 -17.5q-97 0 -147 47t-50 133q0 44 13.5 77t29.5 43zM322 -361q-14 6 -30.5 18t-28.5 25l-34 -50q-16 7 -35.5 20.5t-31.5 30.5l46 61q10 -13 25 -27t29 -22l39 56q13 -15 33 -29.5t34 -21.5z" />
    <glyph glyph-name="uni0626" unicode="&#x626;" horiz-adv-x="629" arabic-form="isolated" 
d="M101 124q-8 -19 -12 -40t-4 -52q0 -73 49.5 -113t134.5 -40q89 0 150 23t87 56q-5 6 -11.5 11.5t-17 13t-27.5 16.5t-42 22q-26 13 -42.5 23t-25.5 19.5t-12.5 19.5t-3.5 22q0 35 16.5 70.5t44.5 64.5t65.5 47.5t79.5 18.5q23 0 42.5 -6t33.5 -14l-37 -74
q-12 6 -27.5 10.5t-34.5 4.5q-46 0 -81.5 -24t-55.5 -65q4 -5 10 -9.5t16.5 -10.5t26.5 -14.5t40 -20.5q48 -24 67 -42t19 -35q0 -12 -3.5 -31.5t-11.5 -39.5q-28 -63 -101.5 -101t-183.5 -38q-105 0 -157.5 52t-52.5 148q0 44 13.5 75t29.5 41zM153 293q-15 9 -31 9
q-14 0 -29 -8.5t-21 -23.5q9 -11 26 -17t34 -6q18 0 37 7t40 19l-13 -50q-17 -5 -36 -12t-38 -15.5t-37 -18.5t-33 -20q-2 8 -2 12q0 18 14 30t28 16q-44 11 -44 42q0 38 23.5 62.5t57.5 24.5q27 0 47 -15z" />
    <glyph glyph-name="uniFE8B" unicode="&#x626;" horiz-adv-x="230" arabic-form="initial" 
d="M138 331q22 -32 34 -73.5t12 -82.5q0 -27 -9.5 -59t-30.5 -62q-20 -31 -59 -46t-85 -15q-11 0 -19 8.5t-8 30.5q0 18 7 29t20 11q44 0 77 8t60 24q-6 44 -20 81.5t-31 59.5zM145 489q-15 9 -31 9q-14 0 -29 -8.5t-21 -23.5q9 -11 26 -17t34 -6q18 0 37 7t40 19l-13 -50
q-17 -5 -36 -12t-38 -15.5t-37 -18.5t-33 -20q-2 8 -2 12q0 18 14 30t28 16q-44 11 -44 42q0 38 23.5 62.5t57.5 24.5q27 0 47 -15z" />
    <glyph glyph-name="uniFE8C" unicode="&#x626;" horiz-adv-x="305" arabic-form="medial" 
d="M147 218q17 -77 55.5 -111.5t102.5 -34.5q11 0 20.5 -10t9.5 -29t-9.5 -29.5t-20.5 -10.5q-63 0 -102.5 23.5t-62.5 73.5q-22 -46 -56.5 -71.5t-83.5 -25.5q-11 0 -19 10t-8 30q0 19 7.5 29t19.5 10q38 0 69 14.5t54 50.5l-6 44zM172 409q-15 9 -31 9q-14 0 -29 -8.5
t-21 -23.5q9 -11 26 -17t34 -6q18 0 37 7t40 19l-13 -50q-17 -5 -36 -12t-38 -15.5t-37 -18.5t-33 -20q-2 8 -2 12q0 18 14 30t28 16q-44 11 -44 42q0 38 23.5 62.5t57.5 24.5q27 0 47 -15z" />
    <glyph glyph-name="uniFE8A" unicode="&#x626;" horiz-adv-x="555" arabic-form="final" 
d="M105 100q-8 -20 -12.5 -40t-4.5 -49q0 -66 45 -103t137 -37q71 0 130 12t92 32q-25 22 -61 44t-68 34q5 17 12.5 33.5t12.5 26.5q10 4 23 7.5t31.5 6t44.5 4t62 1.5q11 0 20.5 -10t9.5 -29t-9.5 -29.5t-20.5 -10.5h-64q22 -12 33.5 -30t11.5 -30q0 -21 -13 -45t-32 -38
q-32 -27 -95.5 -44.5t-149.5 -17.5q-97 0 -147 47t-50 133q0 44 13.5 77t29.5 43zM156 293q-15 9 -31 9q-14 0 -29 -8.5t-21 -23.5q9 -11 26 -17t34 -6q18 0 37 7t40 19l-13 -50q-17 -5 -36 -12t-38 -15.5t-37 -18.5t-33 -20q-2 8 -2 12q0 18 14 30t28 16q-44 11 -44 42
q0 38 23.5 62.5t57.5 24.5q27 0 47 -15z" />
    <glyph glyph-name="uni0649" unicode="&#x649;" horiz-adv-x="629" arabic-form="isolated" 
d="M101 124q-8 -19 -12 -40t-4 -52q0 -73 49.5 -113t134.5 -40q89 0 150 23t87 56q-5 6 -11.5 11.5t-17 13t-27.5 16.5t-42 22q-26 13 -42.5 23t-25.5 19.5t-12.5 19.5t-3.5 22q0 35 16.5 70.5t44.5 64.5t65.5 47.5t79.5 18.5q23 0 42.5 -6t33.5 -14l-37 -74
q-12 6 -27.5 10.5t-34.5 4.5q-46 0 -81.5 -24t-55.5 -65q4 -5 10 -9.5t16.5 -10.5t26.5 -14.5t40 -20.5q48 -24 67 -42t19 -35q0 -12 -3.5 -31.5t-11.5 -39.5q-28 -63 -101.5 -101t-183.5 -38q-105 0 -157.5 52t-52.5 148q0 44 13.5 75t29.5 41z" />
    <glyph glyph-name="uniFBE8" unicode="&#x649;" horiz-adv-x="230" arabic-form="initial" 
d="M138 331q22 -32 34 -73.5t12 -82.5q0 -27 -9.5 -59t-30.5 -62q-20 -31 -59 -46t-85 -15q-11 0 -19 8.5t-8 30.5q0 18 7 29t20 11q44 0 77 8t60 24q-6 44 -20 81.5t-31 59.5z" />
    <glyph glyph-name="uniFBE9" unicode="&#x649;" horiz-adv-x="305" arabic-form="medial" 
d="M147 218q17 -77 55.5 -111.5t102.5 -34.5q11 0 20.5 -10t9.5 -29t-9.5 -29.5t-20.5 -10.5q-63 0 -102.5 23.5t-62.5 73.5q-22 -46 -56.5 -71.5t-83.5 -25.5q-11 0 -19 10t-8 30q0 19 7.5 29t19.5 10q38 0 69 14.5t54 50.5l-6 44z" />
    <glyph glyph-name="uniFEF0" unicode="&#x649;" horiz-adv-x="555" arabic-form="final" 
d="M106 100q-8 -20 -12.5 -40t-4.5 -49q0 -66 45 -103t137 -37q71 0 130 12t92 32q-25 22 -61 44t-68 34q5 17 12.5 33.5t12.5 26.5q10 4 23 7.5t31.5 6t44.5 4t62 1.5q11 0 20.5 -10t9.5 -29t-9.5 -29.5t-20.5 -10.5h-64q22 -12 33.5 -30t11.5 -30q0 -21 -13 -45t-32 -38
q-32 -27 -95.5 -44.5t-149.5 -17.5q-97 0 -147 47t-50 133q0 44 13.5 77t29.5 43z" />
    <glyph glyph-name="uni062D" unicode="&#x62d;" horiz-adv-x="544" arabic-form="isolated" 
d="M44 272q-3 4 -4.5 9t-1.5 9q0 11 7.5 27t23.5 34q20 25 44 37t41 12q22 0 50.5 -9.5t76.5 -32.5q26 -12 48.5 -20t46 -12.5t52 -6.5t66.5 -2l-25 -70q-81 -2 -152.5 -23.5t-125.5 -58t-85.5 -86t-31.5 -107.5q0 -76 62.5 -119.5t177.5 -43.5q63 0 111.5 6.5t98.5 22.5
l-4 -21q-2 -9 -22.5 -24t-55.5 -30t-80.5 -26t-96.5 -11q-113 0 -179 52.5t-66 154.5q0 64 21.5 116.5t59 94.5t88 74.5t108.5 58.5q-37 21 -75 32t-76 15q-23 -7 -50.5 -21.5t-51.5 -30.5z" />
    <glyph glyph-name="uniFEA3" unicode="&#x62d;" horiz-adv-x="505" arabic-form="initial" 
d="M0 -7q-11 0 -19 9t-8 30q0 18 7 29t20 11q94 0 180 22.5t151 64.5q-20 12 -44 23.5t-49 22t-48.5 19t-41.5 13.5q-25 -5 -53.5 -16t-53.5 -25q-5 8 -5 17q0 11 8 24.5t31 33.5q24 22 46 31.5t43 9.5q10 0 21 -2.5t26 -9.5t35.5 -18t49.5 -28q34 -20 57.5 -31.5t43.5 -18
t40.5 -8.5t47.5 -2l-26 -74q-29 0 -52.5 -2t-48.5 -8t-53.5 -17.5t-68.5 -31.5q-41 -21 -73.5 -34.5t-60 -21t-52.5 -10t-50 -2.5z" />
    <glyph glyph-name="uniFEA4" unicode="&#x62d;" horiz-adv-x="552" arabic-form="medial" 
d="M47 187q-3 4 -4.5 9t-1.5 10q0 11 7.5 26.5t23.5 34.5q20 24 44 36t41 12q21 0 49.5 -9.5t76.5 -32.5q27 -12 49 -20t46 -12.5t52 -7.5t70 -3l-25 -70q-42 0 -60.5 -2t-32.5 -8q-1 -2 -1 -5v-5q0 -21 12 -34t32 -20.5t56 -10.5t71 -3q11 0 20.5 -10t9.5 -29t-9.5 -29.5
t-20.5 -10.5q-108 0 -155.5 30.5t-47.5 81.5q0 16 5 36q-8 -4 -18 -9.5t-24 -14.5t-33 -22t-45 -31q-29 -20 -55.5 -33.5t-53 -21.5t-54.5 -12t-71 -4q-11 0 -19 10t-8 29q0 40 27 40q57 0 96.5 6t76.5 19t74 34.5t80 51.5q-43 23 -90 37.5t-88 18.5q-24 -7 -51.5 -21.5
t-50.5 -30.5z" />
    <glyph glyph-name="uniFEA2" unicode="&#x62d;" horiz-adv-x="516" arabic-form="final" 
d="M45 192q-7 9 -7 18q0 24 31 61q21 25 45 37t41 12q21 0 49.5 -9.5t76.5 -32.5q27 -12 49 -20t46 -12.5t52 -6.5t66 -2l-25 -70q-28 0 -55.5 -3t-42.5 -6q-5 -50 32.5 -68t112.5 -18q11 0 20.5 -10t9.5 -29t-9.5 -29.5t-20.5 -10.5q-96 0 -136.5 32.5t-40.5 84.5
q0 11 2 23t5 20q-43 -11 -91 -33.5t-88 -55.5t-66.5 -76.5t-26.5 -95.5q0 -76 63 -119.5t177 -43.5q63 0 117.5 7.5t92.5 21.5l-4 -21q-2 -9 -22.5 -24t-55 -30t-80 -26t-96.5 -11q-57 0 -102.5 13t-77.5 39.5t-49 65t-17 89.5q0 64 21.5 116.5t59 94.5t88 74.5t108.5 58.5
q-36 21 -74 32t-76 15q-24 -7 -51.5 -21.5t-50.5 -30.5z" />
    <glyph glyph-name="uni062C" unicode="&#x62c;" horiz-adv-x="544" arabic-form="isolated" 
d="M44 272q-3 4 -4.5 9t-1.5 9q0 11 7.5 27t23.5 34q20 25 44 37t41 12q22 0 50.5 -9.5t76.5 -32.5q26 -12 48.5 -20t46 -12.5t52 -6.5t66.5 -2l-25 -70q-81 -2 -152.5 -23.5t-125.5 -58t-85.5 -86t-31.5 -107.5q0 -76 62.5 -119.5t177.5 -43.5q63 0 111.5 6.5t98.5 22.5
l-4 -21q-2 -9 -22.5 -24t-55.5 -30t-80.5 -26t-96.5 -11q-113 0 -179 52.5t-66 154.5q0 64 21.5 116.5t59 94.5t88 74.5t108.5 58.5q-37 21 -75 32t-76 15q-23 -7 -50.5 -21.5t-51.5 -30.5zM309 -46q-16 7 -35.5 22t-31.5 32l49 60q12 -16 32 -31t34 -23z" />
    <glyph glyph-name="uniFE9F" unicode="&#x62c;" horiz-adv-x="505" arabic-form="initial" 
d="M0 -7q-11 0 -19 9t-8 30q0 18 7 29t20 11q94 0 180 22.5t151 64.5q-20 12 -44 23.5t-49 22t-48.5 19t-41.5 13.5q-25 -5 -53.5 -16t-53.5 -25q-5 8 -5 17q0 11 8 24.5t31 33.5q24 22 46 31.5t43 9.5q10 0 21 -2.5t26 -9.5t35.5 -18t49.5 -28q34 -20 57.5 -31.5t43.5 -18
t40.5 -8.5t47.5 -2l-26 -74q-29 0 -52.5 -2t-48.5 -8t-53.5 -17.5t-68.5 -31.5q-41 -21 -73.5 -34.5t-60 -21t-52.5 -10t-50 -2.5zM274 -191q-16 7 -35.5 22t-31.5 32l49 60q12 -16 32 -31t34 -23z" />
    <glyph glyph-name="uniFEA0" unicode="&#x62c;" horiz-adv-x="552" arabic-form="medial" 
d="M47 187q-3 4 -4.5 9t-1.5 10q0 11 7.5 26.5t23.5 34.5q20 24 44 36t41 12q21 0 49.5 -9.5t76.5 -32.5q27 -12 49 -20t46 -12.5t52 -7.5t70 -3l-25 -70q-42 0 -60.5 -2t-32.5 -8q-1 -2 -1 -5v-5q0 -21 12 -34t32 -20.5t56 -10.5t71 -3q11 0 20.5 -10t9.5 -29t-9.5 -29.5
t-20.5 -10.5q-108 0 -155.5 30.5t-47.5 81.5q0 16 5 36q-8 -4 -18 -9.5t-24 -14.5t-33 -22t-45 -31q-29 -20 -55.5 -33.5t-53 -21.5t-54.5 -12t-71 -4q-11 0 -19 10t-8 29q0 40 27 40q57 0 96.5 6t76.5 19t74 34.5t80 51.5q-43 23 -90 37.5t-88 18.5q-24 -7 -51.5 -21.5
t-50.5 -30.5zM297 -190q-16 7 -35.5 22t-31.5 32l49 60q12 -16 32 -31t34 -23z" />
    <glyph glyph-name="uniFE9E" unicode="&#x62c;" horiz-adv-x="516" arabic-form="final" 
d="M45 192q-7 9 -7 18q0 24 31 61q21 25 45 37t41 12q21 0 49.5 -9.5t76.5 -32.5q27 -12 49 -20t46 -12.5t52 -6.5t66 -2l-25 -70q-28 0 -55.5 -3t-42.5 -6q-5 -50 32.5 -68t112.5 -18q11 0 20.5 -10t9.5 -29t-9.5 -29.5t-20.5 -10.5q-96 0 -136.5 32.5t-40.5 84.5
q0 11 2 23t5 20q-43 -11 -91 -33.5t-88 -55.5t-66.5 -76.5t-26.5 -95.5q0 -76 63 -119.5t177 -43.5q63 0 117.5 7.5t92.5 21.5l-4 -21q-2 -9 -22.5 -24t-55 -30t-80 -26t-96.5 -11q-57 0 -102.5 13t-77.5 39.5t-49 65t-17 89.5q0 64 21.5 116.5t59 94.5t88 74.5t108.5 58.5
q-36 21 -74 32t-76 15q-24 -7 -51.5 -21.5t-50.5 -30.5zM292 -143q-16 7 -35.5 22t-31.5 32l49 60q12 -16 32 -31t34 -23z" />
    <glyph glyph-name="uni062E" unicode="&#x62e;" horiz-adv-x="544" arabic-form="isolated" 
d="M44 272q-3 4 -4.5 9t-1.5 9q0 11 7.5 27t23.5 34q20 25 44 37t41 12q22 0 50.5 -9.5t76.5 -32.5q26 -12 48.5 -20t46 -12.5t52 -6.5t66.5 -2l-25 -70q-81 -2 -152.5 -23.5t-125.5 -58t-85.5 -86t-31.5 -107.5q0 -76 62.5 -119.5t177.5 -43.5q63 0 111.5 6.5t98.5 22.5
l-4 -21q-2 -9 -22.5 -24t-55.5 -30t-80.5 -26t-96.5 -11q-113 0 -179 52.5t-66 154.5q0 64 21.5 116.5t59 94.5t88 74.5t108.5 58.5q-37 21 -75 32t-76 15q-23 -7 -50.5 -21.5t-51.5 -30.5zM156 444q-16 7 -35.5 22t-31.5 32l49 60q12 -16 32 -31t34 -23z" />
    <glyph glyph-name="uniFEA7" unicode="&#x62e;" horiz-adv-x="505" arabic-form="initial" 
d="M0 -7q-11 0 -19 9t-8 30q0 18 7 29t20 11q94 0 180 22.5t151 64.5q-20 12 -44 23.5t-49 22t-48.5 19t-41.5 13.5q-25 -5 -53.5 -16t-53.5 -25q-5 8 -5 17q0 11 8 24.5t31 33.5q24 22 46 31.5t43 9.5q10 0 21 -2.5t26 -9.5t35.5 -18t49.5 -28q34 -20 57.5 -31.5t43.5 -18
t40.5 -8.5t47.5 -2l-26 -74q-29 0 -52.5 -2t-48.5 -8t-53.5 -17.5t-68.5 -31.5q-41 -21 -73.5 -34.5t-60 -21t-52.5 -10t-50 -2.5zM153 391q-16 7 -35.5 22t-31.5 32l49 60q12 -16 32 -31t34 -23z" />
    <glyph glyph-name="uniFEA8" unicode="&#x62e;" horiz-adv-x="552" arabic-form="medial" 
d="M47 187q-3 4 -4.5 9t-1.5 10q0 11 7.5 26.5t23.5 34.5q20 24 44 36t41 12q21 0 49.5 -9.5t76.5 -32.5q27 -12 49 -20t46 -12.5t52 -7.5t70 -3l-25 -70q-42 0 -60.5 -2t-32.5 -8q-1 -2 -1 -5v-5q0 -21 12 -34t32 -20.5t56 -10.5t71 -3q11 0 20.5 -10t9.5 -29t-9.5 -29.5
t-20.5 -10.5q-108 0 -155.5 30.5t-47.5 81.5q0 16 5 36q-8 -4 -18 -9.5t-24 -14.5t-33 -22t-45 -31q-29 -20 -55.5 -33.5t-53 -21.5t-54.5 -12t-71 -4q-11 0 -19 10t-8 29q0 40 27 40q57 0 96.5 6t76.5 19t74 34.5t80 51.5q-43 23 -90 37.5t-88 18.5q-24 -7 -51.5 -21.5
t-50.5 -30.5zM165 391q-16 7 -35.5 22t-31.5 32l49 60q12 -16 32 -31t34 -23z" />
    <glyph glyph-name="uniFEA6" unicode="&#x62e;" horiz-adv-x="516" arabic-form="final" 
d="M45 192q-7 9 -7 18q0 24 31 61q21 25 45 37t41 12q21 0 49.5 -9.5t76.5 -32.5q27 -12 49 -20t46 -12.5t52 -6.5t66 -2l-25 -70q-28 0 -55.5 -3t-42.5 -6q-5 -50 32.5 -68t112.5 -18q11 0 20.5 -10t9.5 -29t-9.5 -29.5t-20.5 -10.5q-96 0 -136.5 32.5t-40.5 84.5
q0 11 2 23t5 20q-43 -11 -91 -33.5t-88 -55.5t-66.5 -76.5t-26.5 -95.5q0 -76 63 -119.5t177 -43.5q63 0 117.5 7.5t92.5 21.5l-4 -21q-2 -9 -22.5 -24t-55 -30t-80 -26t-96.5 -11q-57 0 -102.5 13t-77.5 39.5t-49 65t-17 89.5q0 64 21.5 116.5t59 94.5t88 74.5t108.5 58.5
q-36 21 -74 32t-76 15q-24 -7 -51.5 -21.5t-50.5 -30.5zM160 391q-16 7 -35.5 22t-31.5 32l49 60q12 -16 32 -31t34 -23z" />
    <glyph glyph-name="uni062F" unicode="&#x62f;" horiz-adv-x="432" arabic-form="isolated" 
d="M173 410q64 -55 103 -94.5t60.5 -70.5t28.5 -56.5t7 -52.5q0 -23 -8.5 -47.5t-20.5 -41.5q-21 -28 -62.5 -41t-101.5 -13q-53 0 -86 23.5t-33 70.5q0 24 7.5 43t15.5 24l16 11q-2 -9 -3.5 -18.5t-1.5 -23.5q0 -26 22.5 -38.5t72.5 -12.5q54 0 89.5 5t55.5 15
q-2 20 -8.5 39.5t-25 45t-53 60t-92.5 84.5z" />
    <glyph glyph-name="uniFEAA" unicode="&#x62f;" horiz-adv-x="481" arabic-form="final" 
d="M105 178q-3 -10 -4 -19.5t-1 -23.5q0 -29 21 -46t63 -17t72 12t50 33q-9 33 -22.5 92.5t-27.5 153.5l62 53q20 -181 44 -264q7 -23 16 -38t23 -24.5t33.5 -13.5t46.5 -4q11 0 20.5 -10t9.5 -29t-9.5 -29.5t-20.5 -10.5q-38 0 -65.5 6t-47.5 18.5t-33 31.5t-21 46l-26 -72
q-22 -15 -49 -22.5t-66 -7.5q-48 0 -78 28.5t-30 75.5q0 28 7.5 46t16.5 24l16 11v0z" />
    <glyph glyph-name="uni0630" unicode="&#x630;" horiz-adv-x="432" arabic-form="isolated" 
d="M173 410q64 -55 103 -94.5t60.5 -70.5t28.5 -56.5t7 -52.5q0 -23 -8.5 -47.5t-20.5 -41.5q-21 -28 -62.5 -41t-101.5 -13q-53 0 -86 23.5t-33 70.5q0 24 7.5 43t15.5 24l16 11q-2 -9 -3.5 -18.5t-1.5 -23.5q0 -26 22.5 -38.5t72.5 -12.5q54 0 89.5 5t55.5 15
q-2 20 -8.5 39.5t-25 45t-53 60t-92.5 84.5zM177 462q-16 7 -35.5 22t-31.5 32l49 60q12 -16 32 -31t34 -23z" />
    <glyph glyph-name="uniFEAC" unicode="&#x630;" horiz-adv-x="481" arabic-form="final" 
d="M105 178q-3 -10 -4 -19.5t-1 -23.5q0 -29 21 -46t63 -17t72 12t50 33q-9 33 -22.5 92.5t-27.5 153.5l62 53q20 -181 44 -264q7 -23 16 -38t23 -24.5t33.5 -13.5t46.5 -4q11 0 20.5 -10t9.5 -29t-9.5 -29.5t-20.5 -10.5q-38 0 -65.5 6t-47.5 18.5t-33 31.5t-21 46l-26 -72
q-22 -15 -49 -22.5t-66 -7.5q-48 0 -78 28.5t-30 75.5q0 28 7.5 46t16.5 24l16 11v0zM275 461q-16 7 -35.5 22t-31.5 32l49 60q12 -16 32 -31t34 -23z" />
    <glyph glyph-name="uni0631" unicode="&#x631;" horiz-adv-x="355" arabic-form="isolated" 
d="M224 257q48 -54 69.5 -105t21.5 -105q0 -35 -12 -71.5t-34 -71t-53 -64.5t-69 -50l-128 16l-14 20q54 15 99.5 38t81 50.5t58.5 57t32 58.5q-8 32 -32 69t-62 72z" />
    <glyph glyph-name="uniFEAE" unicode="&#x631;" horiz-adv-x="393" arabic-form="final" 
d="M270 161q20 -25 35.5 -42t30 -27.5t28 -15t29.5 -4.5q11 0 20.5 -10t9.5 -29t-9.5 -29.5t-20.5 -10.5q-20 0 -36.5 5t-32.5 16l-1 -1q7 -17 7 -42q0 -21 -8.5 -48t-26.5 -55t-45.5 -55t-65.5 -47l-128 16l-14 20q108 30 170.5 77.5t82.5 94.5q-2 23 -16 53t-45 65z" />
    <glyph glyph-name="uni0632" unicode="&#x632;" horiz-adv-x="355" arabic-form="isolated" 
d="M224 257q48 -54 69.5 -105t21.5 -105q0 -35 -12 -71.5t-34 -71t-53 -64.5t-69 -50l-128 16l-14 20q54 15 99.5 38t81 50.5t58.5 57t32 58.5q-8 32 -32 69t-62 72zM221 340q-16 7 -35.5 22t-31.5 32l49 60q12 -16 32 -31t34 -23z" />
    <glyph glyph-name="uniFEB0" unicode="&#x632;" horiz-adv-x="393" arabic-form="final" 
d="M270 161q20 -25 35.5 -42t30 -27.5t28 -15t29.5 -4.5q11 0 20.5 -10t9.5 -29t-9.5 -29.5t-20.5 -10.5q-20 0 -36.5 5t-32.5 16l-1 -1q7 -17 7 -42q0 -21 -8.5 -48t-26.5 -55t-45.5 -55t-65.5 -47l-128 16l-14 20q108 30 170.5 77.5t82.5 94.5q-2 23 -16 53t-45 65z
M261 231q-16 7 -35.5 22t-31.5 32l49 60q12 -16 32 -31t34 -23z" />
    <glyph glyph-name="uni0648" unicode="&#x648;" horiz-adv-x="360" arabic-form="isolated" 
d="M5 -174q58 16 104.5 40.5t81 53t56 59.5t29.5 60q-11 -11 -29.5 -20t-40.5 -9q-23 0 -43 8.5t-35 24t-23.5 36.5t-8.5 46q0 23 8.5 47t23 43.5t33.5 32t40 12.5q24 0 45.5 -14.5t38 -39.5t26 -58.5t9.5 -70.5q0 -46 -12.5 -89t-35.5 -80t-55 -67.5t-70 -50.5l-128 16z
M130 126q11 -23 32.5 -34t49.5 -11q18 0 37 5t27 11q-7 42 -31.5 65t-49.5 23q-23 0 -40 -16.5t-25 -42.5z" />
    <glyph glyph-name="uniFEEE" unicode="&#x648;" horiz-adv-x="363" arabic-form="final" 
d="M5 -174q62 17 107 38t75.5 43t48 44t23.5 42q-43 1 -74.5 11.5t-52.5 27t-31 37.5t-10 44t8.5 47t23 43.5t32.5 31.5t36 12q21 0 41 -13t36.5 -36.5t28 -55.5t14.5 -70h52q11 0 20.5 -10t9.5 -29t-9.5 -29.5t-20.5 -10.5h-58q-12 -60 -51.5 -114t-106.5 -89l-128 16z
M125 116q9 -19 36.5 -31.5t63.5 -12.5h42q-7 43 -29.5 71.5t-51.5 28.5q-21 0 -38.5 -16t-22.5 -40z" />
    <glyph glyph-name="uni0624" unicode="&#x624;" horiz-adv-x="360" arabic-form="isolated" 
d="M5 -174q58 16 104.5 40.5t81 53t56 59.5t29.5 60q-11 -11 -29.5 -20t-40.5 -9q-23 0 -43 8.5t-35 24t-23.5 36.5t-8.5 46q0 23 8.5 47t23 43.5t33.5 32t40 12.5q24 0 45.5 -14.5t38 -39.5t26 -58.5t9.5 -70.5q0 -46 -12.5 -89t-35.5 -80t-55 -67.5t-70 -50.5l-128 16z
M130 126q11 -23 32.5 -34t49.5 -11q18 0 37 5t27 11q-7 42 -31.5 65t-49.5 23q-23 0 -40 -16.5t-25 -42.5zM217 429q-15 9 -31 9q-14 0 -29 -8.5t-21 -23.5q9 -11 26 -17t34 -6q18 0 37 7t40 19l-13 -50q-17 -5 -36 -12t-38 -15.5t-37 -18.5t-33 -20q-2 8 -2 12q0 18 14 30
t28 16q-44 11 -44 42q0 38 23.5 62.5t57.5 24.5q27 0 47 -15z" />
    <glyph glyph-name="uniFE86" unicode="&#x624;" horiz-adv-x="363" arabic-form="final" 
d="M5 -174q62 17 107 38t75.5 43t48 44t23.5 42q-43 1 -74.5 11.5t-52.5 27t-31 37.5t-10 44t8.5 47t23 43.5t32.5 31.5t36 12q21 0 41 -13t36.5 -36.5t28 -55.5t14.5 -70h52q11 0 20.5 -10t9.5 -29t-9.5 -29.5t-20.5 -10.5h-58q-12 -60 -51.5 -114t-106.5 -89l-128 16z
M125 116q9 -19 36.5 -31.5t63.5 -12.5h42q-7 43 -29.5 71.5t-51.5 28.5q-21 0 -38.5 -16t-22.5 -40zM214 428q-15 9 -31 9q-14 0 -29 -8.5t-21 -23.5q9 -11 26 -17t34 -6q18 0 37 7t40 19l-13 -50q-17 -5 -36 -12t-38 -15.5t-37 -18.5t-33 -20q-2 8 -2 12q0 18 14 30t28 16
q-44 11 -44 42q0 38 23.5 62.5t57.5 24.5q27 0 47 -15z" />
    <glyph glyph-name="uni0633" unicode="&#x633;" horiz-adv-x="812" arabic-form="isolated" 
d="M87 126q-8 -18 -12 -47t-4 -58q0 -75 34.5 -112.5t113.5 -37.5q60 0 110 20t76 55q-5 58 -16.5 101t-28.5 72l47 65q19 -54 47 -82t51 -28q22 0 38.5 28t38.5 98l31 14l-7 -40q27 -48 64 -69t75 -22q-3 38 -18 74t-37 60l36 76q13 -13 24 -31t19 -38t13 -40t5 -38
q0 -16 -3.5 -39t-15.5 -47q-16 -32 -31 -44t-32 -12q-32 0 -67 23t-64 68q-20 -59 -38 -79.5t-37 -20.5q-33 0 -48 26q0 -43 -7.5 -76.5t-26.5 -63.5q-24 -38 -77 -65.5t-133 -27.5q-94 0 -138 49t-44 134q0 26 4 50t10.5 43.5t14.5 33t15 18.5l18 11v-1z" />
    <glyph glyph-name="uniFEB3" unicode="&#x633;" horiz-adv-x="527" arabic-form="initial" 
d="M431 290q12 -13 23.5 -31t19.5 -38t13 -40t5 -37t-3.5 -40t-15.5 -47q-16 -32 -31 -44t-32 -12q-32 0 -67.5 24.5t-58.5 70.5q-11 -28 -21.5 -46.5t-21.5 -29.5t-23 -15.5t-26 -4.5q-26 0 -49 20.5t-37 62.5q-14 -26 -27.5 -43.5t-26 -28t-25.5 -14.5t-27 -4
q-11 0 -19.5 9t-8.5 30q0 18 8.5 29t19.5 11q40 0 71 25t56 79l30 13l-8 -34q8 -37 25.5 -56.5t36.5 -19.5q9 0 18.5 6t19.5 19.5t21 36t24 56.5l32 13l-9 -38q17 -41 50.5 -66.5t82.5 -25.5q-3 38 -18.5 74t-36.5 60z" />
    <glyph glyph-name="uniFEB4" unicode="&#x633;" horiz-adv-x="582" arabic-form="medial" 
d="M481 164q7 -47 34 -69.5t67 -22.5q11 0 20.5 -10t9.5 -29t-9.5 -29.5t-20.5 -10.5q-50 0 -82.5 24.5t-42.5 67.5q-16 -45 -39.5 -64t-49.5 -19q-30 0 -47.5 19.5t-21.5 53.5q-22 -46 -44.5 -64t-51.5 -18q-33 0 -56 22t-32 61q-23 -46 -52.5 -64.5t-62.5 -18.5
q-10 0 -18.5 10.5t-8.5 29.5q0 16 8 27.5t19 11.5q43 0 74.5 20.5t56.5 68.5l29 7l-10 -30q8 -29 27 -47.5t45 -18.5t46.5 20t42.5 80l31 14l-6 -35q2 -31 14.5 -50.5t31.5 -19.5q52 0 73 111l34 14z" />
    <glyph glyph-name="uniFEB2" unicode="&#x633;" horiz-adv-x="839" arabic-form="final" 
d="M87 127q-8 -19 -12 -48t-4 -58q0 -75 35 -112.5t113 -37.5q60 0 110 20t76 55q-5 58 -16 101t-26 72l47 65q19 -54 45.5 -82t49.5 -28q22 0 39 20t37 78l31 14l-7 -35q2 -40 14.5 -59.5t32.5 -19.5q21 0 40 29t28 92l35 13l-6 -42q3 -42 29 -67t61 -25q11 0 20.5 -10
t9.5 -29t-9.5 -29.5t-20.5 -10.5q-42 0 -73 22.5t-41 63.5q-14 -46 -34.5 -66t-50.5 -20q-27 0 -46 18.5t-26 56.5q-15 -39 -32.5 -56t-36.5 -17q-17 0 -29 8t-19 20l-1 -1q1 -45 -6.5 -78t-26.5 -63q-24 -38 -77 -65.5t-133 -27.5q-94 0 -138 49t-44 134q0 26 4 50
t10.5 43.5t14 33t15.5 18.5l18 11v0z" />
    <glyph glyph-name="uni0634" unicode="&#x634;" horiz-adv-x="823" arabic-form="isolated" 
d="M88 126q-8 -18 -12 -47t-4 -58q0 -75 34.5 -112.5t113.5 -37.5q60 0 110 20t76 55q-5 58 -16.5 101t-28.5 72l47 65q19 -54 47 -82t51 -28q22 0 38.5 28t38.5 98l31 14l-7 -40q27 -48 64 -69t75 -22q-3 38 -18 74t-37 60l36 76q13 -13 24 -31t19 -38t13 -40t5 -38
q0 -16 -3.5 -39t-15.5 -47q-16 -32 -31 -44t-32 -12q-32 0 -67 23t-64 68q-20 -59 -38 -79.5t-37 -20.5q-33 0 -48 26q0 -43 -7.5 -76.5t-26.5 -63.5q-24 -38 -77 -65.5t-133 -27.5q-94 0 -138 49t-44 134q0 26 4 50t10.5 43.5t14.5 33t15 18.5l18 11v-1zM527 387
q-6 2 -16 8.5t-19.5 15t-17 16.5t-10.5 13l48 59q9 -14 27.5 -31t33.5 -25zM590 284q-14 6 -30.5 18t-28.5 25l-34 -50q-16 7 -35.5 20.5t-31.5 30.5l46 61q10 -13 25 -27t29 -22l39 56q13 -15 33 -29.5t34 -21.5z" />
    <glyph glyph-name="uniFEB7" unicode="&#x634;" horiz-adv-x="527" arabic-form="initial" 
d="M431 290q12 -13 23.5 -31t19.5 -38t13 -40t5 -37t-3.5 -40t-15.5 -47q-16 -32 -31 -44t-32 -12q-32 0 -67.5 24.5t-58.5 70.5q-11 -28 -21.5 -46.5t-21.5 -29.5t-23 -15.5t-26 -4.5q-26 0 -49 20.5t-37 62.5q-14 -26 -27.5 -43.5t-26 -28t-25.5 -14.5t-27 -4
q-11 0 -19.5 9t-8.5 30q0 18 8.5 29t19.5 11q40 0 71 25t56 79l30 13l-8 -34q8 -37 25.5 -56.5t36.5 -19.5q9 0 18.5 6t19.5 19.5t21 36t24 56.5l32 13l-9 -38q17 -41 50.5 -66.5t82.5 -25.5q-3 38 -18.5 74t-36.5 60zM249 387q-6 2 -16 8.5t-19.5 15t-17 16.5t-10.5 13
l48 59q9 -14 27.5 -31t33.5 -25zM312 284q-14 6 -30.5 18t-28.5 25l-34 -50q-16 7 -35.5 20.5t-31.5 30.5l46 61q10 -13 25 -27t29 -22l39 56q13 -15 33 -29.5t34 -21.5z" />
    <glyph glyph-name="uniFEB8" unicode="&#x634;" horiz-adv-x="582" arabic-form="medial" 
d="M481 164q7 -47 34 -69.5t67 -22.5q11 0 20.5 -10t9.5 -29t-9.5 -29.5t-20.5 -10.5q-50 0 -82.5 24.5t-42.5 67.5q-16 -45 -39.5 -64t-49.5 -19q-30 0 -47.5 19.5t-21.5 53.5q-22 -46 -44.5 -64t-51.5 -18q-33 0 -56 22t-32 61q-23 -46 -52.5 -64.5t-62.5 -18.5
q-10 0 -18.5 10.5t-8.5 29.5q0 16 8 27.5t19 11.5q43 0 74.5 20.5t56.5 68.5l29 7l-10 -30q8 -29 27 -47.5t45 -18.5t46.5 20t42.5 80l31 14l-6 -35q2 -31 14.5 -50.5t31.5 -19.5q52 0 73 111l34 14zM297 367q-6 2 -16 8.5t-19.5 15t-17 16.5t-10.5 13l48 59q9 -14 27.5 -31
t33.5 -25zM360 264q-14 6 -30.5 18t-28.5 25l-34 -50q-16 7 -35.5 20.5t-31.5 30.5l46 61q10 -13 25 -27t29 -22l39 56q13 -15 33 -29.5t34 -21.5z" />
    <glyph glyph-name="uniFEB6" unicode="&#x634;" horiz-adv-x="839" arabic-form="final" 
d="M87 127q-8 -19 -12 -48t-4 -58q0 -75 35 -112.5t113 -37.5q60 0 110 20t76 55q-5 58 -16 101t-26 72l47 65q19 -54 45.5 -82t49.5 -28q22 0 39 20t37 78l31 14l-7 -35q2 -40 14.5 -59.5t32.5 -19.5q21 0 40 29t28 92l35 13l-6 -42q3 -42 29 -67t61 -25q11 0 20.5 -10
t9.5 -29t-9.5 -29.5t-20.5 -10.5q-42 0 -73 22.5t-41 63.5q-14 -46 -34.5 -66t-50.5 -20q-27 0 -46 18.5t-26 56.5q-15 -39 -32.5 -56t-36.5 -17q-17 0 -29 8t-19 20l-1 -1q1 -45 -6.5 -78t-26.5 -63q-24 -38 -77 -65.5t-133 -27.5q-94 0 -138 49t-44 134q0 26 4 50
t10.5 43.5t14 33t15.5 18.5l18 11v0zM560 367q-6 2 -16 8.5t-19.5 15t-17 16.5t-10.5 13l48 59q9 -14 27.5 -31t33.5 -25zM623 264q-14 6 -30.5 18t-28.5 25l-34 -50q-16 7 -35.5 20.5t-31.5 30.5l46 61q10 -13 25 -27t29 -22l39 56q13 -15 33 -29.5t34 -21.5z" />
    <glyph glyph-name="uni0635" unicode="&#x635;" horiz-adv-x="904" arabic-form="isolated" 
d="M87 127q-8 -19 -12 -48t-4 -58q0 -75 34.5 -112.5t113.5 -37.5q60 0 110 20t76 55q-5 58 -16.5 101t-28.5 72l45 62q11 -29 29 -52t40 -39q25 42 59 82t71 71.5t75.5 50.5t73.5 19q23 0 44 -11.5t37 -31t25.5 -45t9.5 -54.5q0 -17 -13.5 -44.5t-35.5 -55.5
q-14 -17 -40.5 -31t-59.5 -24.5t-68 -16.5t-66 -6q-49 0 -81.5 7t-53.5 21q0 -45 -7.5 -77.5t-26.5 -62.5q-24 -38 -77 -65.5t-133 -27.5q-94 0 -138 49t-44 134q0 26 4 50t10.5 43.5t14 33t15.5 18.5zM820 122q-7 53 -32 82.5t-62 29.5q-22 0 -49.5 -13.5t-56.5 -35
t-57.5 -49.5t-52.5 -58q11 -2 28.5 -4t36.5 -2q80 0 143.5 13.5t101.5 36.5z" />
    <glyph glyph-name="uniFEBB" unicode="&#x635;" horiz-adv-x="621" arabic-form="initial" 
d="M128 167q3 -9 10.5 -20t16.5 -22t18.5 -20.5t17.5 -14.5q25 42 59 82t71 71.5t75.5 50.5t73.5 19q23 0 44 -11.5t37 -31t25.5 -45t9.5 -54.5q0 -17 -13.5 -44.5t-35.5 -55.5q-14 -17 -40.5 -31t-60.5 -24.5t-71.5 -16.5t-72.5 -6q-55 0 -101 19t-79 65q-17 -40 -44.5 -62
t-67.5 -22q-11 0 -19 11.5t-8 28.5q0 15 8 27t19 12q38 0 63 16.5t46 62.5zM537 122q-7 53 -32 82.5t-61 29.5q-22 0 -50 -13.5t-57 -35t-57.5 -49.5t-52.5 -58q11 -2 28.5 -4t36.5 -2q80 0 143.5 13.5t101.5 36.5z" />
    <glyph glyph-name="uniFEBC" unicode="&#x635;" horiz-adv-x="615" arabic-form="medial" 
d="M128 167q3 -9 10.5 -20t16.5 -22t18.5 -20.5t17.5 -14.5q25 42 59 82t71 71.5t75.5 50.5t73.5 19q23 0 44 -11.5t37 -31t25.5 -45t9.5 -54.5q0 -16 -11.5 -40t-30.5 -50q17 -5 32.5 -7t38.5 -2q11 0 20.5 -10t9.5 -29t-9.5 -29.5t-20.5 -10.5q-34 0 -61.5 11.5
t-53.5 37.5q-20 -11 -44.5 -20t-52 -15.5t-56 -10t-55.5 -3.5q-55 0 -101 19t-79 65q-17 -40 -44.5 -62t-67.5 -22q-11 0 -19 11.5t-8 28.5q0 15 8 27t19 12q38 0 63 16.5t46 62.5zM537 122q-7 53 -32 82.5t-61 29.5q-22 0 -50 -13.5t-57 -35t-57.5 -49.5t-52.5 -58
q11 -2 28.5 -4t36.5 -2q80 0 143.5 13.5t101.5 36.5z" />
    <glyph glyph-name="uniFEBA" unicode="&#x635;" horiz-adv-x="898" arabic-form="final" 
d="M828 81q17 -5 32 -7t38 -2q11 0 20.5 -10t9.5 -29t-9.5 -29.5t-20.5 -10.5q-34 0 -61.5 11t-54.5 37q-19 -11 -43.5 -20t-50.5 -15t-52.5 -9.5t-49.5 -3.5q-49 0 -82 8.5t-54 22.5v-5q0 -42 -7.5 -75.5t-25.5 -62.5q-24 -38 -77 -65.5t-133 -27.5q-94 0 -138 49t-44 134
q0 26 4 50t10.5 43.5t14 33t15.5 18.5l18 11q-8 -19 -12 -48t-4 -58q0 -75 35 -112.5t113 -37.5q60 0 110 20t76 55q-5 58 -16 101t-26 72l47 65q11 -29 26.5 -53.5t37.5 -40.5q25 42 59 82t71 71.5t75.5 50.5t73.5 19q23 0 44 -11.5t37 -31t25.5 -45t9.5 -54.5
q0 -16 -11.5 -40t-29.5 -50zM820 122q-7 53 -32 82.5t-62 29.5q-22 0 -49.5 -13.5t-56.5 -35t-57.5 -49.5t-52.5 -58q11 -2 28.5 -4t36.5 -2q80 0 143.5 13.5t101.5 36.5z" />
    <glyph glyph-name="uni0636" unicode="&#x636;" horiz-adv-x="904" arabic-form="isolated" 
d="M87 127q-8 -19 -12 -48t-4 -58q0 -75 34.5 -112.5t113.5 -37.5q60 0 110 20t76 55q-5 58 -16.5 101t-28.5 72l45 62q11 -29 29 -52t40 -39q25 42 59 82t71 71.5t75.5 50.5t73.5 19q23 0 44 -11.5t37 -31t25.5 -45t9.5 -54.5q0 -17 -13.5 -44.5t-35.5 -55.5
q-14 -17 -40.5 -31t-59.5 -24.5t-68 -16.5t-66 -6q-49 0 -81.5 7t-53.5 21q0 -45 -7.5 -77.5t-26.5 -62.5q-24 -38 -77 -65.5t-133 -27.5q-94 0 -138 49t-44 134q0 26 4 50t10.5 43.5t14 33t15.5 18.5zM820 122q-7 53 -32 82.5t-62 29.5q-22 0 -49.5 -13.5t-56.5 -35
t-57.5 -49.5t-52.5 -58q11 -2 28.5 -4t36.5 -2q80 0 143.5 13.5t101.5 36.5zM573 391q-16 7 -35.5 22t-31.5 32l49 60q12 -16 32 -31t34 -23z" />
    <glyph glyph-name="uniFEBF" unicode="&#x636;" horiz-adv-x="621" arabic-form="initial" 
d="M128 167q3 -9 10.5 -20t16.5 -22t18.5 -20.5t17.5 -14.5q25 42 59 82t71 71.5t75.5 50.5t73.5 19q23 0 44 -11.5t37 -31t25.5 -45t9.5 -54.5q0 -17 -13.5 -44.5t-35.5 -55.5q-14 -17 -40.5 -31t-60.5 -24.5t-71.5 -16.5t-72.5 -6q-55 0 -101 19t-79 65q-17 -40 -44.5 -62
t-67.5 -22q-11 0 -19 11.5t-8 28.5q0 15 8 27t19 12q38 0 63 16.5t46 62.5zM537 122q-7 53 -32 82.5t-61 29.5q-22 0 -50 -13.5t-57 -35t-57.5 -49.5t-52.5 -58q11 -2 28.5 -4t36.5 -2q80 0 143.5 13.5t101.5 36.5zM304 391q-16 7 -35.5 22t-31.5 32l49 60q12 -16 32 -31
t34 -23z" />
    <glyph glyph-name="uniFEC0" unicode="&#x636;" horiz-adv-x="615" arabic-form="medial" 
d="M128 167q3 -9 10.5 -20t16.5 -22t18.5 -20.5t17.5 -14.5q25 42 59 82t71 71.5t75.5 50.5t73.5 19q23 0 44 -11.5t37 -31t25.5 -45t9.5 -54.5q0 -16 -11.5 -40t-30.5 -50q17 -5 32.5 -7t38.5 -2q11 0 20.5 -10t9.5 -29t-9.5 -29.5t-20.5 -10.5q-34 0 -61.5 11.5
t-53.5 37.5q-20 -11 -44.5 -20t-52 -15.5t-56 -10t-55.5 -3.5q-55 0 -101 19t-79 65q-17 -40 -44.5 -62t-67.5 -22q-11 0 -19 11.5t-8 28.5q0 15 8 27t19 12q38 0 63 16.5t46 62.5zM537 122q-7 53 -32 82.5t-61 29.5q-22 0 -50 -13.5t-57 -35t-57.5 -49.5t-52.5 -58
q11 -2 28.5 -4t36.5 -2q80 0 143.5 13.5t101.5 36.5zM304 391q-16 7 -35.5 22t-31.5 32l49 60q12 -16 32 -31t34 -23z" />
    <glyph glyph-name="uniFEBE" unicode="&#x636;" horiz-adv-x="898" arabic-form="final" 
d="M828 81q17 -5 32 -7t38 -2q11 0 20.5 -10t9.5 -29t-9.5 -29.5t-20.5 -10.5q-34 0 -61.5 11t-54.5 37q-19 -11 -43.5 -20t-50.5 -15t-52.5 -9.5t-49.5 -3.5q-49 0 -82 8.5t-54 22.5v-5q0 -42 -7.5 -75.5t-25.5 -62.5q-24 -38 -77 -65.5t-133 -27.5q-94 0 -138 49t-44 134
q0 26 4 50t10.5 43.5t14 33t15.5 18.5l18 11q-8 -19 -12 -48t-4 -58q0 -75 35 -112.5t113 -37.5q60 0 110 20t76 55q-5 58 -16 101t-26 72l47 65q11 -29 26.5 -53.5t37.5 -40.5q25 42 59 82t71 71.5t75.5 50.5t73.5 19q23 0 44 -11.5t37 -31t25.5 -45t9.5 -54.5
q0 -16 -11.5 -40t-29.5 -50zM820 122q-7 53 -32 82.5t-62 29.5q-22 0 -49.5 -13.5t-56.5 -35t-57.5 -49.5t-52.5 -58q11 -2 28.5 -4t36.5 -2q80 0 143.5 13.5t101.5 36.5zM598 391q-16 7 -35.5 22t-31.5 32l49 60q12 -16 32 -31t34 -23z" />
    <glyph glyph-name="uni0637" unicode="&#x637;" horiz-adv-x="574" arabic-form="isolated" 
d="M194 621q3 -14 9.5 -31t15.5 -33t19.5 -29.5t20.5 -22.5l-51 -32q0 -43 1.5 -93.5t1.5 -87.5q0 -16 -1 -36t-2.5 -40.5t-4 -38t-5.5 -29.5h4q24 35 50.5 65t54.5 52.5t57.5 35t58.5 12.5q23 0 44 -11.5t37 -31t25.5 -45t9.5 -54.5q0 -17 -13 -44.5t-36 -55.5
q-14 -18 -37.5 -32.5t-52 -24.5t-61.5 -15.5t-67 -5.5q-33 0 -67.5 4t-66.5 10.5t-60.5 15t-50.5 18.5l-19 61q36 -7 67.5 -11.5t68.5 -7.5l9 14q2 11 3 27t2 33t1 33.5v28.5q0 58 -1.5 101.5t-6.5 80.5q-5 38 -7.5 68.5t-4.5 66.5q-5 13 -7 35zM180 78q11 -2 28.5 -4
t36.5 -2q80 0 143.5 13.5t101.5 36.5q-7 53 -32 82.5t-62 29.5q-22 0 -49.5 -13.5t-56.5 -35t-57.5 -49.5t-52.5 -58z" />
    <glyph glyph-name="uniFEC3" unicode="&#x637;" horiz-adv-x="488" arabic-form="initial" 
d="M108 621q3 -14 9.5 -31t15.5 -33t19.5 -29.5t21.5 -22.5l-52 -32q0 -43 1.5 -93.5t1.5 -87.5q0 -16 -1 -36t-2.5 -40.5t-4 -38t-5.5 -29.5h4q24 35 50.5 65t54.5 52.5t57.5 35t58.5 12.5q23 0 44 -11.5t37 -31t25.5 -45t9.5 -54.5q0 -17 -13 -44.5t-36 -55.5
q-14 -18 -36 -32.5t-53.5 -24.5t-74 -15.5t-98.5 -5.5h-142q-11 0 -19 10.5t-8 30.5q0 18 7.5 28t19.5 10h56l11 22q1 12 2.5 28.5t2 34t1 34t0.5 28.5q0 58 -1.5 101.5t-6.5 80.5q-5 38 -7.5 68.5t-4.5 66.5q-5 13 -7 35zM159 72q80 0 143.5 13.5t101.5 36.5
q-7 53 -32 82.5t-62 29.5q-22 0 -49.5 -13.5t-56.5 -36t-57.5 -51.5t-51.5 -61h64z" />
    <glyph glyph-name="uniFEC4" unicode="&#x637;" horiz-adv-x="486" arabic-form="medial" 
d="M108 621q3 -14 9.5 -31t15.5 -33t19.5 -29.5t21.5 -22.5l-52 -32q0 -43 1.5 -93.5t1.5 -87.5q0 -16 -1 -36t-2.5 -40.5t-4 -38t-5.5 -29.5h4q24 35 50.5 65t54.5 52.5t57.5 35t58.5 12.5q23 0 44 -11.5t37 -31t25.5 -45t9.5 -54.5q0 -15 -10.5 -38t-27.5 -47
q19 -8 36.5 -11t34.5 -3q11 0 20.5 -10t9.5 -29t-9.5 -29.5t-20.5 -10.5q-71 0 -116 47q-33 -23 -88 -35t-140 -12h-142q-11 0 -19 10.5t-8 30.5q0 18 7.5 28t19.5 10h56l11 22q1 12 2.5 28.5t2 34t1 34t0.5 28.5q0 58 -1.5 101.5t-6.5 80.5q-5 38 -7.5 68.5t-4.5 66.5
q-5 13 -7 35zM159 72q80 0 143.5 13.5t101.5 36.5q-7 53 -32 82.5t-62 29.5q-22 0 -49.5 -13.5t-56.5 -36t-57.5 -51.5t-51.5 -61h64z" />
    <glyph glyph-name="uniFEC2" unicode="&#x637;" horiz-adv-x="572" arabic-form="final" 
d="M194 621q3 -14 9.5 -31t15.5 -33t19.5 -29.5t20.5 -22.5l-51 -32q0 -43 1.5 -93.5t1.5 -87.5q0 -16 -1 -36t-2.5 -40.5t-4 -38t-5.5 -29.5h4q24 35 50.5 65t54.5 52.5t57.5 35t58.5 12.5q23 0 44 -11.5t37 -31t25.5 -45t9.5 -54.5q0 -15 -10.5 -38t-27.5 -47
q19 -8 36.5 -11t34.5 -3q11 0 20.5 -10t9.5 -29t-9.5 -29.5t-20.5 -10.5q-71 0 -116 47q-33 -23 -82.5 -35t-101.5 -12q-33 0 -67.5 4t-66.5 10.5t-60.5 15t-50.5 18.5l-19 61q36 -7 67.5 -11.5t68.5 -7.5l9 14q2 11 3 27t2 33t1 33.5v28.5q0 58 -1.5 101.5t-6.5 80.5
q-5 38 -7.5 68.5t-4.5 66.5q-5 13 -7 35zM180 78q11 -2 28.5 -4t36.5 -2q80 0 143.5 13.5t101.5 36.5q-7 53 -32 82.5t-62 29.5q-22 0 -49.5 -13.5t-56.5 -35t-57.5 -49.5t-52.5 -58z" />
    <glyph glyph-name="uni0638" unicode="&#x638;" horiz-adv-x="574" arabic-form="isolated" 
d="M194 621q3 -14 9.5 -31t15.5 -33t19.5 -29.5t20.5 -22.5l-51 -32q0 -43 1.5 -93.5t1.5 -87.5q0 -16 -1 -36t-2.5 -40.5t-4 -38t-5.5 -29.5h4q24 35 50.5 65t54.5 52.5t57.5 35t58.5 12.5q23 0 44 -11.5t37 -31t25.5 -45t9.5 -54.5q0 -17 -13 -44.5t-36 -55.5
q-14 -18 -37.5 -32.5t-52 -24.5t-61.5 -15.5t-67 -5.5q-33 0 -67.5 4t-66.5 10.5t-60.5 15t-50.5 18.5l-19 61q36 -7 67.5 -11.5t68.5 -7.5l9 14q2 11 3 27t2 33t1 33.5v28.5q0 58 -1.5 101.5t-6.5 80.5q-5 38 -7.5 68.5t-4.5 66.5q-5 13 -7 35zM180 78q11 -2 28.5 -4
t36.5 -2q80 0 143.5 13.5t101.5 36.5q-7 53 -32 82.5t-62 29.5q-22 0 -49.5 -13.5t-56.5 -35t-57.5 -49.5t-52.5 -58zM401 391q-16 7 -35.5 22t-31.5 32l49 60q12 -16 32 -31t34 -23z" />
    <glyph glyph-name="uniFEC7" unicode="&#x638;" horiz-adv-x="488" arabic-form="initial" 
d="M108 621q3 -14 9.5 -31t15.5 -33t19.5 -29.5t21.5 -22.5l-52 -32q0 -43 1.5 -93.5t1.5 -87.5q0 -16 -1 -36t-2.5 -40.5t-4 -38t-5.5 -29.5h4q24 35 50.5 65t54.5 52.5t57.5 35t58.5 12.5q23 0 44 -11.5t37 -31t25.5 -45t9.5 -54.5q0 -17 -13 -44.5t-36 -55.5
q-14 -18 -36 -32.5t-53.5 -24.5t-74 -15.5t-98.5 -5.5h-142q-11 0 -19 10.5t-8 30.5q0 18 7.5 28t19.5 10h56l11 22q1 12 2.5 28.5t2 34t1 34t0.5 28.5q0 58 -1.5 101.5t-6.5 80.5q-5 38 -7.5 68.5t-4.5 66.5q-5 13 -7 35zM159 72q80 0 143.5 13.5t101.5 36.5
q-7 53 -32 82.5t-62 29.5q-22 0 -49.5 -13.5t-56.5 -36t-57.5 -51.5t-51.5 -61h64zM301 391q-16 7 -35.5 22t-31.5 32l49 60q12 -16 32 -31t34 -23z" />
    <glyph glyph-name="uniFEC8" unicode="&#x638;" horiz-adv-x="486" arabic-form="medial" 
d="M108 621q3 -14 9.5 -31t15.5 -33t19.5 -29.5t21.5 -22.5l-52 -32q0 -43 1.5 -93.5t1.5 -87.5q0 -16 -1 -36t-2.5 -40.5t-4 -38t-5.5 -29.5h4q24 35 50.5 65t54.5 52.5t57.5 35t58.5 12.5q23 0 44 -11.5t37 -31t25.5 -45t9.5 -54.5q0 -15 -10.5 -38t-27.5 -47
q19 -8 36.5 -11t34.5 -3q11 0 20.5 -10t9.5 -29t-9.5 -29.5t-20.5 -10.5q-71 0 -116 47q-33 -23 -88 -35t-140 -12h-142q-11 0 -19 10.5t-8 30.5q0 18 7.5 28t19.5 10h56l11 22q1 12 2.5 28.5t2 34t1 34t0.5 28.5q0 58 -1.5 101.5t-6.5 80.5q-5 38 -7.5 68.5t-4.5 66.5
q-5 13 -7 35zM159 72q80 0 143.5 13.5t101.5 36.5q-7 53 -32 82.5t-62 29.5q-22 0 -49.5 -13.5t-56.5 -36t-57.5 -51.5t-51.5 -61h64zM301 391q-16 7 -35.5 22t-31.5 32l49 60q12 -16 32 -31t34 -23z" />
    <glyph glyph-name="uniFEC6" unicode="&#x638;" horiz-adv-x="572" arabic-form="final" 
d="M194 621q3 -14 9.5 -31t15.5 -33t19.5 -29.5t20.5 -22.5l-51 -32q0 -43 1.5 -93.5t1.5 -87.5q0 -16 -1 -36t-2.5 -40.5t-4 -38t-5.5 -29.5h4q24 35 50.5 65t54.5 52.5t57.5 35t58.5 12.5q23 0 44 -11.5t37 -31t25.5 -45t9.5 -54.5q0 -15 -10.5 -38t-27.5 -47
q19 -8 36.5 -11t34.5 -3q11 0 20.5 -10t9.5 -29t-9.5 -29.5t-20.5 -10.5q-71 0 -116 47q-33 -23 -82.5 -35t-101.5 -12q-33 0 -67.5 4t-66.5 10.5t-60.5 15t-50.5 18.5l-19 61q36 -7 67.5 -11.5t68.5 -7.5l9 14q2 11 3 27t2 33t1 33.5v28.5q0 58 -1.5 101.5t-6.5 80.5
q-5 38 -7.5 68.5t-4.5 66.5q-5 13 -7 35zM180 78q11 -2 28.5 -4t36.5 -2q80 0 143.5 13.5t101.5 36.5q-7 53 -32 82.5t-62 29.5q-22 0 -49.5 -13.5t-56.5 -35t-57.5 -49.5t-52.5 -58zM401 391q-16 7 -35.5 22t-31.5 32l49 60q12 -16 32 -31t34 -23z" />
    <glyph glyph-name="uni0639" unicode="&#x639;" horiz-adv-x="539" arabic-form="isolated" 
d="M322 375q-21 17 -38 23.5t-44 6.5q-16 0 -34.5 -4t-36 -11t-33.5 -15.5t-28 -18.5q14 -38 51 -64.5t100 -37.5q16 9 38 19.5t45.5 19.5t46.5 16.5t41 11.5l-19 -90q-62 -15 -120 -39.5t-103 -57t-72 -73.5t-27 -89q0 -76 62.5 -119.5t177.5 -43.5q63 0 117.5 7.5
t92.5 21.5l-4 -21q-2 -9 -22.5 -24t-55.5 -30t-80.5 -26t-96.5 -11q-54 0 -99.5 13t-77.5 39t-50 64.5t-18 90.5q0 70 38.5 139t110.5 127q-54 14 -84 45t-30 72q0 26 12.5 55t34 53.5t49.5 40.5t59 16q32 0 56.5 -21t56.5 -71z" />
    <glyph glyph-name="uniFECB" unicode="&#x639;" horiz-adv-x="426" arabic-form="initial" 
d="M381 107q-74 -52 -172.5 -83t-208.5 -31q-11 0 -19 10.5t-8 30.5q0 19 8 28.5t19 9.5q60 0 97 3t64 10q-54 17 -85 54t-31 87q0 25 12.5 54t34 54t49.5 41t59 16q32 0 56.5 -21.5t56.5 -71.5l-15 -13q-22 17 -39 23.5t-43 6.5q-16 0 -34.5 -4t-36 -11t-33.5 -15.5
t-28 -18.5q7 -26 23 -49t38.5 -42.5t50 -34.5t57.5 -25q34 11 71 28t72 38z" />
    <glyph glyph-name="uniFECC" unicode="&#x639;" horiz-adv-x="378" arabic-form="medial" 
d="M154 95q-11 20 -31.5 34.5t-45.5 24.5l16 57q32 10 57.5 15t59.5 5q30 0 52 -9.5t22 -24.5q0 -22 -12 -49t-41 -56q18 -8 51 -14t96 -6q11 0 20.5 -10t9.5 -29t-9.5 -29.5t-20.5 -10.5q-34 0 -60.5 4t-48.5 11.5t-40.5 18.5t-35.5 26q-84 -60 -193 -60q-10 0 -18.5 8.5
t-8.5 29.5q0 19 7.5 30t19.5 11q53 0 92.5 6t61.5 17z" />
    <glyph glyph-name="uniFECA" unicode="&#x639;" arabic-form="final" 
d="M168 211q32 10 57.5 15t59.5 5q30 0 52 -9.5t22 -24.5q0 -22 -12 -49t-41 -56q18 -9 57 -14.5t97 -5.5q11 0 20.5 -10t9.5 -29t-9.5 -29.5t-20.5 -10.5q-34 0 -62.5 4t-52 13t-44 23.5t-42.5 34.5q-63 -27 -101.5 -72t-38.5 -106q0 -32 13 -60.5t39 -49.5t65.5 -33.5
t92.5 -12.5q42 0 76.5 5.5t78.5 21.5l-3 -17q-2 -11 -19 -27t-44 -30.5t-62.5 -25t-74.5 -10.5q-103 0 -159.5 55t-56.5 149q0 37 13 74t35.5 70t51.5 60t62 44q-9 14 -29.5 27.5t-45.5 23.5z" />
    <glyph glyph-name="uni063A" unicode="&#x63a;" horiz-adv-x="539" arabic-form="isolated" 
d="M322 375q-21 17 -38 23.5t-44 6.5q-16 0 -34.5 -4t-36 -11t-33.5 -15.5t-28 -18.5q14 -38 51 -64.5t100 -37.5q16 9 38 19.5t45.5 19.5t46.5 16.5t41 11.5l-19 -90q-62 -15 -120 -39.5t-103 -57t-72 -73.5t-27 -89q0 -76 62.5 -119.5t177.5 -43.5q63 0 117.5 7.5
t92.5 21.5l-4 -21q-2 -9 -22.5 -24t-55.5 -30t-80.5 -26t-96.5 -11q-54 0 -99.5 13t-77.5 39t-50 64.5t-18 90.5q0 70 38.5 139t110.5 127q-54 14 -84 45t-30 72q0 26 12.5 55t34 53.5t49.5 40.5t59 16q32 0 56.5 -21t56.5 -71zM202 532q-16 7 -35.5 22t-31.5 32l49 60
q12 -16 32 -31t34 -23z" />
    <glyph glyph-name="uniFECF" unicode="&#x63a;" horiz-adv-x="426" arabic-form="initial" 
d="M381 107q-74 -52 -172.5 -83t-208.5 -31q-11 0 -19 10.5t-8 30.5q0 19 8 28.5t19 9.5q60 0 97 3t64 10q-54 17 -85 54t-31 87q0 25 12.5 54t34 54t49.5 41t59 16q32 0 56.5 -21.5t56.5 -71.5l-15 -13q-22 17 -39 23.5t-43 6.5q-16 0 -34.5 -4t-36 -11t-33.5 -15.5
t-28 -18.5q7 -26 23 -49t38.5 -42.5t50 -34.5t57.5 -25q34 11 71 28t72 38zM191 457q-16 7 -35.5 22t-31.5 32l49 60q12 -16 32 -31t34 -23z" />
    <glyph glyph-name="uniFED0" unicode="&#x63a;" horiz-adv-x="378" arabic-form="medial" 
d="M154 95q-11 20 -31.5 34.5t-45.5 24.5l16 57q32 10 57.5 15t59.5 5q30 0 52 -9.5t22 -24.5q0 -22 -12 -49t-41 -56q18 -8 51 -14t96 -6q11 0 20.5 -10t9.5 -29t-9.5 -29.5t-20.5 -10.5q-34 0 -60.5 4t-48.5 11.5t-40.5 18.5t-35.5 26q-84 -60 -193 -60q-10 0 -18.5 8.5
t-8.5 29.5q0 19 7.5 30t19.5 11q53 0 92.5 6t61.5 17zM195 290q-16 7 -35.5 22t-31.5 32l49 60q12 -16 32 -31t34 -23z" />
    <glyph glyph-name="uniFECE" unicode="&#x63a;" arabic-form="final" 
d="M168 211q32 10 57.5 15t59.5 5q30 0 52 -9.5t22 -24.5q0 -22 -12 -49t-41 -56q18 -9 57 -14.5t97 -5.5q11 0 20.5 -10t9.5 -29t-9.5 -29.5t-20.5 -10.5q-34 0 -62.5 4t-52 13t-44 23.5t-42.5 34.5q-63 -27 -101.5 -72t-38.5 -106q0 -32 13 -60.5t39 -49.5t65.5 -33.5
t92.5 -12.5q42 0 76.5 5.5t78.5 21.5l-3 -17q-2 -11 -19 -27t-44 -30.5t-62.5 -25t-74.5 -10.5q-103 0 -159.5 55t-56.5 149q0 37 13 74t35.5 70t51.5 60t62 44q-9 14 -29.5 27.5t-45.5 23.5zM275 290q-16 7 -35.5 22t-31.5 32l49 60q12 -16 32 -31t34 -23z" />
    <glyph glyph-name="uni0641" unicode="&#x641;" horiz-adv-x="779" arabic-form="isolated" 
d="M83 265l-4 -24t-2 -20q0 -42 13 -72t42.5 -48.5t76 -27t113.5 -8.5q50 0 103.5 5t104 14t95.5 22t80 30q-2 19 -4 35.5t-4 27.5q-14 -17 -36.5 -28.5t-44.5 -11.5q-23 0 -43 8.5t-35 24t-23.5 36.5t-8.5 46q0 23 8.5 47t23 43.5t33 32t39.5 12.5q25 0 49 -16.5t43 -46.5
t30.5 -71t11.5 -89q0 -45 -17.5 -74.5t-62.5 -56.5q-26 -16 -67.5 -29.5t-91 -23t-104 -15t-105.5 -5.5q-74 0 -123.5 10t-80.5 30.5t-44 52.5t-13 76q0 38 9.5 68.5t20.5 37.5zM540 275q11 -23 32.5 -34t49.5 -11q18 0 37 5t27 11q-7 42 -31.5 65t-49.5 23q-23 0 -40 -16.5
t-25 -42.5zM602 450q-16 7 -35.5 22t-31.5 32l49 60q12 -16 32 -31t34 -23z" />
    <glyph glyph-name="uniFED3" unicode="&#x641;" horiz-adv-x="306" arabic-form="initial" 
d="M231 124q-2 18 -3.5 34.5t-3.5 27.5q-14 -17 -37 -28.5t-45 -11.5q-23 0 -43 8.5t-34.5 24t-23 36.5t-8.5 46q0 23 8.5 47t23 43.5t33 32t39.5 12.5q24 0 48 -17t43 -47t31 -71t12 -89q0 -45 -9 -71.5t-29 -43.5q-38 -32 -96.5 -48t-136.5 -16q-11 0 -19 10.5t-8 29.5
t8 29t19 10q77 0 136.5 13t94.5 39zM67 262q11 -23 32.5 -34t49.5 -11q18 0 37 5t27 11q-7 42 -31.5 65t-49.5 23q-23 0 -40 -16.5t-25 -42.5zM135 451q-16 7 -35.5 22t-31.5 32l49 60q12 -16 32 -31t34 -23z" />
    <glyph glyph-name="uniFED4" unicode="&#x641;" horiz-adv-x="356" arabic-form="medial" 
d="M107 85q-17 19 -27.5 46.5t-10.5 51.5q0 18 3.5 33.5t12.5 34.5q18 38 46.5 62t59.5 24q17 0 35.5 -11t33.5 -30t24.5 -44.5t9.5 -55.5q0 -26 -17 -56.5t-40 -52.5q20 -5 48.5 -10t70.5 -5q11 0 20.5 -10t9.5 -29t-9.5 -29.5t-20.5 -10.5q-108 0 -188 40q-35 -18 -76 -29
t-92 -11q-13 0 -20 10.5t-7 28.5q0 16 7.5 28t19.5 12q35 0 62.5 4t44.5 9zM174 109q13 7 26 16t24.5 19.5t20.5 21t14 19.5q-4 15 -12.5 29.5t-20 26t-24 18.5t-24.5 7q-7 0 -17.5 -6t-21.5 -15.5t-21 -21.5t-15 -25q3 -30 24 -54t47 -35zM186 391q-16 7 -35.5 22t-31.5 32
l49 60q12 -16 32 -31t34 -23z" />
    <glyph glyph-name="uniFED2" unicode="&#x641;" horiz-adv-x="846" arabic-form="final" 
d="M79 256q-2 -5 -2.5 -11.5t-1.5 -13.5t-1.5 -13t-0.5 -10q0 -45 13.5 -74.5t44 -47.5t78.5 -25.5t117 -7.5q82 0 153.5 9.5t115.5 25.5q-16 19 -25.5 45t-9.5 50q0 30 11.5 58t29.5 49t39.5 34t41.5 13q17 0 35 -11t32.5 -30t23.5 -44.5t9 -55.5q0 -26 -15.5 -56.5
t-38.5 -52.5q20 -5 45 -10t67 -5q11 0 20.5 -10t9.5 -29t-9.5 -29.5t-20.5 -10.5q-54 0 -103.5 13t-88.5 33q-129 -69 -345 -69q-75 0 -127 9t-84 29t-46.5 52t-14.5 79q0 38 9 68.5t20 37.5zM665 109q26 14 49.5 36t32.5 40q-4 15 -12 29.5t-18.5 26t-23 18.5t-24.5 7
q-7 0 -17.5 -6t-21.5 -15.5t-21 -21.5t-15 -25q3 -30 24 -54t47 -35zM679 391q-16 7 -35.5 22t-31.5 32l49 60q12 -16 32 -31t34 -23z" />
    <glyph glyph-name="uni0642" unicode="&#x642;" horiz-adv-x="562" arabic-form="isolated" 
d="M97 166q-8 -19 -12 -48t-4 -58q0 -35 9 -62.5t29 -47t51.5 -30t77.5 -10.5q36 0 70.5 5.5t65.5 16t56 25t42 31.5q0 28 -2 53.5t-6 42.5q-14 -17 -36.5 -28.5t-44.5 -11.5q-23 0 -43 8.5t-35 24t-23.5 36.5t-8.5 46q0 23 8.5 47t23 43.5t33.5 32t40 12.5q25 0 48.5 -16.5
t42.5 -46.5t30.5 -70.5t11.5 -88.5q0 -38 -3 -64t-9.5 -45.5t-18 -34.5t-28.5 -30q-37 -32 -97.5 -51.5t-137.5 -19.5q-98 0 -145 50t-47 133q0 26 4 50.5t10.5 44t14 32.5t15.5 18zM317 160q11 -23 32.5 -34t49.5 -11q18 0 37 5t27 11q-7 42 -31.5 65t-49.5 23
q-23 0 -40 -16.5t-25 -42.5zM434 344q-14 6 -30.5 18t-28.5 25l-34 -50q-16 7 -35.5 20.5t-31.5 30.5l46 61q10 -13 25 -27t29 -22l39 56q13 -15 33 -29.5t34 -21.5z" />
    <glyph glyph-name="uniFED7" unicode="&#x642;" horiz-adv-x="306" arabic-form="initial" 
d="M231 124q-2 18 -3.5 34.5t-3.5 27.5q-14 -17 -37 -28.5t-45 -11.5q-23 0 -43 8.5t-34.5 24t-23 36.5t-8.5 46q0 23 8.5 47t23 43.5t33 32t39.5 12.5q24 0 48 -17t43 -47t31 -71t12 -89q0 -45 -9 -71.5t-29 -43.5q-38 -32 -96.5 -48t-136.5 -16q-11 0 -19 10.5t-8 29.5
t8 29t19 10q77 0 136.5 13t94.5 39zM67 262q11 -23 32.5 -34t49.5 -11q18 0 37 5t27 11q-7 42 -31.5 65t-49.5 23q-23 0 -40 -16.5t-25 -42.5zM176 452q-14 6 -30.5 18t-28.5 25l-34 -50q-16 7 -35.5 20.5t-31.5 30.5l46 61q10 -13 25 -27t29 -22l39 56q13 -15 33 -29.5
t34 -21.5z" />
    <glyph glyph-name="uniFED8" unicode="&#x642;" horiz-adv-x="356" arabic-form="medial" 
d="M107 85q-17 19 -27.5 46.5t-10.5 51.5q0 18 3.5 33.5t12.5 34.5q18 38 46.5 62t59.5 24q17 0 35.5 -11t33.5 -30t24.5 -44.5t9.5 -55.5q0 -26 -17 -56.5t-40 -52.5q20 -5 48.5 -10t70.5 -5q11 0 20.5 -10t9.5 -29t-9.5 -29.5t-20.5 -10.5q-108 0 -188 40q-35 -18 -76 -29
t-92 -11q-13 0 -20 10.5t-7 28.5q0 16 7.5 28t19.5 12q35 0 62.5 4t44.5 9zM174 109q13 7 26 16t24.5 19.5t20.5 21t14 19.5q-4 15 -12.5 29.5t-20 26t-24 18.5t-24.5 7q-7 0 -17.5 -6t-21.5 -15.5t-21 -21.5t-15 -25q3 -30 24 -54t47 -35zM237 398q-14 6 -30.5 18t-28.5 25
l-34 -50q-16 7 -35.5 20.5t-31.5 30.5l46 61q10 -13 25 -27t29 -22l39 56q13 -15 33 -29.5t34 -21.5z" />
    <glyph glyph-name="uniFED6" unicode="&#x642;" horiz-adv-x="528" arabic-form="final" 
d="M97 109q-8 -19 -12 -47.5t-4 -57.5q0 -35 9 -62.5t29 -47t51.5 -30t77.5 -10.5q70 0 122.5 18t84.5 47q1 6 1.5 16.5l1 21t1 20.5t0.5 16q-44 0 -77 10.5t-55 27.5t-32.5 38.5t-10.5 43.5q0 23 8.5 47t23 43.5t32.5 31.5t37 12q20 0 40 -13.5t36 -37t27 -55.5t13 -69h27
q11 0 20.5 -10t9.5 -29t-9.5 -29.5t-20.5 -10.5h-27q-1 -30 -4 -51.5t-9 -38.5t-16 -31t-25 -29q-31 -31 -87 -51.5t-133 -20.5q-98 0 -145 50t-47 133q0 25 4 49t10.5 44t14 33.5t15.5 18.5zM315 116q11 -19 43 -31.5t68 -12.5h34q-7 43 -29.5 71.5t-51.5 28.5
q-21 0 -39.5 -17t-24.5 -39zM434 297q-14 6 -30.5 18t-28.5 25l-34 -50q-16 7 -35.5 20.5t-31.5 30.5l46 61q10 -13 25 -27t29 -22l39 56q13 -15 33 -29.5t34 -21.5z" />
    <glyph glyph-name="uni0643" unicode="&#x643;" horiz-adv-x="612" arabic-form="isolated" 
d="M84 232q-3 -11 -5 -26.5t-2 -32.5q0 -66 39.5 -96t121.5 -30q34 0 69 4t67 11t59 17t46 22q0 68 -5 136t-11 127t-11 104t-5 68q-2 8 -4 16.5t-3 18.5l62 50q3 -14 9.5 -31t15.5 -33t19.5 -29.5t20.5 -22.5l-51 -32q2 -74 7 -155t5 -174q0 -14 -5 -30t-13 -32.5
t-19.5 -31.5t-24.5 -27q-15 -12 -40.5 -23t-58 -19t-71 -12.5t-80.5 -4.5q-95 0 -138 39.5t-43 112.5q0 38 9 68t21 38zM168 192v4q49 7 78 12t44.5 8.5t20 5t4.5 3.5q0 3 -8.5 10t-35.5 24q-14 9 -21.5 14.5t-11 10t-4.5 7.5t-1 7q0 11 7 28q17 38 53 61.5t74 23.5l-22 -50
q-45 -7 -62.5 -18.5t-17.5 -20.5q0 -5 9.5 -10.5t32.5 -20.5q28 -18 37.5 -27.5t9.5 -20.5q0 -24 -19.5 -44.5t-61.5 -26.5l-55 -8z" />
    <glyph glyph-name="uniFEDB" unicode="&#x643;" horiz-adv-x="439" arabic-form="initial" 
d="M377 548l-335 -146q49 -35 88 -70t66 -67.5t41 -61.5t14 -50q0 -7 -2 -19.5t-7 -26.5t-13 -28t-19 -25q-14 -14 -32 -25t-42.5 -19t-57.5 -12.5t-78 -4.5q-12 0 -19.5 10t-7.5 30t7.5 29.5t19.5 9.5q46 0 79.5 3t58 9.5t42.5 16.5t34 23q-25 47 -61.5 89t-79.5 71
l-19 -32q-29 36 -41.5 67.5t-12.5 58.5q0 34 11.5 57t43.5 37l354 162z" />
    <glyph glyph-name="uniFEDC" unicode="&#x643;" horiz-adv-x="411" arabic-form="medial" 
d="M364 569l-322 -145l194 -225q34 -39 60 -64t46 -39t36.5 -19t32.5 -5q11 0 20.5 -10t9.5 -29t-9.5 -29.5t-20.5 -10.5q-32 0 -58.5 7.5t-52.5 26t-55 49t-65 75.5q-2 -23 -10.5 -48t-24.5 -48q-20 -29 -55 -45.5t-90 -16.5q-13 0 -20 10.5t-7 27.5q0 18 7.5 29.5
t19.5 11.5q55 0 90 15.5t51 39.5q-2 22 -7.5 42.5t-15 40.5t-24 41.5t-34.5 46.5q-30 37 -45 62.5t-15 48.5q0 19 3.5 32t10.5 22.5t17.5 16.5t24.5 14l340 161z" />
    <glyph glyph-name="uniFEDA" unicode="&#x643;" horiz-adv-x="606" arabic-form="final" 
d="M84 232q-3 -12 -5 -27t-2 -32q0 -60 32.5 -93t100.5 -33q42 0 81 6t73.5 17t62.5 25t48 31q0 156 -2.5 261t-11.5 178l59 56q3 -35 5.5 -78.5t4 -93.5t2 -104.5t0.5 -110.5q0 -54 4.5 -86.5t14 -49t23.5 -21.5t32 -5q11 0 20.5 -10t9.5 -29t-9.5 -29.5t-20.5 -10.5
q-57 0 -88 24.5t-39 81.5l-24 -58q-39 -32 -108 -54.5t-157 -22.5q-72 0 -113.5 38.5t-41.5 113.5q0 38 9 68.5t21 37.5zM161 192v4q49 7 78 12t44.5 8.5t20 5t4.5 3.5q0 3 -8.5 10t-35.5 24q-14 9 -21.5 14.5t-11 10t-4.5 7.5t-1 7q0 11 7 28q17 38 53 61.5t74 23.5
l-22 -50q-45 -7 -62.5 -18.5t-17.5 -20.5q0 -5 9.5 -10.5t32.5 -20.5q28 -18 37.5 -27.5t9.5 -20.5q0 -24 -19.5 -44.5t-61.5 -26.5l-55 -8z" />
    <glyph glyph-name="uni0644" unicode="&#x644;" horiz-adv-x="496" arabic-form="isolated" 
d="M87 79q-5 -14 -7.5 -31t-2.5 -43q0 -56 28 -84t79 -28q57 0 108 12t86 38q1 94 -4.5 172.5t-11.5 153.5q-5 66 -10 130.5t-7 136.5q-2 8 -3.5 16.5t-3.5 18.5l63 50q3 -14 9.5 -31t15.5 -33t19.5 -30t20.5 -22l-51 -32q1 -42 3 -88.5t4 -96.5q2 -51 3.5 -101t1.5 -97
t-1 -85t-7 -65q-6 -30 -29.5 -54t-57 -41t-73 -26t-77.5 -9q-72 0 -109.5 39t-37.5 113q0 38 11 68.5t22 37.5z" />
    <glyph glyph-name="uniFEDF" unicode="&#x644;" horiz-adv-x="214" arabic-form="initial" 
d="M113 621q3 -14 10 -31t16 -32.5t19 -29.5t21 -22l-52 -33q1 -36 3 -78l4 -84t5.5 -80.5t3.5 -66.5q0 -29 -5.5 -62t-21.5 -59q-17 -26 -46 -38t-70 -12q-11 0 -19 11t-8 29q0 17 7.5 28t19.5 11q60 0 91 17q0 46 -4.5 105t-9.5 117q-7 69 -12 128t-7 97q-2 8 -4 17.5
t-2 17.5z" />
    <glyph glyph-name="uniFEE0" unicode="&#x644;" horiz-adv-x="230" arabic-form="medial" 
d="M91 136q-1 77 -2 140t-2.5 115t-4.5 95t-7 79l57 56q4 -35 6.5 -80t4 -96t2 -105t0.5 -106q0 -54 4.5 -86.5t14 -49t27 -21.5t39.5 -5q11 0 20 -10t9 -29t-9 -29.5t-20 -10.5q-111 0 -129 94q-15 -49 -43 -71.5t-58 -22.5q-12 0 -19.5 10t-7.5 29q0 17 8 28.5t19 11.5
q29 0 51.5 13t39.5 51z" />
    <glyph glyph-name="uniFEDE" unicode="&#x644;" horiz-adv-x="510" arabic-form="final" 
d="M87 79q-5 -14 -7.5 -31t-2.5 -43q0 -56 28 -84t79 -28q58 0 110.5 13t87.5 38q0 120 -2.5 208t-6.5 160q-3 67 -5.5 127t-2.5 126l68 56v-423q0 -72 17.5 -99t59.5 -27q11 0 20.5 -10t9.5 -29t-9.5 -29.5t-20.5 -10.5q-33 0 -52 12.5t-30 35.5q0 -21 -1.5 -47.5
t-7.5 -53.5q-6 -30 -29.5 -54t-57 -41t-73 -26t-77.5 -9q-72 0 -109.5 39t-37.5 113q0 38 11 68.5t22 37.5z" />
    <glyph glyph-name="uni0645" unicode="&#x645;" horiz-adv-x="458" arabic-form="isolated" 
d="M94 0q5 -35 13.5 -75.5t18.5 -89.5q8 -38 12.5 -72t4.5 -59q0 -24 -2 -39t-12 -32l-19 6q-2 21 -4.5 38t-7 39t-12 52.5t-19.5 77.5q-9 38 -15.5 67t-6.5 49q0 42 24 71t63 40q-5 14 -8 28.5t-3 31.5q0 21 8 43t22 40t31.5 29t37.5 11q27 0 56 -14t56.5 -38.5t51.5 -58
t39 -73.5l-35 -79q-14 4 -35.5 8t-46 7t-49.5 5t-47 2q-40 0 -69.5 -4.5t-46.5 -10.5zM163 78q16 3 35 5.5t41 2.5q12 0 30 -1.5t36 -3.5t34 -4.5t25 -4.5l1 2q-14 24 -32.5 44t-39 35t-41.5 23t-39 8q-26 0 -40.5 -20.5t-14.5 -51.5q0 -16 5 -34z" />
    <glyph glyph-name="uniFEE3" unicode="&#x645;" horiz-adv-x="390" arabic-form="initial" 
d="M115 60q-21 -32 -51.5 -49.5t-63.5 -17.5q-10 0 -18.5 10.5t-8.5 28.5q0 19 8 29.5t19 10.5q32 0 60 19.5t58 73.5q30 55 52.5 78.5t51.5 23.5q23 0 47 -14t43 -36t31 -49.5t12 -53.5q0 -23 -8 -47t-23 -43.5t-36 -31.5t-48 -12q-40 0 -73 23t-52 57zM145 127
q18 -35 44 -53.5t58 -18.5q51 0 76 39q-23 49 -52 73.5t-58 24.5q-21 0 -37 -16.5t-31 -48.5z" />
    <glyph glyph-name="uniFEE4" unicode="&#x645;" horiz-adv-x="430" arabic-form="medial" 
d="M86 31q-17 -17 -39.5 -27.5t-46.5 -10.5q-12 0 -19.5 10t-7.5 30t7.5 29.5t19.5 9.5q31 0 57.5 18.5t59.5 56.5q31 35 52.5 47t45.5 12q23 0 43.5 -13t55.5 -50q21 -22 36.5 -36t29 -21.5t25.5 -10.5t25 -3q11 0 20.5 -10t9.5 -29t-9.5 -29.5t-20.5 -10.5q-26 0 -46 8
t-40 24q-19 -51 -50.5 -79t-75.5 -28q-82 0 -132 113zM128 77q15 -38 41.5 -61t61.5 -23q27 0 49 14.5t37 40.5q-35 50 -61 66.5t-50 16.5q-22 0 -43.5 -15t-34.5 -39z" />
    <glyph glyph-name="uniFEE2" unicode="&#x645;" horiz-adv-x="455" arabic-form="final" 
d="M99 -361q-2 21 -4.5 38t-7 39t-12 52.5t-19.5 77.5q-9 38 -15.5 67t-6.5 49q0 29 17 71t44 80.5t61.5 65.5t70.5 27q30 0 54 -14t56 -49q20 -22 35.5 -35.5t29 -21.5t26 -11t27.5 -3q11 0 20.5 -10t9.5 -29t-9.5 -29.5t-20.5 -10.5q-30 0 -51.5 9.5t-38.5 26.5
q-12 -52 -42 -83.5t-65 -31.5q-46 0 -79 40t-46 112q-6 -7 -14 -16t-15 -18t-12.5 -17.5t-8.5 -14.5q5 -35 13.5 -75.5t18.5 -89.5q8 -38 12.5 -72t4.5 -59q0 -24 -2 -39t-12 -32zM338 49q-37 48 -63 65t-51 17q-18 0 -35 -10t-30 -26q15 -50 42.5 -78t61.5 -28
q28 0 47.5 18.5t27.5 41.5z" />
    <glyph glyph-name="uniFEE9" unicode="&#x647;" horiz-adv-x="556" arabic-form="isolated" 
d="M238 422h8q48 -22 97.5 -56t89 -69.5t64.5 -68.5t25 -53q0 -23 -10 -49t-30 -50q-25 -30 -51 -42t-61 -12q-29 0 -54.5 10.5t-41.5 24.5q-17 -14 -37 -24.5t-40 -17.5t-39.5 -11t-34.5 -4q-17 0 -40.5 12t-56.5 47l12 13q77 5 118.5 14t70.5 21q-16 22 -23 45t-7 41
q0 38 25.5 73t67.5 55q-8 8 -28 17t-40 17zM247 254q0 -38 10.5 -66.5t29.5 -46.5q27 22 45.5 53t23.5 57q-4 19 -14.5 26.5t-29.5 7.5q-14 0 -34 -8t-31 -23zM391 238q-3 -15 -9 -33t-15 -36t-20 -34.5t-23 -28.5q9 -7 26 -13t38 -6q33 0 58.5 15t37.5 40
q-15 19 -39.5 47.5t-53.5 48.5z" />
    <glyph glyph-name="uniFEEB" unicode="&#x647;" horiz-adv-x="438" arabic-form="initial" 
d="M112 400q48 -22 97.5 -56t89 -69.5t64.5 -68.5t25 -53q0 -23 -10 -49t-30 -50q-25 -30 -51 -42t-61 -12q-27 0 -56 10t-44 25q-33 -23 -68.5 -32.5t-67.5 -9.5q-11 0 -19 11t-8 28q0 18 8.5 29t18.5 11q28 0 52.5 3.5t40.5 9.5q-16 22 -22.5 45t-7.5 41q-1 38 25.5 73
t67.5 55q-8 8 -28 17t-40 17l16 67h8zM113 232q0 -38 10.5 -66.5t29.5 -46.5q27 22 45.5 53t23.5 57q-4 19 -14.5 26.5t-29.5 7.5q-14 0 -34 -8t-31 -23zM257 216q-3 -15 -9 -33t-15 -36t-20 -34.5t-23 -28.5q9 -7 26 -13t38 -6q33 0 58.5 15t37.5 40q-15 19 -39.5 47.5
t-53.5 48.5z" />
    <glyph glyph-name="uniFEEC" unicode="&#x647;" horiz-adv-x="396" arabic-form="medial" 
d="M172 356q61 -35 85.5 -70.5t24.5 -80.5q0 -28 -12.5 -55.5t-35 -52t-54 -45t-69.5 -34.5q3 -21 13 -43.5t25 -42.5t34 -36t40 -24q8 97 55 148.5t118 51.5q11 0 20.5 -10t9.5 -29t-9.5 -29.5t-20.5 -10.5q-48 0 -76 -9t-45 -26q-8 -21 -8 -50q1 -29 13 -49.5t41 -31.5
l-58 -66q-92 40 -142.5 105t-60.5 137q-13 -3 -28.5 -6.5t-31.5 -3.5q-12 0 -19.5 10t-7.5 28q0 19 8 30t19 11q15 0 30 2t26 4q1 40 10.5 80t24.5 76.5t36 67.5t45 54zM252 175q-7 25 -32.5 53t-60.5 45q-10 -14 -19.5 -36.5t-16.5 -48t-11.5 -53t-4.5 -52.5q49 8 87 33.5
t58 58.5z" />
    <glyph glyph-name="uniFEEA" unicode="&#x647;" horiz-adv-x="399" arabic-form="final" 
d="M236 409q9 -19 16 -38.5t14 -45t14.5 -58t15.5 -77.5q7 -36 15 -59t19.5 -36t28 -18t40.5 -5q11 0 20.5 -10t9.5 -29t-9.5 -29.5t-20.5 -10.5q-63 0 -97 25t-50 88l-26 -26q-21 -22 -40 -29t-39 -7q-21 0 -41 8.5t-36 21.5t-25.5 29t-9.5 31q0 13 6.5 32.5t17.5 33.5
q11 15 50 41t108 55l-24 61zM229 246q-57 -20 -95 -38.5t-55 -34.5q11 -28 36 -45t64 -17q21 0 39 6t30 14q-4 29 -7.5 58t-11.5 57z" />
    <glyph glyph-name="uni0629" unicode="&#x629;" horiz-adv-x="338" arabic-form="isolated" 
d="M156 354q28 -12 54.5 -35.5t47 -52t33 -61t12.5 -62.5q0 -33 -11 -60.5t-30 -47.5t-45.5 -31t-57.5 -11q-57 0 -90.5 35t-33.5 90q0 46 26 95t77 87zM156 257q-38 -29 -54 -59t-16 -62t22.5 -48t51.5 -16q33 0 59 11.5t41 31.5q-11 42 -38 81t-66 61zM215 398
q-14 6 -30.5 18t-28.5 25l-34 -50q-16 7 -35.5 20.5t-31.5 30.5l46 61q10 -13 25 -27t29 -22l39 56q13 -15 33 -29.5t34 -21.5z" />
    <glyph glyph-name="uniFE94" unicode="&#x629;" horiz-adv-x="399" arabic-form="final" 
d="M236 409q9 -19 16 -38.5t14 -45t14.5 -58t15.5 -77.5q7 -36 15 -59t19.5 -36t28 -18t40.5 -5q11 0 20.5 -10t9.5 -29t-9.5 -29.5t-20.5 -10.5q-63 0 -97 25t-50 88l-26 -26q-21 -22 -40 -29t-39 -7q-21 0 -41 8.5t-36 21.5t-25.5 29t-9.5 31q0 13 6.5 32.5t17.5 33.5
q11 15 50 41t108 55l-24 61zM229 246q-57 -20 -95 -38.5t-55 -34.5q11 -28 36 -45t64 -17q21 0 39 6t30 14q-4 29 -7.5 58t-11.5 57zM274 463q-14 6 -30.5 18t-28.5 25l-34 -50q-16 7 -35.5 20.5t-31.5 30.5l46 61q10 -13 25 -27t29 -22l39 56q13 -15 33 -29.5t34 -21.5z
" />
    <glyph glyph-name="uniFDF2" unicode="&#xfdf2;" horiz-adv-x="831" arabic-form="isolated" 
d="M598 461q3 -46 8 -88t13 -88l5 -32q4 -23 6 -45.5t2 -45.5q0 -30 -5.5 -60.5t-18.5 -54.5t-33 -39t-49 -15q-40 0 -71 22.5t-44 72.5q-21 -53 -43 -74t-55 -21h-3q-35 1 -57 23t-27 67q-25 -32 -43 -45t-38 -13t-39.5 5.5t-35 16.5t-25.5 26t-10 35q0 24 13 46t36.5 42
t55 37.5t67.5 33.5l-11 38l50 58q9 -34 15 -76.5t10 -84.5q3 -36 7 -61t10 -40t16 -22t27 -7q22 0 40 15t29 42q-7 48 -14 106.5t-14 115.5l58 56q6 -103 14 -168.5t19.5 -102.5t27 -50.5t35.5 -13.5t36.5 5.5t25.5 18.5q-2 31 -8.5 65t-14.5 71.5t-16 79.5t-12 88zM214 224
q-20 -8 -41 -18t-40 -21t-34 -21t-23 -18q11 -26 34 -42.5t48 -16.5q23 0 38 6t28 19l-3.5 59.5t-6.5 52.5zM783 575q0 -59 2 -120.5t4 -121.5q3 -57 5 -108t2 -93q0 -40 -1.5 -58t-5.5 -32q-4 -12 -11 -28t-15 -30h-20q0 107 -4.5 184t-10.5 142q-5 62 -8.5 117t-3.5 121
l67 56v-29zM468 551q2 -6 3.5 -15t1.5 -20q0 -36 -16 -55.5t-35 -19.5q-14 0 -23 8t-13 22q-11 -37 -23.5 -50.5t-24.5 -13.5q-14 0 -23 15t-9 38q0 14 2.5 28t7.5 26l18 14q-1 -5 -1.5 -11t-0.5 -11q0 -23 5.5 -33t13.5 -10t16 8.5t14 20.5q0 15 1 27t3 16l16 13
q0 -32 6.5 -46t16.5 -14q13 0 18 10.5t5 34.5q0 6 -0.5 13.5t-1.5 14.5zM368 582q0 29 -2.5 52t-6.5 43q-6 29 -7 60l43 29q0 -20 1 -38t3 -36q1 -15 2 -34.5t1 -30.5t-8.5 -26t-17.5 -22z" />
    <glyph glyph-name="uniFC5E" unicode="&#xfc5e;" horiz-adv-x="0" arabic-form="isolated" 
d="M175 789q2 -6 3.5 -15t1.5 -20q0 -36 -16 -55.5t-35 -19.5q-14 0 -23 8t-13 22q-11 -37 -23.5 -50.5t-24.5 -13.5q-14 0 -23 15t-9 38q0 14 2.5 28t7.5 26l18 14q-1 -5 -1.5 -11t-0.5 -11q0 -23 5.5 -33t13.5 -10t16 8.5t14 20.5q0 15 1 27t3 16l16 13q0 -32 6.5 -46
t16.5 -14q13 0 18 10.5t5 34.5q0 6 -0.5 13.5t-1.5 14.5zM-37 883q11 14 23.5 21.5t30.5 7.5t29.5 -12t11.5 -31q0 -11 -2.5 -17.5t-7.5 -14.5q41 4 65 18q-26 12 -37 34t-11 50q0 24 11 36.5t27 12.5q31 0 49.5 -22t18.5 -48q0 -12 -2 -20.5t-4 -16.5q8 -1 12.5 -1h16.5
l-19 -38h-15t-13 2q-43 -41 -138 -50q24 33 24 54q0 10 -5 16.5t-15 6.5q-11 0 -20 -8t-19 -19zM141 884q4 5 5 11t1 12q0 14 -10.5 25.5t-25.5 11.5q-24 0 -24 -16q0 -11 14.5 -24t39.5 -20z" />
    <glyph glyph-name="uniFC5F" unicode="&#xfc5f;" horiz-adv-x="0" arabic-form="isolated" 
d="M175 967q2 -6 3.5 -15t1.5 -20q0 -36 -16 -55.5t-35 -19.5q-14 0 -23 8t-13 22q-11 -37 -23.5 -50.5t-24.5 -13.5q-14 0 -23 15t-9 38q0 14 2.5 28t7.5 26l18 14q-1 -5 -1.5 -11t-0.5 -11q0 -23 5.5 -33t13.5 -10t16 8.5t14 20.5q0 15 1 27t3 16l16 13q0 -32 6.5 -46
t16.5 -14q13 0 18 10.5t5 34.5q0 6 -0.5 13.5t-1.5 14.5zM0 650q1 11 4 21t6 16q37 22 84.5 44.5t103.5 41.5l-14 -40q-43 -15 -91 -37.5t-93 -45.5zM6 722q1 11 4 21t6 16q37 22 84.5 44.5t103.5 41.5l-14 -40q-43 -15 -91 -37.5t-93 -45.5z" />
    <glyph glyph-name="uniFC60" unicode="&#xfc60;" horiz-adv-x="0" arabic-form="isolated" 
d="M175 789q2 -6 3.5 -15t1.5 -20q0 -36 -16 -55.5t-35 -19.5q-14 0 -23 8t-13 22q-11 -37 -23.5 -50.5t-24.5 -13.5q-14 0 -23 15t-9 38q0 14 2.5 28t7.5 26l18 14q-1 -5 -1.5 -11t-0.5 -11q0 -23 5.5 -33t13.5 -10t16 8.5t14 20.5q0 15 1 27t3 16l16 13q0 -32 6.5 -46
t16.5 -14q13 0 18 10.5t5 34.5q0 6 -0.5 13.5t-1.5 14.5zM-5 766q1 11 4 21t6 16q37 22 84.5 44.5t103.5 41.5l-14 -40q-43 -15 -91 -37.5t-93 -45.5z" />
    <glyph glyph-name="uniFC61" unicode="&#xfc61;" horiz-adv-x="0" arabic-form="isolated" 
d="M175 789q2 -6 3.5 -15t1.5 -20q0 -36 -16 -55.5t-35 -19.5q-14 0 -23 8t-13 22q-11 -37 -23.5 -50.5t-24.5 -13.5q-14 0 -23 15t-9 38q0 14 2.5 28t7.5 26l18 14q-1 -5 -1.5 -11t-0.5 -11q0 -23 5.5 -33t13.5 -10t16 8.5t14 20.5q0 15 1 27t3 16l16 13q0 -32 6.5 -46
t16.5 -14q13 0 18 10.5t5 34.5q0 6 -0.5 13.5t-1.5 14.5zM-21 807q65 20 98 40q-36 33 -36 74q0 23 13 39t31 16q15 0 27 -6t21 -15t14 -20.5t5 -23.5q0 -13 -2.5 -24t-12.5 -25q8 -2 16.5 -2h19.5l-18 -36q-17 0 -25.5 1t-19.5 5q-19 -16 -43.5 -28.5t-45.5 -12.5
q-11 0 -20 6zM134 905q-7 12 -20 19.5t-25 7.5q-20 0 -20 -19q0 -14 12 -26.5t27 -17.5q18 15 26 36z" />
    <glyph glyph-name="uniFC62" unicode="&#xfc62;" horiz-adv-x="0" arabic-form="isolated" 
d="M175 927q2 -6 3.5 -15t1.5 -20q0 -36 -16 -55.5t-35 -19.5q-14 0 -23 8t-13 22q-11 -37 -23.5 -50.5t-24.5 -13.5q-14 0 -23 15t-9 38q0 14 2.5 28t7.5 26l18 14q-1 -5 -1.5 -11t-0.5 -11q0 -23 5.5 -33t13.5 -10t16 8.5t14 20.5q0 15 1 27t3 16l16 13q0 -32 6.5 -46
t16.5 -14q13 0 18 10.5t5 34.5q0 6 -0.5 13.5t-1.5 14.5zM6 685q1 11 4 21t6 16q37 22 84.5 44.5t103.5 41.5l-14 -40q-43 -15 -91 -37.5t-93 -45.5z" />
    <glyph glyph-name="uniFC63" unicode="&#xfc63;" horiz-adv-x="0" arabic-form="isolated" 
d="M175 789q2 -6 3.5 -15t1.5 -20q0 -36 -16 -55.5t-35 -19.5q-14 0 -23 8t-13 22q-11 -37 -23.5 -50.5t-24.5 -13.5q-14 0 -23 15t-9 38q0 14 2.5 28t7.5 26l18 14q-1 -5 -1.5 -11t-0.5 -11q0 -23 5.5 -33t13.5 -10t16 8.5t14 20.5q0 15 1 27t3 16l16 13q0 -32 6.5 -46
t16.5 -14q13 0 18 10.5t5 34.5q0 6 -0.5 13.5t-1.5 14.5zM76 819q0 29 -2.5 52t-6.5 43q-6 29 -7 60l43 29q0 -20 1 -38t3 -36q1 -15 2 -34.5t1 -30.5t-8.5 -26t-17.5 -22z" />
    <glyph glyph-name="uniFDFC" unicode="&#xfdfc;" horiz-adv-x="778" arabic-form="isolated" 
d="M556 537q-10 2 -17 2q-16 0 -26 -7t-15.5 -22.5t-7.5 -41.5t-2 -64q24 25 44 38.5t38 18.5q12 3 24 3q21 0 34.5 -13.5t13.5 -37.5q0 -14 -5.5 -33t-13.5 -35l-27 -4q7 17 7 28q0 7 -4.5 12.5t-18.5 5.5q-17 0 -38.5 -12.5t-48.5 -41.5q8 -82 22.5 -132.5t44.5 -61.5
q9 -4 24 -4q18 0 34 5.5t24 13.5q-2 23 -11 50t-20 42l42 66q8 -15 16 -37.5t12 -45.5q3 -15 3 -30q0 -28 -6.5 -53t-20 -43.5t-33 -29t-44.5 -10.5q-29 0 -50 8.5t-36 29t-25 55t-15 87.5q-2 9 -2 18t-1 17q-14 -18 -26.5 -34t-24.5 -30q2 -26 3.5 -47.5t1.5 -37.5
q0 -45 -10 -85t-34 -70t-63 -47.5t-96 -17.5q-62 0 -94 33.5t-32 95.5q0 18 4 35.5t10 32.5t13 25.5t13 14.5l11 8q-5 -13 -9.5 -34.5t-4.5 -41.5q0 -48 24.5 -71.5t71.5 -23.5t86 16.5t68 46.5q-1 29 -2 60.5t-4 63.5q-29 -27 -56 -39t-56 -12q-46 0 -73 29t-27 81
q0 22 4 42t9.5 36t11.5 26t10 13l20 12q-17 -40 -17 -84q0 -35 16 -54.5t48 -19.5q24 0 49 11t54 37q-7 66 -15.5 126t-15.5 105q-2 7 -5 16.5t-5 17.5l50 41q3 -14 9.5 -29.5t15.5 -30.5t18.5 -28.5t18.5 -21.5l-38 -23q1 -29 3.5 -62.5t5.5 -67.5l54 65q-1 14 -1 28.5
v29.5q0 40 6 76.5t19.5 64.5t35 44t52.5 16q9 0 16.5 -1t12.5 -3zM600 -94q-12 6 -27 17.5t-26 23.5l-34 -45q-14 6 -31.5 19.5t-28.5 29.5l45 55q8 -12 22 -25t27 -21l38 51q11 -15 29 -28.5t32 -21.5z" />
    <glyph glyph-name="uni067E" unicode="&#x67e;" horiz-adv-x="779" arabic-form="isolated" 
d="M697 358q9 -12 17.5 -31t15 -41.5t10.5 -46.5t4 -47q0 -34 -17.5 -68t-55.5 -60q-30 -20 -70.5 -35.5t-87 -26t-97.5 -15.5t-102 -5q-80 0 -133.5 10.5t-85.5 31.5t-46 53t-14 76q0 38 9 68.5t20 37.5l19 12q-2 -11 -4 -25.5t-2 -22.5q0 -42 13.5 -72t44.5 -49t80.5 -28
t121.5 -9q52 0 103 5t98 14.5t88 23t71 30.5q-6 37 -20.5 74t-31.5 60zM362 -294q-18 7 -36 20t-29 27l42 58q12 -15 30.5 -27t38.5 -19zM390 -188q-14 6 -30.5 18t-28.5 25l-34 -50q-16 7 -35.5 20.5t-31.5 30.5l46 61q10 -13 25 -27t29 -22l39 56q13 -15 33 -29.5
t34 -21.5z" />
    <glyph glyph-name="uniFB58" unicode="&#x67e;" horiz-adv-x="244" arabic-form="initial" 
d="M138 331q22 -32 34 -73.5t12 -82.5q0 -27 -9.5 -59t-30.5 -62q-20 -31 -59 -46t-85 -15q-11 0 -19 8.5t-8 30.5q0 18 7 29t20 11q44 0 77 8t60 24q-6 44 -20 81.5t-31 59.5zM141 -294q-18 7 -36 20t-29 27l42 58q12 -15 30.5 -27t38.5 -19zM169 -188q-14 6 -30.5 18
t-28.5 25l-34 -50q-16 7 -35.5 20.5t-31.5 30.5l46 61q10 -13 25 -27t29 -22l39 56q13 -15 33 -29.5t34 -21.5z" />
    <glyph glyph-name="uniFB59" unicode="&#x67e;" horiz-adv-x="305" arabic-form="medial" 
d="M147 218q17 -77 55.5 -111.5t102.5 -34.5q11 0 20.5 -10t9.5 -29t-9.5 -29.5t-20.5 -10.5q-63 0 -102.5 23.5t-62.5 73.5q-22 -46 -56.5 -71.5t-83.5 -25.5q-11 0 -19 10t-8 30q0 19 7.5 29t19.5 10q38 0 69 14.5t54 50.5l-6 44zM179 -294q-18 7 -36 20t-29 27l42 58
q12 -15 30.5 -27t38.5 -19zM207 -188q-14 6 -30.5 18t-28.5 25l-34 -50q-16 7 -35.5 20.5t-31.5 30.5l46 61q10 -13 25 -27t29 -22l39 56q13 -15 33 -29.5t34 -21.5z" />
    <glyph glyph-name="uniFB57" unicode="&#x67e;" horiz-adv-x="804" arabic-form="final" 
d="M85 271q-2 -11 -4 -25.5t-2 -22.5q0 -44 14.5 -74t46 -48.5t81.5 -27t122 -8.5q130 0 224.5 32t159.5 92l24 -4l-35 -51q14 -62 88 -62q11 0 20.5 -10t9.5 -29t-9.5 -29.5t-20.5 -10.5q-55 0 -85 25.5t-30 89.5q-64 -57 -163.5 -91.5t-227.5 -34.5q-75 0 -125 11
t-80.5 32.5t-43 53.5t-12.5 74q0 38 9 68.5t20 37.5zM362 -294q-18 7 -36 20t-29 27l42 58q12 -15 30.5 -27t38.5 -19zM390 -188q-14 6 -30.5 18t-28.5 25l-34 -50q-16 7 -35.5 20.5t-31.5 30.5l46 61q10 -13 25 -27t29 -22l39 56q13 -15 33 -29.5t34 -21.5z" />
    <glyph glyph-name="uni06CC" unicode="&#x6cc;" horiz-adv-x="636" arabic-form="isolated" 
d="M101 124q-8 -19 -12 -40t-4 -52q0 -37 10.5 -65.5t34.5 -48t63 -29.5t95 -10q195 0 241 102q-3 3 -8.5 5.5t-18 6.5t-34 8t-55.5 10q-56 9 -75.5 29t-19.5 47q0 34 16.5 72.5t44.5 71t65.5 54t79.5 21.5q24 0 43.5 -6.5t33.5 -16.5l-37 -74q-14 7 -31 12.5t-42 5.5
q-26 0 -49.5 -10t-41.5 -27t-30 -38.5t-16 -43.5q5 -4 11.5 -7t18.5 -6t30.5 -7t47.5 -8q62 -10 85 -22t23 -37q0 -41 -20 -81.5t-58.5 -72.5t-95 -51.5t-128.5 -19.5q-119 0 -174 52t-55 148q0 44 13.5 75t29.5 41l19 12v0z" />
    <glyph glyph-name="uniFBFE" unicode="&#x6cc;" horiz-adv-x="240" arabic-form="initial" 
d="M138 331q22 -32 34 -73.5t12 -82.5q0 -27 -9.5 -59t-30.5 -62q-20 -31 -59 -46t-85 -15q-11 0 -19 8.5t-8 30.5q0 18 7 29t20 11q44 0 77 8t60 24q-6 44 -20 81.5t-31 59.5zM173 -188q-14 6 -30.5 18t-28.5 25l-34 -50q-16 7 -35.5 20.5t-31.5 30.5l46 61q10 -13 25 -27
t29 -22l39 56q13 -15 33 -29.5t34 -21.5z" />
    <glyph glyph-name="uniFBFF" unicode="&#x6cc;" horiz-adv-x="305" arabic-form="medial" 
d="M147 218q17 -77 55.5 -111.5t102.5 -34.5q11 0 20.5 -10t9.5 -29t-9.5 -29.5t-20.5 -10.5q-63 0 -102.5 23.5t-62.5 73.5q-22 -46 -56.5 -71.5t-83.5 -25.5q-11 0 -19 10t-8 30q0 19 7.5 29t19.5 10q38 0 69 14.5t54 50.5l-6 44zM207 -188q-14 6 -30.5 18t-28.5 25
l-34 -50q-16 7 -35.5 20.5t-31.5 30.5l46 61q10 -13 25 -27t29 -22l39 56q13 -15 33 -29.5t34 -21.5z" />
    <glyph glyph-name="uniFBFD" unicode="&#x6cc;" horiz-adv-x="617" arabic-form="final" 
d="M108 97q-8 -20 -12 -41.5t-4 -50.5q0 -37 11 -66.5t35.5 -50t64 -31.5t95.5 -11q58 0 98 3t66.5 8t42 13t24.5 18q-2 5 -11 7.5t-21 2.5h-90q-41 0 -59 10.5t-18 33.5q0 24 18.5 51t48.5 45q16 10 34 16.5t42.5 10.5t59 5.5t84.5 1.5q11 0 20.5 -10t9.5 -29t-9.5 -29.5
t-20.5 -10.5h-12q-16 0 -39 1.5t-45 3.5q-18 2 -37.5 3t-27.5 1q-31 0 -51.5 -12.5t-30.5 -28.5q8 -4 18 -5.5t30 -1.5h75q77 0 77 -29q0 -21 -15 -48.5t-42 -52.5q-32 -26 -91.5 -43.5t-147.5 -17.5q-119 0 -175.5 55t-56.5 147q0 44 13.5 77t29.5 43l19 12v0z" />
    <glyph glyph-name="uni0686" unicode="&#x686;" horiz-adv-x="544" arabic-form="isolated" 
d="M44 272q-3 4 -4.5 9t-1.5 9q0 11 7.5 27t23.5 34q20 25 44 37t41 12q22 0 50.5 -9.5t76.5 -32.5q26 -12 48.5 -20t46 -12.5t52 -6.5t66.5 -2l-25 -70q-81 -2 -152.5 -23.5t-125.5 -58t-85.5 -86t-31.5 -107.5q0 -76 62.5 -119.5t177.5 -43.5q63 0 111.5 6.5t98.5 22.5
l-4 -21q-2 -9 -22.5 -24t-55.5 -30t-80.5 -26t-96.5 -11q-113 0 -179 52.5t-66 154.5q0 64 21.5 116.5t59 94.5t88 74.5t108.5 58.5q-37 21 -75 32t-76 15q-23 -7 -50.5 -21.5t-51.5 -30.5zM346 -106q-18 7 -36 20t-29 27l42 58q12 -15 30.5 -27t38.5 -19zM374 0
q-14 6 -30.5 18t-28.5 25l-34 -50q-16 7 -35.5 20.5t-31.5 30.5l46 61q10 -13 25 -27t29 -22l39 56q13 -15 33 -29.5t34 -21.5z" />
    <glyph glyph-name="uniFB7C" unicode="&#x686;" horiz-adv-x="505" arabic-form="initial" 
d="M0 -7q-11 0 -19 9t-8 30q0 18 7 29t20 11q94 0 180 22.5t151 64.5q-20 12 -44 23.5t-49 22t-48.5 19t-41.5 13.5q-25 -5 -53.5 -16t-53.5 -25q-5 8 -5 17q0 11 8 24.5t31 33.5q24 22 46 31.5t43 9.5q10 0 21 -2.5t26 -9.5t35.5 -18t49.5 -28q34 -20 57.5 -31.5t43.5 -18
t40.5 -8.5t47.5 -2l-26 -74q-29 0 -52.5 -2t-48.5 -8t-53.5 -17.5t-68.5 -31.5q-41 -21 -73.5 -34.5t-60 -21t-52.5 -10t-50 -2.5zM300 -294q-18 7 -36 20t-29 27l42 58q12 -15 30.5 -27t38.5 -19zM328 -188q-14 6 -30.5 18t-28.5 25l-34 -50q-16 7 -35.5 20.5t-31.5 30.5
l46 61q10 -13 25 -27t29 -22l39 56q13 -15 33 -29.5t34 -21.5z" />
    <glyph glyph-name="uniFB7D" unicode="&#x686;" horiz-adv-x="552" arabic-form="medial" 
d="M47 187q-3 4 -4.5 9t-1.5 10q0 11 7.5 26.5t23.5 34.5q20 24 44 36t41 12q21 0 49.5 -9.5t76.5 -32.5q27 -12 49 -20t46 -12.5t52 -7.5t70 -3l-25 -70q-42 0 -60.5 -2t-32.5 -8q-1 -2 -1 -5v-5q0 -21 12 -34t32 -20.5t56 -10.5t71 -3q11 0 20.5 -10t9.5 -29t-9.5 -29.5
t-20.5 -10.5q-108 0 -155.5 30.5t-47.5 81.5q0 16 5 36q-8 -4 -18 -9.5t-24 -14.5t-33 -22t-45 -31q-29 -20 -55.5 -33.5t-53 -21.5t-54.5 -12t-71 -4q-11 0 -19 10t-8 29q0 40 27 40q57 0 96.5 6t76.5 19t74 34.5t80 51.5q-43 23 -90 37.5t-88 18.5q-24 -7 -51.5 -21.5
t-50.5 -30.5zM300 -294q-18 7 -36 20t-29 27l42 58q12 -15 30.5 -27t38.5 -19zM328 -188q-14 6 -30.5 18t-28.5 25l-34 -50q-16 7 -35.5 20.5t-31.5 30.5l46 61q10 -13 25 -27t29 -22l39 56q13 -15 33 -29.5t34 -21.5z" />
    <glyph glyph-name="uniFB7B" unicode="&#x686;" horiz-adv-x="516" arabic-form="final" 
d="M45 192q-7 9 -7 18q0 24 31 61q21 25 45 37t41 12q21 0 49.5 -9.5t76.5 -32.5q27 -12 49 -20t46 -12.5t52 -6.5t66 -2l-25 -70q-28 0 -55.5 -3t-42.5 -6q-5 -50 32.5 -68t112.5 -18q11 0 20.5 -10t9.5 -29t-9.5 -29.5t-20.5 -10.5q-96 0 -136.5 32.5t-40.5 84.5
q0 11 2 23t5 20q-43 -11 -91 -33.5t-88 -55.5t-66.5 -76.5t-26.5 -95.5q0 -76 63 -119.5t177 -43.5q63 0 117.5 7.5t92.5 21.5l-4 -21q-2 -9 -22.5 -24t-55 -30t-80 -26t-96.5 -11q-57 0 -102.5 13t-77.5 39.5t-49 65t-17 89.5q0 64 21.5 116.5t59 94.5t88 74.5t108.5 58.5
q-36 21 -74 32t-76 15q-24 -7 -51.5 -21.5t-50.5 -30.5zM300 -217q-18 7 -36 20t-29 27l42 58q12 -15 30.5 -27t38.5 -19zM328 -111q-14 6 -30.5 18t-28.5 25l-34 -50q-16 7 -35.5 20.5t-31.5 30.5l46 61q10 -13 25 -27t29 -22l39 56q13 -15 33 -29.5t34 -21.5z" />
    <glyph glyph-name="uni0698" unicode="&#x698;" horiz-adv-x="355" arabic-form="isolated" 
d="M224 257q48 -54 69.5 -105t21.5 -105q0 -35 -12 -71.5t-34 -71t-53 -64.5t-69 -50l-128 16l-14 20q54 15 99.5 38t81 50.5t58.5 57t32 58.5q-8 32 -32 69t-62 72zM207 445q-6 2 -16 8.5t-19.5 15t-17 16.5t-10.5 13l48 59q9 -14 27.5 -31t33.5 -25zM270 342
q-14 6 -30.5 18t-28.5 25l-34 -50q-16 7 -35.5 20.5t-31.5 30.5l46 61q10 -13 25 -27t29 -22l39 56q13 -15 33 -29.5t34 -21.5z" />
    <glyph glyph-name="uniFB8B" unicode="&#x698;" horiz-adv-x="393" arabic-form="final" 
d="M270 161q20 -25 35.5 -42t30 -27.5t28 -15t29.5 -4.5q11 0 20.5 -10t9.5 -29t-9.5 -29.5t-20.5 -10.5q-20 0 -36.5 5t-32.5 16l-1 -1q7 -17 7 -42q0 -21 -8.5 -48t-26.5 -55t-45.5 -55t-65.5 -47l-128 16l-14 20q108 30 170.5 77.5t82.5 94.5q-2 23 -16 53t-45 65z
M254 348q-6 2 -16 8.5t-19.5 15t-17 16.5t-10.5 13l48 59q9 -14 27.5 -31t33.5 -25zM317 245q-14 6 -30.5 18t-28.5 25l-34 -50q-16 7 -35.5 20.5t-31.5 30.5l46 61q10 -13 25 -27t29 -22l39 56q13 -15 33 -29.5t34 -21.5z" />
    <glyph glyph-name="uni06A4" unicode="&#x6a4;" horiz-adv-x="779" arabic-form="isolated" 
d="M83 265l-4 -24t-2 -20q0 -42 13 -72t42.5 -48.5t76 -27t113.5 -8.5q50 0 103.5 5t104 14t95.5 22t80 30q-2 19 -4 35.5t-4 27.5q-14 -17 -36.5 -28.5t-44.5 -11.5q-23 0 -43 8.5t-35 24t-23.5 36.5t-8.5 46q0 23 8.5 47t23 43.5t33 32t39.5 12.5q25 0 49 -16.5t43 -46.5
t30.5 -71t11.5 -89q0 -45 -17.5 -74.5t-62.5 -56.5q-26 -16 -67.5 -29.5t-91 -23t-104 -15t-105.5 -5.5q-74 0 -123.5 10t-80.5 30.5t-44 52.5t-13 76q0 38 9.5 68.5t20.5 37.5zM540 275q11 -23 32.5 -34t49.5 -11q18 0 37 5t27 11q-7 42 -31.5 65t-49.5 23q-23 0 -40 -16.5
t-25 -42.5zM583 592q-6 2 -16 8.5t-19.5 15t-17 16.5t-10.5 13l48 59q9 -14 27.5 -31t33.5 -25zM646 489q-14 6 -30.5 18t-28.5 25l-34 -50q-16 7 -35.5 20.5t-31.5 30.5l46 61q10 -13 25 -27t29 -22l39 56q13 -15 33 -29.5t34 -21.5z" />
    <glyph glyph-name="uniFB6C" unicode="&#x6a4;" horiz-adv-x="306" arabic-form="initial" 
d="M231 124q-2 18 -3.5 34.5t-3.5 27.5q-14 -17 -37 -28.5t-45 -11.5q-23 0 -43 8.5t-34.5 24t-23 36.5t-8.5 46q0 23 8.5 47t23 43.5t33 32t39.5 12.5q24 0 48 -17t43 -47t31 -71t12 -89q0 -45 -9 -71.5t-29 -43.5q-38 -32 -96.5 -48t-136.5 -16q-11 0 -19 10.5t-8 29.5
t8 29t19 10q77 0 136.5 13t94.5 39zM67 262q11 -23 32.5 -34t49.5 -11q18 0 37 5t27 11q-7 42 -31.5 65t-49.5 23q-23 0 -40 -16.5t-25 -42.5zM115 574q-6 2 -16 8.5t-19.5 15t-17 16.5t-10.5 13l48 59q9 -14 27.5 -31t33.5 -25zM178 471q-14 6 -30.5 18t-28.5 25l-34 -50
q-16 7 -35.5 20.5t-31.5 30.5l46 61q10 -13 25 -27t29 -22l39 56q13 -15 33 -29.5t34 -21.5z" />
    <glyph glyph-name="uniFB6D" unicode="&#x6a4;" horiz-adv-x="356" arabic-form="medial" 
d="M107 85q-17 19 -27.5 46.5t-10.5 51.5q0 18 3.5 33.5t12.5 34.5q18 38 46.5 62t59.5 24q17 0 35.5 -11t33.5 -30t24.5 -44.5t9.5 -55.5q0 -26 -17 -56.5t-40 -52.5q20 -5 48.5 -10t70.5 -5q11 0 20.5 -10t9.5 -29t-9.5 -29.5t-20.5 -10.5q-108 0 -188 40q-35 -18 -76 -29
t-92 -11q-13 0 -20 10.5t-7 28.5q0 16 7.5 28t19.5 12q35 0 62.5 4t44.5 9zM174 109q13 7 26 16t24.5 19.5t20.5 21t14 19.5q-4 15 -12.5 29.5t-20 26t-24 18.5t-24.5 7q-7 0 -17.5 -6t-21.5 -15.5t-21 -21.5t-15 -25q3 -30 24 -54t47 -35zM167 502q-6 2 -16 8.5t-19.5 15
t-17 16.5t-10.5 13l48 59q9 -14 27.5 -31t33.5 -25zM230 399q-14 6 -30.5 18t-28.5 25l-34 -50q-16 7 -35.5 20.5t-31.5 30.5l46 61q10 -13 25 -27t29 -22l39 56q13 -15 33 -29.5t34 -21.5z" />
    <glyph glyph-name="uniFB6B" unicode="&#x6a4;" horiz-adv-x="846" arabic-form="final" 
d="M79 256q-2 -5 -2.5 -11.5t-1.5 -13.5t-1.5 -13t-0.5 -10q0 -45 13.5 -74.5t44 -47.5t78.5 -25.5t117 -7.5q82 0 153.5 9.5t115.5 25.5q-16 19 -25.5 45t-9.5 50q0 30 11.5 58t29.5 49t39.5 34t41.5 13q17 0 35 -11t32.5 -30t23.5 -44.5t9 -55.5q0 -26 -15.5 -56.5
t-38.5 -52.5q20 -5 45 -10t67 -5q11 0 20.5 -10t9.5 -29t-9.5 -29.5t-20.5 -10.5q-54 0 -103.5 13t-88.5 33q-129 -69 -345 -69q-75 0 -127 9t-84 29t-46.5 52t-14.5 79q0 38 9 68.5t20 37.5zM665 109q26 14 49.5 36t32.5 40q-4 15 -12 29.5t-18.5 26t-23 18.5t-24.5 7
q-7 0 -17.5 -6t-21.5 -15.5t-21 -21.5t-15 -25q3 -30 24 -54t47 -35zM662 501q-6 2 -16 8.5t-19.5 15t-17 16.5t-10.5 13l48 59q9 -14 27.5 -31t33.5 -25zM725 398q-14 6 -30.5 18t-28.5 25l-34 -50q-16 7 -35.5 20.5t-31.5 30.5l46 61q10 -13 25 -27t29 -22l39 56
q13 -15 33 -29.5t34 -21.5z" />
    <glyph glyph-name="uni06A9" unicode="&#x6a9;" horiz-adv-x="798" arabic-form="isolated" 
d="M95 267q-4 -11 -5.5 -25t-1.5 -26q0 -39 9 -67t31.5 -47t59.5 -28t93 -9q118 0 190 12.5t102 29.5q-2 13 -15.5 42t-37.5 66t-58.5 80t-76.5 85q0 37 19.5 65t64.5 40l301 82l-40 -74l-288 -80q95 -96 134.5 -167t39.5 -111q0 -12 -4 -25t-10.5 -26t-15 -23.5
t-18.5 -17.5q-18 -12 -49 -23.5t-70.5 -19.5t-85.5 -13t-94 -5q-62 0 -105 11t-69 32.5t-37.5 53t-11.5 72.5q0 19 2.5 36.5t7 32t9.5 24.5t11 13l19 10v0z" />
    <glyph glyph-name="uniFB90" unicode="&#x6a9;" horiz-adv-x="434" arabic-form="initial" 
d="M366 493l-288 -80q95 -96 134.5 -167t39.5 -111q0 -12 -4 -25t-10.5 -26t-15 -23.5t-18.5 -17.5q-18 -12 -42.5 -21.5t-51.5 -16t-55.5 -9.5t-54.5 -3q-12 0 -19.5 10t-7.5 30t7.5 29.5t19.5 9.5q86 0 134 9.5t75 25.5q-2 13 -15.5 42t-37.5 66t-58.5 80t-76.5 85
q0 37 19.5 65t64.5 40l301 82z" />
    <glyph glyph-name="uniFB91" unicode="&#x6a9;" horiz-adv-x="411" arabic-form="medial" 
d="M366 494l-288 -81l154 -212q29 -39 51.5 -64.5t42 -39.5t37.5 -19.5t42 -5.5h9q11 0 20.5 -10t9.5 -29t-9.5 -29.5t-20.5 -10.5h-15q-52 0 -92 27.5t-82 95.5q-35 -123 -225 -123q-13 0 -20 10.5t-7 27.5q0 18 7.5 29.5t19.5 11.5q81 0 125.5 12.5t58.5 32.5
q-2 16 -11 37t-27.5 51.5t-49 73t-75.5 101.5q0 37 19.5 65t64.5 40l301 82z" />
    <glyph glyph-name="uniFB8F" unicode="&#x6a9;" horiz-adv-x="770" arabic-form="final" 
d="M95 267q-4 -11 -5.5 -25t-1.5 -26q0 -39 9 -67t31.5 -47t59.5 -28t93 -9q63 0 108.5 3.5t76 10.5t49 16.5t28.5 21.5q-2 16 -11 37t-27.5 51.5t-49 73t-75.5 101.5q0 37 19.5 65t64.5 40l301 82l-40 -73l-288 -81l154 -212q25 -35 46 -59.5t40 -40t37 -22.5t39 -7h17
q11 0 20.5 -10t9.5 -29t-9.5 -29.5t-20.5 -10.5h-19q-19 0 -39 5.5t-41 19.5t-43 37.5t-44 60.5q-18 -64 -76 -94q-31 -17 -94 -28.5t-145 -11.5q-62 0 -105 11t-69 32.5t-37.5 53t-11.5 72.5q0 19 2.5 36.5t7 32t9.5 24.5t11 13l19 10v0z" />
    <glyph glyph-name="uni06AF" unicode="&#x6af;" horiz-adv-x="798" arabic-form="isolated" 
d="M95 267q-4 -11 -5.5 -25t-1.5 -26q0 -39 9 -67t31.5 -47t59.5 -28t93 -9q118 0 190 12.5t102 29.5q-2 13 -15.5 42t-37.5 66t-58.5 80t-76.5 85q0 37 19.5 65t64.5 40l301 82l-40 -74l-288 -80q95 -96 134.5 -167t39.5 -111q0 -12 -4 -25t-10.5 -26t-15 -23.5
t-18.5 -17.5q-18 -12 -49 -23.5t-70.5 -19.5t-85.5 -13t-94 -5q-62 0 -105 11t-69 32.5t-37.5 53t-11.5 72.5q0 19 2.5 36.5t7 32t9.5 24.5t11 13l19 10v0zM455 586l337 96h6l-25 -52l-335 -94h-5z" />
    <glyph glyph-name="uniFB94" unicode="&#x6af;" horiz-adv-x="438" arabic-form="initial" 
d="M366 493l-288 -80q95 -96 134.5 -167t39.5 -111q0 -12 -4 -25t-10.5 -26t-15 -23.5t-18.5 -17.5q-18 -12 -42.5 -21.5t-51.5 -16t-55.5 -9.5t-54.5 -3q-12 0 -19.5 10t-7.5 30t7.5 29.5t19.5 9.5q86 0 134 9.5t75 25.5q-2 13 -15.5 42t-37.5 66t-58.5 80t-76.5 85
q0 37 19.5 65t64.5 40l301 82zM95 595l337 96h6l-25 -52l-335 -94h-5z" />
    <glyph glyph-name="uniFB95" unicode="&#x6af;" horiz-adv-x="411" arabic-form="medial" 
d="M366 494l-288 -81l154 -212q29 -39 51.5 -64.5t42 -39.5t37.5 -19.5t42 -5.5h9q11 0 20.5 -10t9.5 -29t-9.5 -29.5t-20.5 -10.5h-15q-52 0 -92 27.5t-82 95.5q-35 -123 -225 -123q-13 0 -20 10.5t-7 27.5q0 18 7.5 29.5t19.5 11.5q81 0 125.5 12.5t58.5 32.5
q-2 16 -11 37t-27.5 51.5t-49 73t-75.5 101.5q0 37 19.5 65t64.5 40l301 82zM95 586l337 96h6l-25 -52l-335 -94h-5z" />
    <glyph glyph-name="uniFB93" unicode="&#x6af;" horiz-adv-x="770" arabic-form="final" 
d="M95 267q-4 -11 -5.5 -25t-1.5 -26q0 -39 9 -67t31.5 -47t59.5 -28t93 -9q63 0 108.5 3.5t76 10.5t49 16.5t28.5 21.5q-2 16 -11 37t-27.5 51.5t-49 73t-75.5 101.5q0 37 19.5 65t64.5 40l301 82l-40 -73l-288 -81l154 -212q25 -35 46 -59.5t40 -40t37 -22.5t39 -7h17
q11 0 20.5 -10t9.5 -29t-9.5 -29.5t-20.5 -10.5h-19q-19 0 -39 5.5t-41 19.5t-43 37.5t-44 60.5q-18 -64 -76 -94q-31 -17 -94 -28.5t-145 -11.5q-62 0 -105 11t-69 32.5t-37.5 53t-11.5 72.5q0 19 2.5 36.5t7 32t9.5 24.5t11 13l19 10v0zM455 586l337 96h6l-25 -52
l-335 -94h-5z" />
    <glyph glyph-name="uniFBA5" unicode="&#x6c0;" horiz-adv-x="399" arabic-form="final" 
d="M236 409q9 -19 16 -38.5t14 -45t14.5 -58t15.5 -77.5q7 -36 15 -59t19.5 -36t28 -18t40.5 -5q11 0 20.5 -10t9.5 -29t-9.5 -29.5t-20.5 -10.5q-63 0 -97 25t-50 88l-26 -26q-21 -22 -40 -29t-39 -7q-21 0 -41 8.5t-36 21.5t-25.5 29t-9.5 31q0 13 6.5 32.5t17.5 33.5
q11 15 50 41t108 55l-24 61zM229 246q-57 -20 -95 -38.5t-55 -34.5q11 -28 36 -45t64 -17q21 0 39 6t30 14q-4 29 -7.5 58t-11.5 57zM241 550q-15 9 -31 9q-14 0 -29 -8.5t-21 -23.5q9 -11 26 -17t34 -6q18 0 37 7t40 19l-13 -50q-17 -5 -36 -12t-38 -15.5t-37 -18.5
t-33 -20q-2 8 -2 12q0 18 14 30t28 16q-44 11 -44 42q0 38 23.5 62.5t57.5 24.5q27 0 47 -15z" />
    <glyph glyph-name=".notdef" horiz-adv-x="355" 
d="M0 0v498h355v-498h-355zM57 462l121 -181l121 181h-242zM320 430l-121 -181l121 -182v363zM299 36l-121 181l-121 -181h242zM36 67l120 182l-120 181v-363z" />
    <glyph glyph-name=".null" horiz-adv-x="0" 
 />
    <glyph glyph-name=".null" horiz-adv-x="0" 
 />
    <glyph glyph-name="nonmarkingreturn" unicode="&#xd;" horiz-adv-x="202" 
 />
    <glyph glyph-name="space" unicode=" " horiz-adv-x="190" 
 />
    <glyph glyph-name="uni0647" unicode="&#x647;" horiz-adv-x="338" 
d="M156 354q28 -12 54.5 -35.5t47 -52t33 -61t12.5 -62.5q0 -33 -11 -60.5t-30 -47.5t-45.5 -31t-57.5 -11q-57 0 -90.5 35t-33.5 90q0 46 26 95t77 87zM156 257q-38 -29 -54 -59t-16 -62t22.5 -48t51.5 -16q33 0 59 11.5t41 31.5q-11 42 -38 81t-66 61z" />
    <glyph glyph-name="uni0640" unicode="&#x640;" horiz-adv-x="109" 
d="M0 -7q-11 0 -20.5 10.5t-9.5 29.5t9.5 29t20.5 10h109q11 0 20.5 -10t9.5 -29t-9.5 -29.5t-20.5 -10.5h-109z" />
    <glyph glyph-name="uni0640.narrow" horiz-adv-x="69" 
d="M0 -7q-11 0 -20.5 10.5t-9.5 29.5t9.5 29t20.5 10h69q11 0 20.5 -10t9.5 -29t-9.5 -29.5t-20.5 -10.5h-69z" />
    <glyph glyph-name="uni0640.wide" horiz-adv-x="159" 
d="M0 -7q-11 0 -20.5 10.5t-9.5 29.5t9.5 29t20.5 10h159q11 0 20.5 -10t9.5 -29t-9.5 -29.5t-20.5 -10.5h-159z" />
    <glyph glyph-name="uni060C" unicode="&#x60c;" horiz-adv-x="229" 
d="M136 -26q-38 14 -59 39.5t-21 62.5q0 38 25.5 77t71.5 65l18 -17q-48 -52 -57 -104q10 -15 27.5 -26t39.5 -17z" />
    <glyph glyph-name="uni061B" unicode="&#x61b;" horiz-adv-x="229" 
d="M60 49q0 55 55 55q26 0 40 -14.5t14 -40.5t-13.5 -40t-40.5 -14q-55 0 -55 54zM133 242q-38 14 -59 39.5t-21 62.5q0 38 25.5 77t71.5 65l18 -17q-48 -52 -57 -104q10 -15 27.5 -26t39.5 -17z" />
    <glyph glyph-name="uni061F" unicode="&#x61f;" horiz-adv-x="350" 
d="M152 145q18 20 26 33.5t8 25.5q0 17 -19 44t-64 71q-42 40 -55 68t-13 57q0 25 10 48.5t29 41.5t47.5 29t65.5 11q45 0 78.5 -15.5t59.5 -43.5l-55 -56q-51 57 -110 57q-35 0 -54 -10q-4 -8 -6 -16.5t-2 -22.5q0 -12 2 -21.5t8.5 -20.5t19 -25t32.5 -35q25 -27 41 -46
t25 -34t12.5 -27t3.5 -25q0 -16 -6.5 -31.5t-16 -28t-20.5 -20.5t-20 -8h-27zM125 34q0 48 48 48q23 0 35 -12.5t12 -35.5q0 -48 -47 -48q-48 0 -48 48z" />
    <glyph glyph-name="uni066A" unicode="&#x66a;" horiz-adv-x="488" 
d="M55 -12q42 93 88 180t90.5 161t83.5 132t68 95l72 17q-35 -44 -76 -105t-84.5 -134.5t-87.5 -156.5t-84 -170zM289 52q0 46 45 46q44 0 44 -46q0 -21 -10.5 -33t-33.5 -12q-24 0 -34.5 11.5t-10.5 33.5zM113 503q0 45 46 45q44 0 44 -45q0 -21 -11 -33t-33 -12
q-46 0 -46 45z" />
    <glyph glyph-name="uni066D" unicode="&#x66d;" horiz-adv-x="552" 
d="M419 14l-147 122l-144 -121l72 176l-161 99l192 -12l43 182l47 -185l188 15l-162 -103z" />
    <glyph glyph-name="uniFD3E" unicode="&#xfd3e;" horiz-adv-x="370" 
d="M103 229q-8 -7 -15 -20q-5 12 -5 26q0 16 5 27q2 -9 5 -17.5t10 -15.5zM259 325q-6 15 -19.5 31.5t-43.5 41.5q-31 26 -43.5 47.5t-12.5 47.5q0 27 12.5 54t36.5 51t60 42.5t84 26.5l11 -6l-60 -64q-51 -14 -77.5 -43.5t-26.5 -60.5q0 -25 8 -41.5t31 -40.5
q16 -17 28.5 -36t12.5 -42q0 -5 -1 -8zM126 560q-15 -8 -24 -23.5t-9 -34.5q0 -14 3.5 -26.5t12.5 -25t24.5 -26.5t40.5 -32q17 -13 33.5 -26.5t29.5 -29.5t21 -36t8 -45q0 -40 -27.5 -68t-67.5 -28t-61 24q3 2 6 6q4 6 12 12q16 -13 42 -13q30 0 46.5 18t16.5 52
q0 38 -23 69.5t-72 62.5q-52 32 -72.5 56.5t-20.5 48.5q0 23 18 44.5t49 29.5zM197 326q-9 5 -15.5 7t-17.5 2q-31 0 -31 -21q0 -12 13 -22l-6 -9q-43 16 -43 40q0 14 12 22t33 8q14 0 26 -4t29 -23zM220 240q-2 -16 -12 -29q-15 12 -38 12q-33 0 -55 -21t-27 -53
q-3 12 -3 22q0 32 26 56t64 24q12 0 23.5 -2.5t21.5 -8.5zM259 193q7 -19 7 -37q0 -26 -8 -45.5t-21 -36t-29.5 -29.5t-33.5 -25q-25 -18 -40.5 -32.5t-24.5 -27t-12.5 -25t-3.5 -26.5q0 -19 9 -34t24 -23l-14 -10q-31 9 -49 30t-18 44t20.5 48.5t72.5 57.5q49 30 72 61.5
t23 69.5q0 10 -1 14q5 3 13 10.5t14 15.5zM197 85q-17 -19 -29 -23t-25 -4q-46 0 -46 31q0 23 43 39l6 -8q-13 -10 -13 -23q0 -20 31 -20q11 0 17.5 1.5t15.5 6.5zM259 87q0 -2 0.5 -4.5t0.5 -4.5q-1 -20 -10.5 -37.5t-30.5 -40.5q-23 -23 -31 -40t-8 -42q0 -31 26.5 -60.5
t77.5 -43.5l60 -63l-11 -6q-48 8 -84 26t-60 42t-36.5 51t-12.5 54t12.5 48t43.5 47q30 25 43.5 41.5t19.5 32.5z" />
    <glyph glyph-name="uniFD3F" unicode="&#xfd3f;" horiz-adv-x="370" 
d="M267 183q8 8 14 20q5 -13 5 -26q0 -7 -1 -13.5t-4 -14.5q-2 10 -5 18.5t-9 15.5zM110 87q6 -15 19.5 -31.5t43.5 -41.5q31 -26 43.5 -47.5t12.5 -48.5q0 -26 -12.5 -53.5t-36.5 -51t-60 -42t-84 -26.5l-11 6l60 64q51 14 77.5 43t26.5 60q0 25 -8.5 42t-30.5 40
q-16 17 -28.5 36t-12.5 42q0 6 1 9zM243 -148q15 8 24 23t9 35q0 14 -3.5 26.5t-12.5 25t-24.5 26.5t-40.5 32q-17 12 -33.5 25.5t-29.5 29.5t-21 35.5t-8 45.5q0 20 7.5 37.5t20.5 30.5t30 20.5t37 7.5q41 0 61 -23q-3 -3 -6 -7q-2 -3 -5.5 -6t-6.5 -5q-16 13 -42 13
q-30 0 -46.5 -18t-16.5 -53q0 -38 23 -69.5t72 -61.5q52 -32 72.5 -56.5t20.5 -48.5q0 -23 -18 -44.5t-49 -30.5zM172 85q9 -5 16 -6.5t18 -1.5q30 0 30 20q0 13 -13 23l6 8q43 -15 43 -39q0 -14 -12 -22t-33 -8q-14 0 -26 4t-29 22zM149 172q2 16 12 29q14 -13 38 -13
q33 0 55 21.5t27 53.5q3 -12 3 -23q0 -15 -7 -29.5t-19 -26t-28.5 -18t-35.5 -6.5q-26 0 -45 12zM110 219q-3 8 -5 17t-2 20q0 25 8 45t21 36t29.5 29.5t33.5 25.5q25 18 40.5 32t24.5 27t12.5 25t3.5 26q0 20 -9 35t-24 23l14 9q31 -8 49 -29t18 -44t-20.5 -48.5
t-72.5 -57.5q-49 -30 -72 -61.5t-23 -70.5q0 -9 1 -14q-5 -3 -13 -10t-14 -15zM172 327q17 19 29 23t26 4q21 0 33 -8.5t12 -22.5q0 -11 -10.5 -21t-32.5 -18l-6 8q13 10 13 23q0 20 -30 20q-11 0 -18 -1.5t-16 -6.5zM110 325q0 2 -0.5 4t-0.5 4q1 20 10.5 37.5t30.5 40.5
q23 24 31 40.5t8 41.5q0 31 -26.5 61t-77.5 43l-60 64l11 6q48 -8 84 -26.5t60 -42.5t36.5 -51t12.5 -54q0 -26 -12.5 -47.5t-43.5 -47.5q-30 -25 -43.5 -41.5t-19.5 -31.5z" />
    <glyph glyph-name="uniFDF2.liga" horiz-adv-x="667" 
d="M598 461q3 -46 8 -88t13 -88l5 -32q4 -23 6 -45.5t2 -45.5q0 -30 -5.5 -60.5t-18.5 -54.5t-33 -39t-49 -15q-40 0 -71 22.5t-44 72.5q-21 -53 -43 -74t-55 -21h-3q-35 1 -57 23t-27 67q-25 -32 -43 -45t-38 -13t-39.5 5.5t-35 16.5t-25.5 26t-10 35q0 24 13 46t36.5 42
t55 37.5t67.5 33.5l-11 38l50 58q9 -34 15 -76.5t10 -84.5q3 -36 7 -61t10 -40t16 -22t27 -7q22 0 40 15t29 42q-7 48 -14 106.5t-14 115.5l58 56q6 -103 14 -168.5t19.5 -102.5t27 -50.5t35.5 -13.5t36.5 5.5t25.5 18.5q-2 31 -8.5 65t-14.5 71.5t-16 79.5t-12 88zM214 224
q-20 -8 -41 -18t-40 -21t-34 -21t-23 -18q11 -26 34 -42.5t48 -16.5q23 0 38 6t28 19l-3.5 59.5t-6.5 52.5zM468 551q2 -6 3.5 -15t1.5 -20q0 -36 -16 -55.5t-35 -19.5q-14 0 -23 8t-13 22q-11 -37 -23.5 -50.5t-24.5 -13.5q-14 0 -23 15t-9 38q0 14 2.5 28t7.5 26l18 14
q-1 -5 -1.5 -11t-0.5 -11q0 -23 5.5 -33t13.5 -10t16 8.5t14 20.5q0 15 1 27t3 16l16 13q0 -32 6.5 -46t16.5 -14q13 0 18 10.5t5 34.5q0 6 -0.5 13.5t-1.5 14.5zM368 582q0 29 -2.5 52t-6.5 43q-6 29 -7 60l43 29q0 -20 1 -38t3 -36q1 -15 2 -34.5t1 -30.5t-8.5 -26
t-17.5 -22z" />
    <glyph glyph-name="uni064406440647" horiz-adv-x="667" 
d="M598 461q3 -46 8 -88t13 -88l5 -32q4 -23 6 -45.5t2 -45.5q0 -30 -5.5 -60.5t-18.5 -54.5t-33 -39t-49 -15q-40 0 -71 22.5t-44 72.5q-21 -53 -43 -74t-55 -21h-3q-35 1 -57 23t-27 67q-25 -32 -43 -45t-38 -13t-39.5 5.5t-35 16.5t-25.5 26t-10 35q0 24 13 46t36.5 42
t55 37.5t67.5 33.5l-11 38l50 58q9 -34 15 -76.5t10 -84.5q3 -36 7 -61t10 -40t16 -22t27 -7q22 0 40 15t29 42q-7 48 -14 106.5t-14 115.5l58 56q6 -103 14 -168.5t19.5 -102.5t27 -50.5t35.5 -13.5t36.5 5.5t25.5 18.5q-2 31 -8.5 65t-14.5 71.5t-16 79.5t-12 88zM214 224
q-20 -8 -41 -18t-40 -21t-34 -21t-23 -18q11 -26 34 -42.5t48 -16.5q23 0 38 6t28 19l-3.5 59.5t-6.5 52.5z" />
    <glyph glyph-name="uni064B" unicode="&#x64b;" horiz-adv-x="0" 
d="M0 616q1 11 4 21t6 16q37 22 84.5 44.5t103.5 41.5l-14 -40q-43 -15 -91 -37.5t-93 -45.5zM6 688q1 11 4 21t6 16q37 22 84.5 44.5t103.5 41.5l-14 -40q-43 -15 -91 -37.5t-93 -45.5z" />
    <glyph glyph-name="uni064C" unicode="&#x64c;" horiz-adv-x="0" 
d="M-33 728q11 14 23.5 21.5t30.5 7.5t29.5 -12t11.5 -31q0 -11 -2.5 -17.5t-7.5 -14.5q41 4 65 18q-26 12 -37 34t-11 50q0 24 11 36.5t27 12.5q31 0 49.5 -22t18.5 -48q0 -12 -2 -20.5t-4 -16.5q8 -1 12.5 -1h16.5l-19 -38h-15t-13 2q-43 -41 -138 -50q24 33 24 54
q0 10 -5 16.5t-15 6.5q-11 0 -20 -8t-19 -19zM145 729q4 5 5 11t1 12q0 14 -10.5 25.5t-25.5 11.5q-24 0 -24 -16q0 -11 14.5 -24t39.5 -20z" />
    <glyph glyph-name="uni064D" unicode="&#x64d;" horiz-adv-x="0" 
d="M0 -518q1 11 4 21t6 16q37 22 84.5 44.5t103.5 41.5l-14 -40q-43 -15 -91 -37.5t-93 -45.5zM6 -446q1 11 4 21t6 16q37 22 84.5 44.5t103.5 41.5l-14 -40q-43 -15 -91 -37.5t-93 -45.5z" />
    <glyph glyph-name="uni064E" unicode="&#x64e;" horiz-adv-x="0" 
d="M0 616q1 11 4 21t6 16q37 22 84.5 44.5t103.5 41.5l-14 -40q-43 -15 -91 -37.5t-93 -45.5z" />
    <glyph glyph-name="uni064F" unicode="&#x64f;" horiz-adv-x="0" 
d="M0 653q65 20 98 40q-36 33 -36 74q0 23 13 39t31 16q15 0 27 -6t21 -15t14 -20.5t5 -23.5q0 -13 -2.5 -24t-12.5 -25q8 -2 16.5 -2h19.5l-18 -36q-17 0 -25.5 1t-19.5 5q-19 -16 -43.5 -28.5t-45.5 -12.5q-11 0 -20 6zM155 751q-7 12 -20 19.5t-25 7.5q-20 0 -20 -19
q0 -14 12 -26.5t27 -17.5q18 15 26 36z" />
    <glyph glyph-name="uni0650" unicode="&#x650;" horiz-adv-x="0" 
d="M6 -446q1 11 4 21t6 16q37 22 84.5 44.5t103.5 41.5l-14 -40q-43 -15 -91 -37.5t-93 -45.5z" />
    <glyph glyph-name="uni0651" unicode="&#x651;" horiz-adv-x="0" 
d="M175 789q2 -6 3.5 -15t1.5 -20q0 -36 -16 -55.5t-35 -19.5q-14 0 -23 8t-13 22q-11 -37 -23.5 -50.5t-24.5 -13.5q-14 0 -23 15t-9 38q0 14 2.5 28t7.5 26l18 14q-1 -5 -1.5 -11t-0.5 -11q0 -23 5.5 -33t13.5 -10t16 8.5t14 20.5q0 15 1 27t3 16l16 13q0 -32 6.5 -46
t16.5 -14q13 0 18 10.5t5 34.5q0 6 -0.5 13.5t-1.5 14.5z" />
    <glyph glyph-name="uni0652" unicode="&#x652;" horiz-adv-x="0" 
d="M101 808q25 0 42 -22.5t17 -54.5q0 -35 -18 -59t-45 -24t-42.5 18t-15.5 51q0 40 19 65.5t43 25.5zM137 718q-6 23 -18 35.5t-26 12.5t-22.5 -12t-8.5 -29q0 -16 9.5 -24t24.5 -8q12 0 24 7t17 18z" />
    <glyph glyph-name="uni0653" unicode="&#x653;" horiz-adv-x="0" 
d="M218 791q12 -7 12 -23q0 -23 -28.5 -39t-78.5 -22q-58 -8 -88 -23.5t-40 -35.5q-10 4 -17 14t-7 21q0 26 28 41t91 22q61 7 88 16.5t40 28.5z" />
    <glyph glyph-name="uni0654" unicode="&#x654;" horiz-adv-x="0" 
d="M128 755q-15 9 -31 9q-14 0 -29 -8.5t-21 -23.5q9 -11 26 -17t34 -6q18 0 37 7t40 19l-13 -50q-17 -5 -36 -12t-38 -15.5t-37 -18.5t-33 -20q-2 8 -2 12q0 18 14 30t28 16q-44 11 -44 42q0 38 23.5 62.5t57.5 24.5q27 0 47 -15z" />
    <glyph glyph-name="uni0655" unicode="&#x655;" horiz-adv-x="0" 
d="M128 -374q-15 9 -31 9q-14 0 -29 -8.5t-21 -23.5q9 -11 26 -17t34 -6q18 0 37 7t40 19l-13 -50q-17 -5 -36 -12t-38 -15.5t-37 -18.5t-33 -20q-2 8 -2 12q0 18 14 30t28 16q-44 11 -44 42q0 38 23.5 62.5t57.5 24.5q27 0 47 -15z" />
    <glyph glyph-name="uni0670" unicode="&#x670;" horiz-adv-x="0" 
d="M86 629q0 29 -2.5 52t-6.5 43q-6 29 -7 60l43 29q0 -20 1 -38t3 -36q1 -15 2 -34.5t1 -30.5t-8.5 -26t-17.5 -22z" />
    <glyph glyph-name="uni0656" unicode="&#x656;" horiz-adv-x="0" 
d="M89 -513q0 29 -2.5 52t-6.5 43q-6 29 -7 60l43 29q0 -20 1 -38t3 -36q1 -15 2 -34.5t1 -30.5t-8.5 -26t-17.5 -22z" />
    <glyph glyph-name="uni0615" unicode="&#x615;" horiz-adv-x="0" 
d="M-9 702l51 -7q0 19 -1 40t-3.5 40.5t-5.5 35.5t-7 26l37 21q2 -11 10 -20.5t17 -14.5l-24 -12q1 -11 1.5 -20.5t0.5 -20.5q0 -31 -6 -65q14 37 35.5 57.5t43.5 20.5q18 0 33.5 -17.5t15.5 -40.5q0 -17 -7 -30t-18.5 -21t-26.5 -12t-30 -4q-32 0 -58 5.5t-46 15.5z
M167 711q-3 16 -12.5 24.5t-22.5 8.5q-14 0 -31.5 -12.5t-32.5 -38.5q36 0 59.5 4t39.5 14z" />
    <glyph glyph-name="aWasla" horiz-adv-x="0" 
d="M14 639q-6 13 -6 25q0 17 10 28t27 14q12 42 36 64.5t56 22.5q23 0 38 -16.5t15 -42.5q0 -28 -22.5 -46.5t-69.5 -18.5q-20 0 -33 -1t-22.5 -4.5t-16 -9.5t-12.5 -15zM65 709q9 -2 19 -2h19q56 0 56 23q0 12 -9.5 18.5t-23.5 6.5q-17 0 -34 -12t-27 -34z" />
    <glyph glyph-name="uni0651064B" horiz-adv-x="0" 
d="M175 789q2 -6 3.5 -15t1.5 -20q0 -36 -16 -55.5t-35 -19.5q-14 0 -23 8t-13 22q-11 -37 -23.5 -50.5t-24.5 -13.5q-14 0 -23 15t-9 38q0 14 2.5 28t7.5 26l18 14q-1 -5 -1.5 -11t-0.5 -11q0 -23 5.5 -33t13.5 -10t16 8.5t14 20.5q0 15 1 27t3 16l16 13q0 -32 6.5 -46
t16.5 -14q13 0 18 10.5t5 34.5q0 6 -0.5 13.5t-1.5 14.5zM-6 766q1 11 4 21t6 16q37 22 84.5 44.5t103.5 41.5l-14 -40q-43 -15 -91 -37.5t-93 -45.5zM0 838q1 11 4 21t6 16q37 22 84.5 44.5t103.5 41.5l-14 -40q-43 -15 -91 -37.5t-93 -45.5z" />
    <glyph glyph-name="uni06540651" horiz-adv-x="0" 
d="M128 755q-15 9 -31 9q-14 0 -29 -8.5t-21 -23.5q9 -11 26 -17t34 -6q18 0 37 7t40 19l-13 -50q-17 -5 -36 -12t-38 -15.5t-37 -18.5t-33 -20q-2 8 -2 12q0 18 14 30t28 16q-44 11 -44 42q0 38 23.5 62.5t57.5 24.5q27 0 47 -15zM-19 792q1 11 4 21t6 16q37 22 84.5 44.5
t103.5 41.5l-14 -40q-43 -15 -91 -37.5t-93 -45.5zM-13 864q1 11 4 21t6 16q37 22 84.5 44.5t103.5 41.5l-14 -40q-43 -15 -91 -37.5t-93 -45.5z" />
    <glyph glyph-name="uni0654064E" horiz-adv-x="0" 
d="M128 755q-15 9 -31 9q-14 0 -29 -8.5t-21 -23.5q9 -11 26 -17t34 -6q18 0 37 7t40 19l-13 -50q-17 -5 -36 -12t-38 -15.5t-37 -18.5t-33 -20q-2 8 -2 12q0 18 14 30t28 16q-44 11 -44 42q0 38 23.5 62.5t57.5 24.5q27 0 47 -15zM-14 791q1 11 4 21t6 16q37 22 84.5 44.5
t103.5 41.5l-14 -40q-43 -15 -91 -37.5t-93 -45.5z" />
    <glyph glyph-name="uni0654064C" horiz-adv-x="0" 
d="M128 755q-15 9 -31 9q-14 0 -29 -8.5t-21 -23.5q9 -11 26 -17t34 -6q18 0 37 7t40 19l-13 -50q-17 -5 -36 -12t-38 -15.5t-37 -18.5t-33 -20q-2 8 -2 12q0 18 14 30t28 16q-44 11 -44 42q0 38 23.5 62.5t57.5 24.5q27 0 47 -15zM-53 905q11 14 23.5 21.5t30.5 7.5
t29.5 -12t11.5 -31q0 -11 -2.5 -17.5t-7.5 -14.5q41 4 65 18q-26 12 -37 34t-11 50q0 24 11 36.5t27 12.5q31 0 49.5 -22t18.5 -48q0 -12 -2 -20.5t-4 -16.5q8 -1 12.5 -1h16.5l-19 -38h-15t-13 2q-43 -41 -138 -50q24 33 24 54q0 10 -5 16.5t-15 6.5q-11 0 -20 -8t-19 -19z
M125 906q4 5 5 11t1 12q0 14 -10.5 25.5t-25.5 11.5q-24 0 -24 -16q0 -11 14.5 -24t39.5 -20z" />
    <glyph glyph-name="uni0654064F" horiz-adv-x="0" 
d="M128 755q-15 9 -31 9q-14 0 -29 -8.5t-21 -23.5q9 -11 26 -17t34 -6q18 0 37 7t40 19l-13 -50q-17 -5 -36 -12t-38 -15.5t-37 -18.5t-33 -20q-2 8 -2 12q0 18 14 30t28 16q-44 11 -44 42q0 38 23.5 62.5t57.5 24.5q27 0 47 -15zM-33 831q65 20 98 40q-36 33 -36 74
q0 23 13 39t31 16q15 0 27 -6t21 -15t14 -20.5t5 -23.5q0 -13 -2.5 -24t-12.5 -25q8 -2 16.5 -2h19.5l-18 -36q-17 0 -25.5 1t-19.5 5q-19 -16 -43.5 -28.5t-45.5 -12.5q-11 0 -20 6zM122 929q-7 12 -20 19.5t-25 7.5q-20 0 -20 -19q0 -14 12 -26.5t27 -17.5q18 15 26 36z
" />
    <glyph glyph-name="uni06540652" horiz-adv-x="0" 
d="M128 755q-15 9 -31 9q-14 0 -29 -8.5t-21 -23.5q9 -11 26 -17t34 -6q18 0 37 7t40 19l-13 -50q-17 -5 -36 -12t-38 -15.5t-37 -18.5t-33 -20q-2 8 -2 12q0 18 14 30t28 16q-44 11 -44 42q0 38 23.5 62.5t57.5 24.5q27 0 47 -15zM95 993q25 0 42 -22.5t17 -54.5
q0 -35 -18 -59t-45 -24t-42.5 18t-15.5 51q0 40 19 65.5t43 25.5zM131 903q-6 23 -18 35.5t-26 12.5t-22.5 -12t-8.5 -29q0 -16 9.5 -24t24.5 -8q12 0 24 7t17 18z" />
    <glyph glyph-name="uni06550650" horiz-adv-x="0" 
d="M128 -374q-15 9 -31 9q-14 0 -29 -8.5t-21 -23.5q9 -11 26 -17t34 -6q18 0 37 7t40 19l-13 -50q-17 -5 -36 -12t-38 -15.5t-37 -18.5t-33 -20q-2 8 -2 12q0 18 14 30t28 16q-44 11 -44 42q0 38 23.5 62.5t57.5 24.5q27 0 47 -15zM6 -586q1 11 4 21t6 16q37 22 84.5 44.5
t103.5 41.5l-14 -40q-43 -15 -91 -37.5t-93 -45.5z" />
    <glyph glyph-name="uni0655064D" horiz-adv-x="0" 
d="M128 -374q-15 9 -31 9q-14 0 -29 -8.5t-21 -23.5q9 -11 26 -17t34 -6q18 0 37 7t40 19l-13 -50q-17 -5 -36 -12t-38 -15.5t-37 -18.5t-33 -20q-2 8 -2 12q0 18 14 30t28 16q-44 11 -44 42q0 38 23.5 62.5t57.5 24.5q27 0 47 -15zM0 -662q1 11 4 21t6 16q37 22 84.5 44.5
t103.5 41.5l-14 -40q-43 -15 -91 -37.5t-93 -45.5zM6 -590q1 11 4 21t6 16q37 22 84.5 44.5t103.5 41.5l-14 -40q-43 -15 -91 -37.5t-93 -45.5z" />
    <glyph glyph-name="one" unicode="1" horiz-adv-x="352" 
d="M86 30q50 7 66.5 19t16.5 41v289l-1 1l-116 -67l-23 41l190 110l25 -14v-406l83 -14l-5 -30h-243z" />
    <glyph glyph-name="two" unicode="2" horiz-adv-x="414" 
d="M44 387v1q72 72 169 72q28 0 53.5 -9.5t44 -26.5t29.5 -39.5t11 -49.5q0 -21 -5 -40t-17.5 -39t-34.5 -42.5t-55 -49.5l-146 -119l1 -2l284 39l2 -4l-21 -78h-325l5 44l112 112q37 37 60.5 63t36.5 45.5t18 35t5 32.5q0 30 -16 52t-42 32q-12 -3 -26 -10.5t-29 -19
t-30 -25t-27 -28.5h-1z" />
    <glyph glyph-name="three" unicode="3" horiz-adv-x="403" 
d="M47 -45v1q106 17 166.5 56.5t60.5 93.5q0 40 -40 64.5t-118 28.5l-2 2l7 32q65 15 99 46t34 64q0 25 -16 46.5t-45 26.5q-52 -14 -107 -75h-1l-50 51v1q32 32 73.5 49.5t89.5 17.5q27 0 52 -9t43.5 -24.5t29.5 -35.5t11 -42q0 -39 -37 -72t-117 -53v-2q92 -3 133 -33.5
t41 -76.5q0 -34 -20.5 -65.5t-57.5 -57.5t-88.5 -45t-113.5 -27z" />
    <glyph glyph-name="four" unicode="4" 
d="M284 464h3l52 -39v-329l91 6l1 -2l-20 -54h-72v-111l-69 -18l-3 1v128h-197l-31 29v2zM267 91v141q0 47 1.5 80.5t3.5 53.5l-1 1l-180 -285l1 -1z" />
    <glyph glyph-name="five" unicode="5" horiz-adv-x="393" 
d="M35 -45v1q106 17 167.5 65.5t61.5 114.5q0 108 -130 108q-16 0 -33 -2.5t-28 -4.5l-1 1v216h254l-24 -65h-173l-14 -115l1 -1q17 5 38.5 8.5t40.5 3.5q27 0 53.5 -8t47.5 -25t34.5 -43.5t13.5 -62.5q0 -44 -20.5 -82t-58 -68t-89.5 -50.5t-114 -28.5z" />
    <glyph glyph-name="six" unicode="6" horiz-adv-x="441" 
d="M333 491q-88 -18 -137.5 -70t-60.5 -143h1q20 15 50 25.5t64 10.5q30 0 57.5 -10.5t49 -29.5t34.5 -45.5t13 -58.5q0 -38 -13.5 -70.5t-37.5 -56t-56 -37t-68 -13.5q-38 0 -69.5 15t-55 43t-36.5 68t-13 90q0 72 21.5 129.5t60 99.5t91.5 67t117 30v-1zM135 254
q-2 -10 -2.5 -25t-0.5 -28q0 -79 28.5 -121.5t73.5 -42.5q37 0 64.5 28t27.5 87q0 54 -32.5 84t-77.5 30q-20 0 -42 -3.5t-39 -8.5z" />
    <glyph glyph-name="seven" unicode="7" horiz-adv-x="392" 
d="M20 451v3h352l-7 -55q-72 -77 -127.5 -192.5t-84.5 -271.5l-77 -18l-3 1q12 73 37.5 142.5t58 130.5t68.5 112t68 86v2h-256z" />
    <glyph glyph-name="eight" unicode="8" horiz-adv-x="435" 
d="M160 261q-48 28 -69.5 60t-21.5 74q0 27 12 52.5t33 45t50.5 31t65.5 11.5q29 0 54 -10t43.5 -26.5t29 -39t10.5 -46.5q0 -38 -20.5 -72t-76.5 -59v-1q63 -34 88 -69.5t25 -77.5q0 -31 -12 -57t-33.5 -44.5t-52 -29t-66.5 -10.5q-38 0 -68 9.5t-51.5 27t-33 41
t-11.5 50.5q0 44 23 77.5t82 61.5v1zM186 243q-61 -39 -61 -109q0 -45 30 -71t75 -26q42 0 65.5 22t23.5 54q0 18 -6.5 33.5t-21.5 30.5t-40.5 31t-64.5 35zM241 298q29 23 42.5 48.5t13.5 57.5q0 41 -24 64t-56 23q-36 0 -60 -23t-24 -57q0 -28 23.5 -54.5t84.5 -58.5z" />
    <glyph glyph-name="nine" unicode="9" horiz-adv-x="438" 
d="M51 -45v1q106 17 174 75.5t79 152.5h-1q-22 -20 -51.5 -32t-61.5 -12q-31 0 -58.5 9.5t-48.5 28.5t-33 47.5t-12 67.5q0 32 13.5 62t36.5 53.5t55 37.5t68 14t68 -15t55 -43.5t36.5 -71t13.5 -96.5q0 -137 -77 -215.5t-229 -101.5zM304 240q0 83 -26 129.5t-67 46.5
q-39 0 -66 -33t-27 -90q0 -58 27.5 -81.5t71.5 -23.5q27 0 48 5t39 15v32z" />
    <glyph glyph-name="zero" unicode="0" horiz-adv-x="488" 
d="M244 -7q-43 0 -79 16t-61.5 46t-40 73.5t-14.5 98.5t14.5 98t40 73t61.5 46t79 16t79 -16t61.5 -46t40 -73t14.5 -98t-14.5 -98.5t-40 -73.5t-61.5 -46t-79 -16zM244 37q51 0 83 45.5t32 144.5t-32 144t-83 45t-83 -45t-32 -144t32 -144.5t83 -45.5z" />
    <glyph glyph-name="one.lnum" horiz-adv-x="376" 
d="M86 30q50 7 66.5 19t16.5 41v366l-1 1l-116 -67l-23 41l190 110l25 -14v-483l83 -14l-5 -30h-243z" />
    <glyph glyph-name="two.lnum" horiz-adv-x="415" 
d="M24 454q30 39 75 60t99 21q32 0 60 -12t49 -32t33.5 -47t12.5 -57q0 -25 -5.5 -48.5t-22.5 -50.5t-48.5 -61.5t-83.5 -81.5l-111 -101l1 -2l297 42l2 -4l-21 -80h-340l6 52l107 108q48 48 75.5 82t41.5 59t18 44t4 39q0 18 -6.5 36t-17.5 33t-24.5 26t-28.5 15
q-27 -8 -58.5 -32.5t-60.5 -56.5h-1l-52 49v0z" />
    <glyph glyph-name="three.lnum" horiz-adv-x="411" 
d="M41 473q62 62 156 62q32 0 59 -10t47 -26.5t31 -39.5t11 -48q0 -47 -32 -81t-104 -51v-2q78 -5 120 -40.5t42 -92.5q0 -31 -13.5 -58.5t-38 -48t-59 -32.5t-76.5 -12q-48 0 -85 12t-69 32l10 35l1 1q26 -12 59 -21.5t67 -9.5q59 0 91.5 27t32.5 74q0 26 -12.5 46.5
t-35 35t-53 23.5t-66.5 11l8 32q68 11 100.5 38.5t32.5 69.5q0 36 -18 61t-50 31q-26 -6 -53.5 -23.5t-54.5 -46.5h-1l-47 52v0z" />
    <glyph glyph-name="four.lnum" horiz-adv-x="450" 
d="M263 527h64v-373l88 5l3 -4l-11 -51h-80v-104h-73v104h-190l-34 25v5zM254 150v149v49.5t0.5 38t1.5 29.5t2 24l-1 1l-178 -300v-1z" />
    <glyph glyph-name="five.lnum" horiz-adv-x="411" 
d="M73 527h269l-13 -60h-213v-155h1q14 5 37 10t46 5q36 0 67.5 -11.5t54.5 -32.5t36 -49.5t13 -62.5q0 -38 -14.5 -70.5t-39.5 -56.5t-59 -37.5t-74 -13.5q-42 0 -82 12t-72 32l10 35l1 1q26 -12 59 -21.5t67 -9.5q60 0 92 33.5t32 87.5t-38.5 87.5t-98.5 33.5
q-20 0 -42 -3.5t-38 -8.5h-1v255z" />
    <glyph glyph-name="six.lnum" horiz-adv-x="457" 
d="M360 474l-1 -1q-12 5 -31.5 9.5t-40.5 4.5q-29 0 -56.5 -14t-48.5 -40.5t-34 -64t-13 -83.5h1q25 20 59 32.5t66 12.5t59.5 -11t48 -31t32 -49t11.5 -65t-12.5 -69t-35.5 -57.5t-54.5 -39.5t-69.5 -15q-41 0 -74.5 13.5t-58.5 43.5t-38.5 77.5t-13.5 114.5q0 64 18 118
t49 93t72.5 60.5t88.5 21.5q26 0 51.5 -6.5t41.5 -15.5zM135 219q0 -95 30 -138.5t75 -43.5t69.5 35.5t24.5 95.5t-28 87t-71 27q-23 0 -50.5 -6t-49.5 -15v-42z" />
    <glyph glyph-name="seven.lnum" horiz-adv-x="385" 
d="M370 527l-6 -53l-203 -474h-87v6l243 455v1h-281l-11 65h345z" />
    <glyph glyph-name="eight.lnum" horiz-adv-x="436" 
d="M160 261q-48 28 -69.5 60t-21.5 74q0 27 12 52.5t33 45t50.5 31t65.5 11.5q29 0 54 -10t43.5 -26.5t29 -39t10.5 -46.5q0 -38 -20.5 -72t-76.5 -59v-1q63 -34 88 -69.5t25 -77.5q0 -31 -12 -57t-33.5 -44.5t-52 -29t-66.5 -10.5q-38 0 -68 9.5t-51.5 27t-33 41
t-11.5 50.5q0 44 23 77.5t82 61.5v1zM186 243q-61 -39 -61 -109q0 -45 30 -71t75 -26q42 0 65.5 22t23.5 54q0 18 -6.5 33.5t-21.5 30.5t-40.5 31t-64.5 35zM241 298q29 23 42.5 48.5t13.5 57.5q0 41 -24 64t-56 23q-36 0 -60 -23t-24 -57q0 -28 23.5 -54.5t84.5 -58.5z" />
    <glyph glyph-name="nine.lnum" horiz-adv-x="442" 
d="M68 63l1 1q22 -11 45 -16.5t50 -5.5q35 0 61.5 10.5t44 34.5t27 64t10.5 100q-3 -4 -14.5 -13.5t-35.5 -21t-59 -11.5q-34 0 -62 11t-48.5 31.5t-31.5 49.5t-11 65q0 35 13 66.5t36 55t54 37.5t66 14q37 0 68.5 -15.5t55 -47.5t36.5 -81.5t13 -116.5q0 -70 -15 -122.5
t-42 -88t-64 -53t-80 -17.5q-35 0 -69.5 9t-58.5 26zM307 292q0 56 -6.5 94t-18.5 61.5t-29.5 33.5t-38.5 10q-43 0 -68.5 -36t-25.5 -93q0 -54 24.5 -82.5t73.5 -28.5q31 0 51.5 7t37.5 21v13z" />
    <glyph glyph-name="zero.lnum" horiz-adv-x="472" 
d="M236 -7q-40 0 -73 15t-57 48t-37.5 84.5t-13.5 125.5q0 73 13.5 124t37.5 83.5t57 47t73 14.5q39 0 72.5 -14.5t57.5 -47t37.5 -83.5t13.5 -124q0 -74 -13.5 -125.5t-37.5 -84.5t-57.5 -48t-72.5 -15zM236 37q53 0 77 56.5t24 174.5q0 117 -24.5 170t-76.5 53
q-53 0 -77 -53t-24 -170q0 -118 24 -174.5t77 -56.5z" />
    <glyph glyph-name="one.tnum" 
d="M130 35q59 3 80 15.5t21 41.5v287l-1 1l-154 -91l-23 41l228 134l25 -14v-406l99 -9l-5 -35h-278z" />
    <glyph glyph-name="two.tnum" 
d="M63 387v1q72 72 169 72q28 0 53.5 -9.5t44 -26.5t29.5 -39.5t11 -49.5q0 -21 -5 -40t-17.5 -39t-34.5 -42.5t-55 -49.5l-146 -119l1 -2l284 39l2 -4l-21 -78h-325l5 44l112 112q37 37 60.5 63t36.5 45.5t18 35t5 32.5q0 30 -16 52t-42 32q-12 -3 -26 -10.5t-29 -19
t-30 -25t-27 -28.5h-1z" />
    <glyph glyph-name="three.tnum" 
d="M72 -45v1q106 17 166.5 56.5t60.5 93.5q0 40 -40 64.5t-118 28.5l-2 2l7 32q65 15 99 46t34 64q0 25 -16 46.5t-45 26.5q-52 -14 -107 -75h-1l-50 51v1q32 32 73.5 49.5t89.5 17.5q27 0 52 -9t43.5 -24.5t29.5 -35.5t11 -42q0 -39 -37 -72t-117 -53v-2q92 -3 133 -33.5
t41 -76.5q0 -34 -20.5 -65.5t-57.5 -57.5t-88.5 -45t-113.5 -27z" />
    <glyph glyph-name="four.tnum" 
d="M279 464h3l52 -39v-329l91 6l1 -2l-20 -54h-72v-111l-69 -18l-3 1v128h-197l-31 29v2zM262 91v141q0 47 1.5 80.5t3.5 53.5l-1 1l-180 -285l1 -1z" />
    <glyph glyph-name="five.tnum" 
d="M68 -45v1q106 17 167.5 65.5t61.5 114.5q0 108 -130 108q-16 0 -33 -2.5t-28 -4.5l-1 1v216h254l-24 -65h-173l-14 -115l1 -1q17 5 38.5 8.5t40.5 3.5q27 0 53.5 -8t47.5 -25t34.5 -43.5t13.5 -62.5q0 -44 -20.5 -82t-58 -68t-89.5 -50.5t-114 -28.5z" />
    <glyph glyph-name="six.tnum" 
d="M338 491q-88 -18 -137.5 -70t-60.5 -143h1q20 15 50 25.5t64 10.5q30 0 57.5 -10.5t49 -29.5t34.5 -45.5t13 -58.5q0 -38 -13.5 -70.5t-37.5 -56t-56 -37t-68 -13.5q-38 0 -69.5 15t-55 43t-36.5 68t-13 90q0 72 21.5 129.5t60 99.5t91.5 67t117 30v-1zM140 254
q-2 -10 -2.5 -25t-0.5 -28q0 -79 28.5 -121.5t73.5 -42.5q37 0 64.5 28t27.5 87q0 54 -32.5 84t-77.5 30q-20 0 -42 -3.5t-39 -8.5z" />
    <glyph glyph-name="seven.tnum" 
d="M50 451v3h352l-7 -55q-72 -77 -127.5 -192.5t-84.5 -271.5l-77 -18l-3 1q12 73 37.5 142.5t58 130.5t68.5 112t68 86v2h-256z" />
    <glyph glyph-name="eight.tnum" 
d="M171 261q-48 28 -69.5 60t-21.5 74q0 27 12 52.5t33 45t50.5 31t65.5 11.5q29 0 54 -10t43.5 -26.5t29 -39t10.5 -46.5q0 -38 -20.5 -72t-76.5 -59v-1q63 -34 88 -69.5t25 -77.5q0 -31 -12 -57t-33.5 -44.5t-52 -29t-66.5 -10.5q-38 0 -68 9.5t-51.5 27t-33 41
t-11.5 50.5q0 44 23 77.5t82 61.5v1zM197 243q-61 -39 -61 -109q0 -45 30 -71t75 -26q42 0 65.5 22t23.5 54q0 18 -6.5 33.5t-21.5 30.5t-40.5 31t-64.5 35zM252 298q29 23 42.5 48.5t13.5 57.5q0 41 -24 64t-56 23q-36 0 -60 -23t-24 -57q0 -28 23.5 -54.5t84.5 -58.5z" />
    <glyph glyph-name="nine.tnum" 
d="M67 -45v1q106 17 174 75.5t79 152.5h-1q-22 -20 -51.5 -32t-61.5 -12q-31 0 -58.5 9.5t-48.5 28.5t-33 47.5t-12 67.5q0 32 13.5 62t36.5 53.5t55 37.5t68 14t68 -15t55 -43.5t36.5 -71t13.5 -96.5q0 -137 -77 -215.5t-229 -101.5zM320 240q0 83 -26 129.5t-67 46.5
q-39 0 -66 -33t-27 -90q0 -58 27.5 -81.5t71.5 -23.5q27 0 48 5t39 15v32z" />
    <glyph glyph-name="zero.tnum" 
d="M230 -7q-43 0 -79 16t-61.5 46t-40 73.5t-14.5 98.5t14.5 98t40 73t61.5 46t79 16t79 -16t61.5 -46t40 -73t14.5 -98t-14.5 -98.5t-40 -73.5t-61.5 -46t-79 -16zM230 37q51 0 83 45.5t32 144.5t-32 144t-83 45t-83 -45t-32 -144t32 -144.5t83 -45.5z" />
    <glyph glyph-name="one.tnum_lnum" 
d="M130 35q59 3 80 15.5t21 41.5v363l-1 1l-154 -87l-24 40l230 132l24 -14v-483l99 -9l-5 -35h-278z" />
    <glyph glyph-name="two.tnum_lnum" 
d="M51 454q30 39 75 60t99 21q32 0 60 -12t49 -32t33.5 -47t12.5 -57q0 -25 -5.5 -48.5t-22.5 -50.5t-48.5 -61.5t-83.5 -81.5l-111 -101l1 -2l297 42l2 -4l-21 -80h-340l6 52l107 108q48 48 75.5 82t41.5 59t18 44t4 39q0 18 -6.5 36t-17.5 33t-24.5 26t-28.5 15
q-27 -8 -58.5 -32.5t-60.5 -56.5h-1l-52 49v0z" />
    <glyph glyph-name="three.tnum_lnum" 
d="M60 473q62 62 156 62q32 0 59 -10t47 -26.5t31 -39.5t11 -48q0 -47 -32 -81t-104 -51v-2q78 -5 120 -40.5t42 -92.5q0 -31 -13.5 -58.5t-38 -48t-59 -32.5t-76.5 -12q-48 0 -85 12t-69 32l10 35l1 1q26 -12 59 -21.5t67 -9.5q59 0 91.5 27t32.5 74q0 26 -12.5 46.5
t-35 35t-53 23.5t-66.5 11l8 32q68 11 100.5 38.5t32.5 69.5q0 36 -18 61t-50 31q-26 -6 -53.5 -23.5t-54.5 -46.5h-1l-47 52v0z" />
    <glyph glyph-name="four.tnum_lnum" 
d="M259 527h64v-373l88 5l3 -4l-11 -51h-80v-104h-73v104h-190l-34 25v5zM250 150v149v49.5t0.5 38t1.5 29.5t2 24l-1 1l-178 -300v-1z" />
    <glyph glyph-name="five.tnum_lnum" 
d="M103 527h269l-13 -60h-213v-155h1q14 5 37 10t46 5q36 0 67.5 -11.5t54.5 -32.5t36 -49.5t13 -62.5q0 -38 -14.5 -70.5t-39.5 -56.5t-59 -37.5t-74 -13.5q-42 0 -82 12t-72 32l10 35l1 1q26 -12 59 -21.5t67 -9.5q60 0 92 33.5t32 87.5t-38.5 87.5t-98.5 33.5
q-20 0 -42 -3.5t-38 -8.5h-1v255z" />
    <glyph glyph-name="six.tnum_lnum" 
d="M360 474l-1 -1q-12 5 -31.5 9.5t-40.5 4.5q-29 0 -56.5 -14t-48.5 -40.5t-34 -64t-13 -83.5h1q25 20 59 32.5t66 12.5t59.5 -11t48 -31t32 -49t11.5 -65t-12.5 -69t-35.5 -57.5t-54.5 -39.5t-69.5 -15q-41 0 -74.5 13.5t-58.5 43.5t-38.5 77.5t-13.5 114.5q0 64 18 118
t49 93t72.5 60.5t88.5 21.5q26 0 51.5 -6.5t41.5 -15.5zM135 219q0 -95 30 -138.5t75 -43.5t69.5 35.5t24.5 95.5t-28 87t-71 27q-23 0 -50.5 -6t-49.5 -15v-42z" />
    <glyph glyph-name="seven.tnum_lnum" 
d="M403 527l-6 -53l-203 -474h-87v6l243 455v1h-281l-11 65h345z" />
    <glyph glyph-name="eight.tnum_lnum" 
d="M171 261q-48 28 -69.5 60t-21.5 74q0 27 12 52.5t33 45t50.5 31t65.5 11.5q29 0 54 -10t43.5 -26.5t29 -39t10.5 -46.5q0 -38 -20.5 -72t-76.5 -59v-1q63 -34 88 -69.5t25 -77.5q0 -31 -12 -57t-33.5 -44.5t-52 -29t-66.5 -10.5q-38 0 -68 9.5t-51.5 27t-33 41
t-11.5 50.5q0 44 23 77.5t82 61.5v1zM197 243q-61 -39 -61 -109q0 -45 30 -71t75 -26q42 0 65.5 22t23.5 54q0 18 -6.5 33.5t-21.5 30.5t-40.5 31t-64.5 35zM252 298q29 23 42.5 48.5t13.5 57.5q0 41 -24 64t-56 23q-36 0 -60 -23t-24 -57q0 -28 23.5 -54.5t84.5 -58.5z" />
    <glyph glyph-name="nine.tnum_lnum" 
d="M83 63l1 1q22 -11 45 -16.5t50 -5.5q35 0 61.5 10.5t44 34.5t27 64t10.5 100q-3 -4 -14.5 -13.5t-35.5 -21t-59 -11.5q-34 0 -62 11t-48.5 31.5t-31.5 49.5t-11 65q0 35 13 66.5t36 55t54 37.5t66 14q37 0 68.5 -15.5t55 -47.5t36.5 -81.5t13 -116.5q0 -70 -15 -122.5
t-42 -88t-64 -53t-80 -17.5q-35 0 -69.5 9t-58.5 26zM322 292q0 56 -6.5 94t-18.5 61.5t-29.5 33.5t-38.5 10q-43 0 -68.5 -36t-25.5 -93q0 -54 24.5 -82.5t73.5 -28.5q31 0 51.5 7t37.5 21v13z" />
    <glyph glyph-name="zero.tnum_lnum" 
d="M230 -7q-40 0 -73 15t-57 48t-37.5 84.5t-13.5 125.5q0 73 13.5 124t37.5 83.5t57 47t73 14.5q39 0 72.5 -14.5t57.5 -47t37.5 -83.5t13.5 -124q0 -74 -13.5 -125.5t-37.5 -84.5t-57.5 -48t-72.5 -15zM230 37q53 0 77 56.5t24 174.5q0 117 -24.5 170t-76.5 53
q-53 0 -77 -53t-24 -170q0 -118 24 -174.5t77 -56.5z" />
    <glyph glyph-name="uni0661" unicode="&#x661;" horiz-adv-x="282" 
d="M89 567h2q56 -95 86 -201t30 -208q0 -19 -0.5 -39t-1.5 -39t-2.5 -35.5t-2.5 -28.5l-44 -27h-2q2 24 2.5 49.5t1.5 67.5q2 92 -25 182.5t-88 194.5z" />
    <glyph glyph-name="uni0662" unicode="&#x662;" horiz-adv-x="398" 
d="M87 567h3q13 -29 32 -51t41 -37.5t45 -23.5t43 -8q37 0 58.5 31.5t25.5 88.5l8 -4q9 -5 12 -24t3 -39q0 -23 -8 -46t-22 -41.5t-34 -30t-44 -11.5q-21 0 -43 5.5t-37 15.5l-1 -1q26 -57 41.5 -118.5t15.5 -114.5q0 -19 -0.5 -39t-1.5 -39t-2.5 -35.5t-2.5 -28.5l-44 -27
h-2q2 24 2 47.5t2 55.5q1 45 -5 89t-22 90.5t-41.5 98.5t-63.5 113z" />
    <glyph glyph-name="uni0663" unicode="&#x663;" horiz-adv-x="455" 
d="M90 567q13 -29 30 -51t34.5 -37.5t34.5 -23.5t30 -8q22 0 37 22t15 79l24 9q7 -18 9.5 -35t5.5 -31t9 -22.5t21 -8.5q22 0 36 30.5t16 76.5l8 -4q9 -5 12 -24t3 -39q0 -23 -6.5 -42.5t-17.5 -34.5t-25.5 -23.5t-30.5 -8.5q-15 0 -25 6t-17 15h-2q-8 -17 -20.5 -29
t-33.5 -12q-35 0 -67 21l-1 -1q26 -57 41.5 -118.5t15.5 -114.5q0 -19 -0.5 -39t-1.5 -39t-2.5 -35.5t-2.5 -28.5l-44 -27h-2q2 24 3 49t1 54q0 45 -6.5 89t-21.5 90.5t-40.5 98.5t-63.5 113l42 84h3z" />
    <glyph glyph-name="uni0664" unicode="&#x664;" horiz-adv-x="395" 
d="M273 486q-45 -9 -90.5 -32t-71.5 -55q9 -12 27.5 -24t43 -22.5t52.5 -18.5t56 -12l2 -2l-19 -60q-17 -8 -36 -22.5t-38 -31t-34.5 -34.5t-24.5 -34q19 -26 61 -46t98 -20q32 0 58 9l18 -75q-16 -6 -33.5 -9.5t-37.5 -3.5q-24 0 -48.5 5t-47 14t-42 22t-31.5 29
q-11 16 -19 34t-8 41q0 28 24.5 65.5t69.5 72.5v3q-59 16 -95.5 43t-36.5 61q0 9 2.5 22.5t8.5 28.5t14.5 30.5t20.5 27.5q32 32 79.5 52t97.5 23z" />
    <glyph glyph-name="uni0665" unicode="&#x665;" horiz-adv-x="465" 
d="M405 254q0 -26 -7 -53.5t-23 -50.5q-56 -68 -150 -68q-45 0 -76 15.5t-50 40.5q-8 11 -16 34t-8 66q0 39 15.5 84t40 84t55.5 64.5t62 25.5q25 0 52.5 -21.5t50.5 -56t38.5 -78t15.5 -86.5zM362 220q-6 39 -19.5 72.5t-31 58.5t-37 39t-37.5 14q-19 0 -38.5 -15.5
t-36.5 -41t-30 -58.5t-18 -69q14 -20 47.5 -34t68.5 -14q49 0 82 14.5t50 33.5z" />
    <glyph glyph-name="uni0666" unicode="&#x666;" horiz-adv-x="413" 
d="M41 567q13 -13 37.5 -20t63.5 -7q50 0 88.5 5.5t62.5 12.5l3 -2q-9 -52 -15.5 -103t-6.5 -114q0 -77 20.5 -144.5t63.5 -118.5l-35 -88h-3q-45 50 -68.5 124.5t-23.5 177.5q0 39 4.5 89t13.5 98l-2 2q-24 -7 -63.5 -13t-75.5 -6q-44 0 -64.5 17t-20.5 40q0 27 21 50z" />
    <glyph glyph-name="uni0667" unicode="&#x667;" horiz-adv-x="447" 
d="M412 479q-61 -75 -99.5 -184.5t-57.5 -265.5l-49 -39h-4q-8 161 -49 280t-123 209l34 88h2q32 -31 60 -77.5t49 -101.5t34.5 -115t18.5 -119h4q7 58 21 118t32.5 114.5t41 101.5t46.5 79h3z" />
    <glyph glyph-name="uni0668" unicode="&#x668;" horiz-adv-x="447" 
d="M381 -10h-3q-24 32 -46.5 79t-41 101.5t-32.5 114.5t-21 118h-4q-5 -59 -18.5 -119t-34.5 -115t-49 -101.5t-60 -77.5h-2l-34 88q82 90 123 209t49 280h4l49 -39q19 -156 57.5 -265.5t99.5 -184.5z" />
    <glyph glyph-name="uni0669" unicode="&#x669;" horiz-adv-x="386" 
d="M226 285q-5 -1 -10 -1h-10q-44 -1 -76.5 8.5t-53.5 27.5t-31 42t-10 52q0 30 9 57.5t25 48.5t36 34t43 13q22 0 44 -14t39 -43t27.5 -73t10.5 -104q0 -47 5 -83t15.5 -65t27 -54.5t39.5 -51.5l-24 -91h-3q-53 49 -78.5 120t-24.5 177zM225 360q-3 34 -12.5 59.5t-22 42.5
t-27 25.5t-27.5 8.5q-12 0 -23 -7.5t-20 -20.5t-15.5 -29t-8.5 -32q13 -21 42.5 -34t77.5 -14h17t19 1z" />
    <glyph glyph-name="uni0660" unicode="&#x660;" horiz-adv-x="314" 
d="M161 195q-14 20 -38 45t-48 42l78 77q13 -7 26 -17.5t24.5 -22.5t20.5 -24.5t15 -22.5z" />
    <glyph glyph-name="uni0661.tnum" 
d="M176 567h2q56 -95 86 -201t30 -208q0 -19 -0.5 -39t-1.5 -39t-2.5 -35.5t-2.5 -28.5l-44 -27h-2q2 24 2.5 49.5t1.5 67.5q2 92 -25 182.5t-88 194.5z" />
    <glyph glyph-name="uni0662.tnum" 
d="M112 567h3q13 -29 32 -51t41 -37.5t45 -23.5t43 -8q37 0 58.5 31.5t25.5 88.5l8 -4q9 -5 12 -24t3 -39q0 -23 -8 -46t-22 -41.5t-34 -30t-44 -11.5q-21 0 -43 5.5t-37 15.5l-1 -1q26 -57 41.5 -118.5t15.5 -114.5q0 -19 -0.5 -39t-1.5 -39t-2.5 -35.5t-2.5 -28.5l-44 -27
h-2q2 24 2 47.5t2 55.5q1 45 -5 89t-22 90.5t-41.5 98.5t-63.5 113z" />
    <glyph glyph-name="uni0663.tnum" 
d="M100 567q13 -29 30 -51t34.5 -37.5t34.5 -23.5t30 -8q22 0 37 22t15 79l24 9q7 -18 9.5 -35t5.5 -31t9 -22.5t21 -8.5q22 0 36 30.5t16 76.5l8 -4q9 -5 12 -24t3 -39q0 -23 -6.5 -42.5t-17.5 -34.5t-25.5 -23.5t-30.5 -8.5q-15 0 -25 6t-17 15h-2q-8 -17 -20.5 -29
t-33.5 -12q-35 0 -67 21l-1 -1q26 -57 41.5 -118.5t15.5 -114.5q0 -19 -0.5 -39t-1.5 -39t-2.5 -35.5t-2.5 -28.5l-44 -27h-2q2 24 3 49t1 54q0 45 -6.5 89t-21.5 90.5t-40.5 98.5t-63.5 113l42 84h3z" />
    <glyph glyph-name="uni0664.tnum" 
d="M290 486q-45 -9 -90.5 -32t-71.5 -55q9 -12 27.5 -24t43 -22.5t52.5 -18.5t56 -12l2 -2l-19 -60q-17 -8 -36 -22.5t-38 -31t-34.5 -34.5t-24.5 -34q19 -26 61 -46t98 -20q32 0 58 9l18 -75q-16 -6 -33.5 -9.5t-37.5 -3.5q-24 0 -48.5 5t-47 14t-42 22t-31.5 29
q-11 16 -19 34t-8 41q0 28 24.5 65.5t69.5 72.5v3q-59 16 -95.5 43t-36.5 61q0 9 2.5 22.5t8.5 28.5t14.5 30.5t20.5 27.5q32 32 79.5 52t97.5 23z" />
    <glyph glyph-name="uni0665.tnum" 
d="M396 254q0 -26 -7 -53.5t-23 -50.5q-56 -68 -150 -68q-45 0 -76 15.5t-50 40.5q-8 11 -16 34t-8 66q0 39 15.5 84t40 84t55.5 64.5t62 25.5q25 0 52.5 -21.5t50.5 -56t38.5 -78t15.5 -86.5zM353 220q-6 39 -19.5 72.5t-31 58.5t-37 39t-37.5 14q-19 0 -38.5 -15.5
t-36.5 -41t-30 -58.5t-18 -69q14 -20 47.5 -34t68.5 -14q49 0 82 14.5t50 33.5z" />
    <glyph glyph-name="uni0666.tnum" 
d="M53 567q13 -13 37.5 -20t63.5 -7q50 0 88.5 5.5t62.5 12.5l3 -2q-9 -52 -15.5 -103t-6.5 -114q0 -77 20.5 -144.5t63.5 -118.5l-35 -88h-3q-45 50 -68.5 124.5t-23.5 177.5q0 39 4.5 89t13.5 98l-2 2q-24 -7 -63.5 -13t-75.5 -6q-44 0 -64.5 17t-20.5 40q0 27 21 50z" />
    <glyph glyph-name="uni0667.tnum" 
d="M410 479q-61 -75 -99.5 -184.5t-57.5 -265.5l-49 -39h-4q-8 161 -49 280t-123 209l34 88h2q32 -31 60 -77.5t49 -101.5t34.5 -115t18.5 -119h4q7 58 21 118t32.5 114.5t41 101.5t46.5 79h3z" />
    <glyph glyph-name="uni0668.tnum" 
d="M381 -10h-3q-24 32 -46.5 79t-41 101.5t-32.5 114.5t-21 118h-4q-5 -59 -18.5 -119t-34.5 -115t-49 -101.5t-60 -77.5h-2l-34 88q82 90 123 209t49 280h4l49 -39q19 -156 57.5 -265.5t99.5 -184.5z" />
    <glyph glyph-name="uni0669.tnum" 
d="M255 285q-5 -1 -10 -1h-10q-44 -1 -76.5 8.5t-53.5 27.5t-31 42t-10 52q0 30 9 57.5t25 48.5t36 34t43 13q22 0 44 -14t39 -43t27.5 -73t10.5 -104q0 -47 5 -83t15.5 -65t27 -54.5t39.5 -51.5l-24 -91h-3q-53 49 -78.5 120t-24.5 177zM254 360q-3 34 -12.5 59.5t-22 42.5
t-27 25.5t-27.5 8.5q-12 0 -23 -7.5t-20 -20.5t-15.5 -29t-8.5 -32q13 -21 42.5 -34t77.5 -14h17t19 1z" />
    <glyph glyph-name="uni0660.tnum" 
d="M225 195q-14 20 -38 45t-48 42l78 77q13 -7 26 -17.5t24.5 -22.5t20.5 -24.5t15 -22.5z" />
    <glyph glyph-name="guilsinglleft.locl" horiz-adv-x="260" 
d="M200 -20q-36 13 -64.5 34.5t-48.5 49t-31 59.5t-11 65t11 64.5t31 59t48.5 49.5t64.5 35l-8 -35q-41 -32 -61 -74t-20 -99t20 -99t61 -74z" />
    <glyph glyph-name="guilsinglright.locl" horiz-adv-x="260" 
d="M60 -20l8 35q41 32 61 74t20 99t-20 99t-61 74l-8 35q36 -13 64.5 -35t48.5 -49.5t31 -59t11 -64.5t-11 -65t-31 -59.5t-48.5 -49t-64.5 -34.5z" />
    <glyph glyph-name="guillemotleft.locl" horiz-adv-x="401" 
d="M200 -20q-36 13 -64.5 34.5t-48.5 49t-31 59.5t-11 65t11 64.5t31 59t48.5 49.5t64.5 35l-8 -35q-41 -32 -61 -74t-20 -99t20 -99t61 -74zM341 -20q-36 13 -64.5 34.5t-48.5 49t-31 59.5t-11 65t11 64.5t31 59t48.5 49.5t64.5 35l-8 -35q-41 -32 -61 -74t-20 -99t20 -99
t61 -74z" />
    <glyph glyph-name="guillemotright.locl" horiz-adv-x="400" 
d="M60 -20l8 35q41 32 61 74t20 99t-20 99t-61 74l-8 35q36 -13 64.5 -35t48.5 -49.5t31 -59t11 -64.5t-11 -65t-31 -59.5t-48.5 -49t-64.5 -34.5zM200 -20l8 35q41 32 61 74t20 99t-20 99t-61 74l-8 35q36 -13 64.5 -35t48.5 -49.5t31 -59t11 -64.5t-11 -65t-31 -59.5
t-48.5 -49t-64.5 -34.5z" />
    <glyph glyph-name="uni066B" unicode="&#x66b;" horiz-adv-x="208" 
d="M95 109q37 -13 58.5 -38.5t21.5 -55.5q0 -37 -21 -74t-75 -78l-21 21q30 33 40 57t12 40l-64 47l49 81v0z" />
    <glyph glyph-name="uni066C" unicode="&#x66c;" horiz-adv-x="208" 
d="M126 -26q-38 14 -59 39.5t-21 62.5q0 38 25.5 77t71.5 65l18 -17q-48 -52 -57 -104q10 -15 27.5 -26t39.5 -17z" />
    <glyph glyph-name="uni274A" unicode="&#x274a;" horiz-adv-x="413" 
d="M213 343q3 9 3 21q0 17 -11 39q-5 11 -9.5 21t-4.5 22q0 18 12.5 32.5t34.5 19.5l6 -6q-10 -14 -10 -34q0 -12 2 -21.5t5 -18.5t5 -17.5t2 -19.5q0 -26 -28 -44zM222 330q20 3 32 17t23 31q8 12 19 20.5t29 8.5q23 0 44 -21l-3 -8h-5q-14 0 -26.5 -7t-32.5 -27
q-18 -18 -29 -24.5t-24 -6.5q-16 0 -29 8zM216 316q10 -11 22 -16t36 -7q16 -1 24.5 -2.5t16.5 -6.5q25 -16 25 -47q0 -10 -3 -20l-8 -2q-4 8 -8.5 13.5t-12 10t-19 8.5t-28.5 9q-28 8 -40.5 20t-13.5 37zM200 314q-3 -8 -3 -20q0 -9 2 -17t9 -23q7 -13 10.5 -22.5
t3.5 -19.5q0 -18 -12.5 -32.5t-34.5 -19.5l-6 6q6 8 8 16t2 18q0 19 -7 40q-6 18 -6 36q0 28 27 45zM190 327q-14 -2 -24 -10t-24 -28q-15 -22 -26 -30t-28 -8q-25 0 -44 21l2 8h6q14 0 26 6.5t34 28.5q18 18 29.5 24t22.5 6q14 0 28 -8zM197 342q-8 11 -20.5 16t-35.5 7
q-17 2 -26.5 3.5t-16.5 5.5q-11 7 -18 19t-7 27q0 10 3 21l8 2q8 -17 22.5 -25t46.5 -17q28 -8 40.5 -20t12.5 -36z" />
    <glyph glyph-name="uni06C0" unicode="&#x6c0;" horiz-adv-x="338" 
d="M156 354q28 -12 54.5 -35.5t47 -52t33 -61t12.5 -62.5q0 -33 -11 -60.5t-30 -47.5t-45.5 -31t-57.5 -11q-57 0 -90.5 35t-33.5 90q0 46 26 95t77 87zM156 257q-38 -29 -54 -59t-16 -62t22.5 -48t51.5 -16q33 0 59 11.5t41 31.5q-11 42 -38 81t-66 61zM194 511
q-15 9 -31 9q-14 0 -29 -8.5t-21 -23.5q9 -11 26 -17t34 -6q18 0 37 7t40 19l-13 -50q-17 -5 -36 -12t-38 -15.5t-37 -18.5t-33 -20q-2 8 -2 12q0 18 14 30t28 16q-44 11 -44 42q0 38 23.5 62.5t57.5 24.5q27 0 47 -15z" />
    <glyph glyph-name="uni06F1" unicode="&#x6f1;" horiz-adv-x="282" 
d="M90 567h2q56 -95 86 -201t30 -208q0 -19 -0.5 -39t-1.5 -39t-2.5 -35.5t-2.5 -28.5l-44 -27h-2q2 24 2.5 49.5t1.5 67.5q2 92 -25 182.5t-88 194.5z" />
    <glyph glyph-name="uni06F2" unicode="&#x6f2;" horiz-adv-x="392" 
d="M91 567h3q13 -29 32 -51t41 -37.5t45 -23.5t43 -8q37 0 58.5 31.5t25.5 88.5l8 -4q9 -5 12 -24t3 -39q0 -23 -8 -46t-22 -41.5t-34 -30t-44 -11.5q-21 0 -43 5.5t-37 15.5l-1 -1q26 -57 41.5 -118.5t15.5 -114.5q0 -19 -0.5 -39t-1.5 -39t-2.5 -35.5t-2.5 -28.5l-44 -27
h-2q2 24 2 47.5t2 55.5q1 45 -5 89t-22 90.5t-41.5 98.5t-63.5 113z" />
    <glyph glyph-name="uni06F3" unicode="&#x6f3;" 
d="M95 567q13 -29 30 -51t34.5 -37.5t34.5 -23.5t30 -8q22 0 37 22t15 79l24 9q7 -18 9.5 -35t5.5 -31t9 -22.5t21 -8.5q22 0 36 30.5t16 76.5l8 -4q9 -5 12 -24t3 -39q0 -23 -6.5 -42.5t-17.5 -34.5t-25.5 -23.5t-30.5 -8.5q-15 0 -25 6t-17 15h-2q-8 -17 -20.5 -29
t-33.5 -12q-35 0 -67 21l-1 -1q26 -57 41.5 -118.5t15.5 -114.5q0 -19 -0.5 -39t-1.5 -39t-2.5 -35.5t-2.5 -28.5l-44 -27h-2q2 24 3 49t1 54q0 45 -6.5 89t-21.5 90.5t-40.5 98.5t-63.5 113l42 84h3z" />
    <glyph glyph-name="uni06F4" unicode="&#x6f4;" horiz-adv-x="422" 
d="M89 567h1q19 -27 32 -55t27 -65h2q16 59 44.5 89.5t60.5 30.5q26 0 48 -23t39 -65l-8 -11q-12 11 -29 17.5t-37 6.5q-17 0 -32.5 -7.5t-29 -20.5t-24 -30t-16.5 -36q14 -12 39.5 -20.5t54.5 -8.5q36 0 65 12.5t49 32.5l2 -1l-14 -77q-17 -17 -38.5 -25t-44.5 -8
q-28 0 -53.5 9.5t-40.5 23.5l-2 -1q9 -41 16 -82t7 -95q0 -19 -0.5 -39t-1.5 -39t-2.5 -35.5t-2.5 -28.5l-44 -27h-2q2 24 3 49.5t1 67.5q0 93 -26 183t-87 194z" />
    <glyph glyph-name="uni06F5" unicode="&#x6f5;" horiz-adv-x="484" 
d="M226 567h4q50 -44 88 -94.5t64 -102.5t39 -102.5t13 -93.5q0 -35 -9.5 -64.5t-25 -50.5t-35 -33t-39.5 -12q-23 0 -44.5 15.5t-33.5 40.5h-1q-24 -56 -68 -56q-22 0 -42.5 11t-36 31t-25 47.5t-9.5 60.5q0 70 36 148t114 179zM240 460q-37 -54 -62 -94.5t-40.5 -73.5
t-22 -60t-6.5 -53q0 -43 20 -65t48 -22q18 0 30 10.5t23 32.5q0 18 0.5 35.5t2.5 27.5l26 15h2q4 -37 10.5 -60.5t15.5 -37t20 -18.5t25 -5q25 0 41.5 23.5t16.5 61.5q0 59 -34.5 130.5t-115.5 152.5z" />
    <glyph glyph-name="uni06F6" unicode="&#x6f6;" horiz-adv-x="425" 
d="M55 -9q22 86 55 158.5t75 126.5v2q-49 15 -80.5 50.5t-31.5 80.5q0 24 11.5 51.5t30.5 51.5t44 39.5t52 15.5q32 0 61 -25.5t50 -68.5l-16 -12q-17 13 -40 22.5t-49 9.5q-14 0 -29.5 -4.5t-30 -12.5t-26.5 -18t-19 -20q13 -44 44 -69.5t86 -34.5q12 10 28.5 21.5t35 22.5
t37 20.5t34.5 15.5l3 -3l-20 -79q-46 -25 -83 -52.5t-68.5 -64.5t-60 -86.5t-57.5 -116.5l-34 -21h-2v0z" />
    <glyph glyph-name="uni06F7" unicode="&#x6f7;" horiz-adv-x="448" 
d="M414 479q-61 -75 -99.5 -184.5t-57.5 -265.5l-49 -39h-4q-8 161 -49 280t-123 209l34 88h2q32 -31 60 -77.5t49 -101.5t34.5 -115t18.5 -119h4q7 58 21 118t32.5 114.5t41 101.5t46.5 79h3z" />
    <glyph glyph-name="uni06F8" unicode="&#x6f8;" horiz-adv-x="448" 
d="M379 -10h-3q-24 32 -46.5 79t-41 101.5t-32.5 114.5t-21 118h-4q-5 -59 -18.5 -119t-34.5 -115t-49 -101.5t-60 -77.5h-2l-34 88q82 90 123 209t49 280h4l49 -39q19 -156 57.5 -265.5t99.5 -184.5z" />
    <glyph glyph-name="uni06F9" unicode="&#x6f9;" horiz-adv-x="386" 
d="M225 285q-5 -1 -10 -1h-10q-44 -1 -76.5 8.5t-53.5 27.5t-31 42t-10 52q0 30 9 57.5t25 48.5t36 34t43 13q22 0 44 -14t39 -43t27.5 -73t10.5 -104q0 -47 5 -83t15.5 -65t27 -54.5t39.5 -51.5l-24 -91h-3q-53 49 -78.5 120t-24.5 177zM224 360q-3 34 -12.5 59.5t-22 42.5
t-27 25.5t-27.5 8.5q-12 0 -23 -7.5t-20 -20.5t-15.5 -29t-8.5 -32q13 -21 42.5 -34t77.5 -14h17t19 1z" />
    <glyph glyph-name="uni06F0" unicode="&#x6f0;" horiz-adv-x="306" 
d="M158 195q-14 20 -38 45t-48 42l78 77q13 -7 26 -17.5t24.5 -22.5t20.5 -24.5t15 -22.5z" />
    <glyph glyph-name="uni06F1.tnum" 
d="M176 567h2q56 -95 86 -201t30 -208q0 -19 -0.5 -39t-1.5 -39t-2.5 -35.5t-2.5 -28.5l-44 -27h-2q2 24 2.5 49.5t1.5 67.5q2 92 -25 182.5t-88 194.5z" />
    <glyph glyph-name="uni06F2.tnum" 
d="M112 567h3q13 -29 32 -51t41 -37.5t45 -23.5t43 -8q37 0 58.5 31.5t25.5 88.5l8 -4q9 -5 12 -24t3 -39q0 -23 -8 -46t-22 -41.5t-34 -30t-44 -11.5q-21 0 -43 5.5t-37 15.5l-1 -1q26 -57 41.5 -118.5t15.5 -114.5q0 -19 -0.5 -39t-1.5 -39t-2.5 -35.5t-2.5 -28.5l-44 -27
h-2q2 24 2 47.5t2 55.5q1 45 -5 89t-22 90.5t-41.5 98.5t-63.5 113z" />
    <glyph glyph-name="uni06F3.tnum" 
d="M100 567q13 -29 30 -51t34.5 -37.5t34.5 -23.5t30 -8q22 0 37 22t15 79l24 9q7 -18 9.5 -35t5.5 -31t9 -22.5t21 -8.5q22 0 36 30.5t16 76.5l8 -4q9 -5 12 -24t3 -39q0 -23 -6.5 -42.5t-17.5 -34.5t-25.5 -23.5t-30.5 -8.5q-15 0 -25 6t-17 15h-2q-8 -17 -20.5 -29
t-33.5 -12q-35 0 -67 21l-1 -1q26 -57 41.5 -118.5t15.5 -114.5q0 -19 -0.5 -39t-1.5 -39t-2.5 -35.5t-2.5 -28.5l-44 -27h-2q2 24 3 49t1 54q0 45 -6.5 89t-21.5 90.5t-40.5 98.5t-63.5 113l42 84h3z" />
    <glyph glyph-name="uni06F4.tnum" 
d="M106 567h1q19 -27 32 -55t27 -65h2q16 59 44.5 89.5t60.5 30.5q26 0 48 -23t39 -65l-8 -11q-12 11 -29 17.5t-37 6.5q-17 0 -32.5 -7.5t-29 -20.5t-24 -30t-16.5 -36q14 -12 39.5 -20.5t54.5 -8.5q36 0 65 12.5t49 32.5l2 -1l-14 -77q-17 -17 -38.5 -25t-44.5 -8
q-28 0 -53.5 9.5t-40.5 23.5l-2 -1q9 -41 16 -82t7 -95q0 -19 -0.5 -39t-1.5 -39t-2.5 -35.5t-2.5 -28.5l-44 -27h-2q2 24 3 49.5t1 67.5q0 93 -26 183t-87 194z" />
    <glyph glyph-name="uni06F5.tnum" 
d="M210 567h4q50 -44 88 -94.5t64 -102.5t39 -102.5t13 -93.5q0 -35 -9.5 -64.5t-25 -50.5t-35 -33t-39.5 -12q-23 0 -44.5 15.5t-33.5 40.5h-1q-24 -56 -68 -56q-22 0 -42.5 11t-36 31t-25 47.5t-9.5 60.5q0 70 36 148t114 179zM224 460q-37 -54 -62 -94.5t-40.5 -73.5
t-22 -60t-6.5 -53q0 -43 20 -65t48 -22q18 0 30 10.5t23 32.5q0 18 0.5 35.5t2.5 27.5l26 15h2q4 -37 10.5 -60.5t15.5 -37t20 -18.5t25 -5q25 0 41.5 23.5t16.5 61.5q0 59 -34.5 130.5t-115.5 152.5z" />
    <glyph glyph-name="uni06F6.tnum" 
d="M74 -9q22 86 55 158.5t75 126.5v2q-49 15 -80.5 50.5t-31.5 80.5q0 24 11.5 51.5t30.5 51.5t44 39.5t52 15.5q32 0 61 -25.5t50 -68.5l-16 -12q-17 13 -40 22.5t-49 9.5q-14 0 -29.5 -4.5t-30 -12.5t-26.5 -18t-19 -20q13 -44 44 -69.5t86 -34.5q12 10 28.5 21.5t35 22.5
t37 20.5t34.5 15.5l3 -3l-20 -79q-46 -25 -83 -52.5t-68.5 -64.5t-60 -86.5t-57.5 -116.5l-34 -21h-2v0z" />
    <glyph glyph-name="uni06F7.tnum" 
d="M410 479q-61 -75 -99.5 -184.5t-57.5 -265.5l-49 -39h-4q-8 161 -49 280t-123 209l34 88h2q32 -31 60 -77.5t49 -101.5t34.5 -115t18.5 -119h4q7 58 21 118t32.5 114.5t41 101.5t46.5 79h3z" />
    <glyph glyph-name="uni06F8.tnum" 
d="M381 -10h-3q-24 32 -46.5 79t-41 101.5t-32.5 114.5t-21 118h-4q-5 -59 -18.5 -119t-34.5 -115t-49 -101.5t-60 -77.5h-2l-34 88q82 90 123 209t49 280h4l49 -39q19 -156 57.5 -265.5t99.5 -184.5z" />
    <glyph glyph-name="uni06F9.tnum" 
d="M255 285q-5 -1 -10 -1h-10q-44 -1 -76.5 8.5t-53.5 27.5t-31 42t-10 52q0 30 9 57.5t25 48.5t36 34t43 13q22 0 44 -14t39 -43t27.5 -73t10.5 -104q0 -47 5 -83t15.5 -65t27 -54.5t39.5 -51.5l-24 -91h-3q-53 49 -78.5 120t-24.5 177zM254 360q-3 34 -12.5 59.5t-22 42.5
t-27 25.5t-27.5 8.5q-12 0 -23 -7.5t-20 -20.5t-15.5 -29t-8.5 -32q13 -21 42.5 -34t77.5 -14h17t19 1z" />
    <glyph glyph-name="uni06F0.tnum" 
d="M225 195q-14 20 -38 45t-48 42l78 77q13 -7 26 -17.5t24.5 -22.5t20.5 -24.5t15 -22.5z" />
    <glyph glyph-name="uniFB58.calt" horiz-adv-x="219" 
d="M138 331q22 -32 34 -73.5t12 -82.5q0 -27 -9.5 -59t-30.5 -62q-20 -31 -59 -46t-85 -15q-11 0 -19 8.5t-8 30.5q0 18 7 29t20 11q44 0 77 8t60 24q-6 44 -20 81.5t-31 59.5zM98 -294q-18 7 -36 20t-29 27l42 58q12 -15 30.5 -27t38.5 -19zM126 -188q-14 6 -30.5 18
t-28.5 25l-34 -50q-16 7 -35.5 20.5t-31.5 30.5l46 61q10 -13 25 -27t29 -22l39 56q13 -15 33 -29.5t34 -21.5z" />
    <glyph glyph-name="uniFBFE.calt" horiz-adv-x="219" 
d="M138 331q22 -32 34 -73.5t12 -82.5q0 -27 -9.5 -59t-30.5 -62q-20 -31 -59 -46t-85 -15q-11 0 -19 8.5t-8 30.5q0 18 7 29t20 11q44 0 77 8t60 24q-6 44 -20 81.5t-31 59.5zM126 -188q-14 6 -30.5 18t-28.5 25l-34 -50q-16 7 -35.5 20.5t-31.5 30.5l46 61q10 -13 25 -27
t29 -22l39 56q13 -15 33 -29.5t34 -21.5z" />
    <glyph glyph-name="exclam" unicode="!" horiz-adv-x="227" 
d="M77 44q0 51 51 51q50 0 50 -51t-50 -51q-27 0 -39 13t-12 38zM145 194q-2 -21 -7 -29.5t-16 -8.5h-8l-41 395l101 16z" />
    <glyph glyph-name="quotedbl" unicode="&#x22;" horiz-adv-x="286" 
d="M161 571q10 9 19.5 13.5t23.5 4.5t24 -4.5t19 -13.5l-30 -177h-26zM39 571q10 9 19.5 13.5t23.5 4.5t24 -4.5t19 -13.5l-30 -177h-26z" />
    <glyph glyph-name="numbersign" unicode="#" horiz-adv-x="488" 
d="M106 323h74l32 130h42l-32 -130h94l32 130h42l-32 -130h75l-12 -50h-75l-24 -97h73l-13 -50h-72l-35 -140h-42l35 140h-94l-34 -140h-42l34 140h-77l12 50h78l23 97h-74zM186 176h94l24 97h-94z" />
    <glyph glyph-name="dollar" unicode="$" 
d="M286 455q28 -2 53.5 -9.5t52.5 -19.5l-23 -79h-37l-13 46q-17 9 -35 13.5t-41 4.5q-32 0 -56.5 -17t-24.5 -47q0 -24 17 -39.5t42 -28.5t55 -25.5t55 -29.5t42 -41t17 -60q0 -48 -31 -82t-85 -43v-71h-58v69q-76 5 -148 44l29 91h39l7 -58q18 -16 46.5 -26t58.5 -10
q38 0 58 18.5t20 50.5q0 24 -17 40t-42 28.5t-55 25t-55 29t-42 40.5t-17 60q0 47 35 81.5t95 42.5v72h58v-70z" />
    <glyph glyph-name="percent" unicode="%" horiz-adv-x="674" 
d="M495 -7q-50 0 -82 29t-32 97t32 97t82 29q25 0 46 -7t36 -22t23.5 -39t8.5 -58t-8.5 -58t-23.5 -39t-36 -22t-46 -7zM495 21q50 0 50 98q0 51 -12 74t-38 23t-37.5 -23t-11.5 -74q0 -98 49 -98zM512 475l36 -30l-381 -465l-36 30zM179 209q-51 0 -82.5 29t-31.5 97
t32 96.5t82 28.5q25 0 46 -6.5t36 -21.5t23.5 -39t8.5 -58q0 -68 -32.5 -97t-81.5 -29zM179 237q49 0 49 98q0 51 -11.5 74t-37.5 23t-37.5 -23t-11.5 -74q0 -98 49 -98z" />
    <glyph glyph-name="ampersand" unicode="&#x26;" horiz-adv-x="543" 
d="M528 5q-11 -3 -28.5 -7.5t-38.5 -4.5q-64 0 -111 60q-29 -29 -64.5 -44.5t-77.5 -15.5q-30 0 -54.5 10t-41.5 26.5t-26 38.5t-9 47q0 45 26.5 86t86.5 71q-31 42 -45 72t-14 59q0 24 10 47t28 41.5t44 30t58 11.5q28 0 51 -8.5t39.5 -23.5t25 -34.5t8.5 -40.5
q0 -43 -33.5 -81.5t-92.5 -68.5l104 -147q11 26 15.5 63.5t2.5 76.5l57 30l7 -6q-2 -26 -7.5 -52.5t-14 -51t-19 -46.5t-22.5 -38q28 -31 60 -47t85 -21zM206 252q-60 -43 -60 -114q0 -43 24.5 -67t62.5 -24q29 0 53 9t43 23zM253 296q36 26 55.5 55t19.5 61q0 35 -19.5 56
t-48.5 21q-32 0 -49 -20t-17 -46q0 -13 2.5 -25t9 -26.5t18 -33t29.5 -42.5z" />
    <glyph glyph-name="quotesingle" unicode="'" horiz-adv-x="164" 
d="M39 571q10 9 19.5 13.5t23.5 4.5t24 -4.5t19 -13.5l-30 -177h-26z" />
    <glyph glyph-name="parenleft" unicode="(" horiz-adv-x="239" 
d="M224 602q-26 -28 -45.5 -63t-33 -80t-20 -101.5t-6.5 -125.5q0 -70 6.5 -124.5t20 -98t33 -77t45.5 -60.5l-17 -39q-41 35 -72.5 75.5t-52.5 89t-32 106.5t-11 128q0 139 42.5 234t125.5 164z" />
    <glyph glyph-name="parenright" unicode=")" horiz-adv-x="239" 
d="M32 630q82 -69 125 -164t43 -234q0 -70 -11 -128t-32 -106.5t-52.5 -89t-72.5 -75.5l-17 39q26 27 45.5 60.5t33 77t20 98t6.5 124.5q0 69 -6.5 125.5t-20 101.5t-33 80t-45.5 63z" />
    <glyph glyph-name="asterisk" unicode="*" horiz-adv-x="393" 
d="M159 599q20 15 39 15q17 0 26 -10.5t9 -27.5q0 -16 -8 -48.5t-22 -67.5l123 72q12 -8 20 -20.5t8 -24.5q0 -23 -25 -32t-86 -9h-18t-17 1l105 -94q-5 -17 -17 -29.5t-26 -12.5q-22 0 -39.5 32t-34.5 96l-57 -130q-22 0 -38.5 10t-16.5 28q0 35 101 101l-142 13
q-4 11 -4 24q0 20 10 31t25 11t44.5 -17.5t70.5 -49.5l-30 139v0z" />
    <glyph glyph-name="plus" unicode="+" 
d="M62 248h140v147h57v-147h140v-54h-140v-147h-57v147h-140v54z" />
    <glyph glyph-name="comma" unicode="," horiz-adv-x="255" 
d="M100 109q37 -13 58.5 -38.5t21.5 -55.5q0 -37 -21 -74t-75 -78l-21 21q30 33 40 57t12 40l-64 47l49 81v0z" />
    <glyph glyph-name="hyphen" unicode="-" horiz-adv-x="315" 
d="M283 219q0 -24 -18 -33.5t-48 -9.5h-181v20q0 24 18.5 34.5t44.5 10.5h184v-22z" />
    <glyph glyph-name="period" unicode="." horiz-adv-x="279" 
d="M85 49q0 55 55 55q26 0 40 -14.5t14 -40.5t-13.5 -40t-40.5 -14q-55 0 -55 54z" />
    <glyph glyph-name="slash" unicode="/" horiz-adv-x="291" 
d="M238 609l53 -21l-239 -676l-52 19z" />
    <glyph glyph-name="colon" unicode=":" horiz-adv-x="267" 
d="M85 325q0 55 55 55q26 0 40 -14.5t14 -40.5t-13.5 -40t-40.5 -14q-55 0 -55 54zM85 49q0 55 55 55q26 0 40 -14.5t14 -40.5t-13.5 -40t-40.5 -14q-55 0 -55 54z" />
    <glyph glyph-name="semicolon" unicode=";" horiz-adv-x="277" 
d="M119 109q37 -13 58.5 -38.5t21.5 -55.5q0 -37 -21 -74t-75 -78l-21 21q30 33 40 57t12 40l-64 47l49 81v0zM85 325q0 55 55 55q26 0 40 -14.5t14 -40.5t-13.5 -40t-40.5 -14q-55 0 -55 54z" />
    <glyph glyph-name="less" unicode="&#x3c;" 
d="M400 -10l-339 196v64l339 196v-65l-286 -163l286 -163v-65z" />
    <glyph glyph-name="equal" unicode="=" 
d="M62 133v54h337v-54h-337zM62 248v54h337v-54h-337z" />
    <glyph glyph-name="greater" unicode="&#x3e;" 
d="M60 55l286 163l-286 163v65l339 -196v-64l-339 -196v65z" />
    <glyph glyph-name="question" unicode="?" horiz-adv-x="372" 
d="M173 149q-23 17 -36.5 36t-13.5 39q0 12 4 24t13.5 26t25 30.5t38.5 38.5q21 19 34.5 34.5t22 29t12 26.5t3.5 27q0 17 -5 30.5t-12 22.5q-8 6 -16.5 9t-25.5 3q-12 0 -25.5 -3t-29.5 -10.5t-36 -21.5t-46 -35l-50 57q45 35 83.5 49.5t83.5 14.5q32 0 59 -9.5t46.5 -26
t30.5 -38.5t11 -48q0 -15 -2.5 -31t-11 -33.5t-24.5 -37.5t-43 -44q-24 -21 -39 -36t-24 -26.5t-12 -20t-3 -17.5q0 -14 5.5 -25.5t15.5 -23.5zM142 44q0 51 51 51q50 0 50 -51t-50 -51q-27 0 -39 13t-12 38z" />
    <glyph glyph-name="at" unicode="@" horiz-adv-x="683" 
d="M466 346q-7 -27 -12.5 -56t-9.5 -56t-6 -51.5t-2 -42.5q0 -35 10.5 -50t31.5 -15q20 0 39 10t33.5 31.5t23.5 56t9 82.5q0 44 -14 80t-39.5 61.5t-62 39.5t-81.5 14q-56 0 -104.5 -24t-85 -65.5t-57.5 -97t-21 -118.5q0 -49 15 -84t41 -57.5t62.5 -33t79.5 -10.5
q41 0 70.5 5.5t50.5 15.5l13 -21q-29 -21 -65.5 -32.5t-87.5 -11.5q-115 0 -180.5 59t-65.5 167q0 62 24.5 124.5t69.5 113t109 82.5t143 32q50 0 93.5 -15.5t76 -45t51 -73t18.5 -99.5q0 -57 -14.5 -100.5t-38 -73t-52.5 -44.5t-59 -15q-43 0 -65 28.5t-18 85.5
q-32 -52 -59 -75t-55 -23q-25 0 -44 23.5t-19 74.5q0 33 13 72.5t34 73t48.5 56t56.5 22.5q24 0 50 -5.5t52 -14.5zM401 302q-13 6 -28.5 9t-25.5 3q-7 0 -11 -0.5t-7 -1.5q-11 -6 -21 -20t-17.5 -34t-12 -44t-4.5 -49q0 -35 7.5 -47.5t22.5 -12.5q17 0 40.5 26.5t39.5 78.5
q8 23 11.5 45.5t5.5 46.5z" />
    <glyph glyph-name="A" unicode="A" horiz-adv-x="554" 
d="M13 30q28 7 47.5 23t33.5 54l150 418l66 15l179 -496l65 -14l-8 -30h-190l8 30l40 14l-41 117h-197l-45 -117l47 -14l-6 -30h-157zM347 205l-84 241l-84 -241h168z" />
    <glyph glyph-name="B" unicode="B" horiz-adv-x="513" 
d="M250 527q51 0 86.5 -10.5t58 -28t33 -41t10.5 -49.5q0 -42 -25.5 -73t-76.5 -45v-3q65 -8 98.5 -42.5t33.5 -83.5q0 -35 -14.5 -63t-40.5 -47.5t-62 -30t-80 -10.5h-223l8 30q29 6 38.5 18.5t9.5 38.5v396l-71 15l6 29h211zM184 44h63q72 0 103.5 22.5t31.5 78.5
q0 51 -38 80.5t-112 29.5h-48v-211zM229 295q66 0 95.5 23.5t29.5 72.5q0 92 -130 92h-40v-188h45z" />
    <glyph glyph-name="C" unicode="C" horiz-adv-x="513" 
d="M461 406h-33l-12 52q-19 11 -46 19t-62 8q-36 0 -67 -14t-54.5 -41.5t-36.5 -69.5t-13 -99q0 -54 13 -95t36.5 -69.5t56 -43t71.5 -14.5q30 0 56.5 6.5t46.5 22.5l28 65h35l-10 -99q-38 -22 -78 -33.5t-96 -11.5q-55 0 -101 19t-79 53.5t-51 82.5t-18 107
q0 57 20.5 108.5t56.5 90.5t85.5 62t107.5 23q53 0 95 -9t74 -23z" />
    <glyph glyph-name="D" unicode="D" horiz-adv-x="570" 
d="M56 30q29 6 38.5 18t9.5 38v397l-71 15l6 29h200q140 0 212 -65t72 -185q0 -65 -19.5 -116t-55.5 -87t-87 -55t-114 -19h-199zM217 44q107 0 161.5 47t54.5 161q0 120 -54.5 175.5t-166.5 55.5h-28v-439h33z" />
    <glyph glyph-name="E" unicode="E" 
d="M56 30q29 6 38.5 18.5t9.5 39.5v395l-71 15l6 29h378l-28 -110h-31l-9 56l-165 10v-184h170l-11 -44h-159v-211l177 13l32 61h32l-19 -118h-358z" />
    <glyph glyph-name="F" unicode="F" horiz-adv-x="428" 
d="M56 30q29 6 38.5 18.5t9.5 39.5v395l-71 15l6 29h368l-28 -110h-31l-9 56l-155 10v-184h170l-11 -44h-159v-211l90 -14l-5 -30h-221z" />
    <glyph glyph-name="G" unicode="G" horiz-adv-x="539" 
d="M489 37q-44 -24 -89 -36t-104 -12q-55 0 -101 19t-79 53.5t-51 82.5t-18 107q0 57 20.5 108.5t56.5 90.5t85.5 62t107.5 23q53 0 95 -9t74 -23l-25 -97h-33l-14 53q-17 11 -44 18.5t-61 7.5q-36 0 -67.5 -14t-55 -41.5t-36.5 -69.5t-13 -99q0 -54 13 -95t36.5 -69.5
t56 -43t71.5 -14.5q55 0 95 23v145l-100 12l5 32h175v-214z" />
    <glyph glyph-name="H" unicode="H" horiz-adv-x="643" 
d="M56 30q29 6 38.5 18.5t9.5 38.5v396l-71 15l6 29h198l-6 -29q-28 -7 -37.5 -19.5t-9.5 -38.5v-141h276v184l-70 15l5 29h198l-6 -29q-29 -7 -38 -19.5t-9 -38.5v-396l70 -14l-8 -30h-197l8 30q29 6 38 18.5t9 38.5v168h-276v-211l70 -14l-7 -30h-199z" />
    <glyph glyph-name="I" unicode="I" horiz-adv-x="287" 
d="M56 30q29 6 38.5 18.5t9.5 38.5v396l-71 15l6 29h198l-6 -29q-28 -7 -37.5 -19.5t-9.5 -38.5v-396l70 -14l-7 -30h-199z" />
    <glyph glyph-name="J" unicode="J" horiz-adv-x="238" 
d="M-12 -197q30 20 53.5 44.5t38.5 54.5q3 20 4 54.5t1 64.5v462l-70 15l5 29h200l-8 -29q-28 -7 -37.5 -19t-9.5 -38v-441q0 -51 -8 -87t-26 -62t-48.5 -45t-75.5 -36z" />
    <glyph glyph-name="K" unicode="K" horiz-adv-x="540" 
d="M398 483l-61 15l6 29h185l-6 -29q-19 -2 -32.5 -5t-24.5 -10t-22.5 -18.5t-25.5 -30.5l-115 -151l126 -183q12 -18 23 -30t23 -19.5t25.5 -11.5t30.5 -5l-7 -32q-9 -3 -25 -6t-34 -3q-17 0 -30 3t-26.5 12.5t-28 27.5t-34.5 47l-119 174zM56 30q29 6 38.5 18.5t9.5 38.5
v396l-71 15l6 29h198l-6 -29q-28 -7 -37.5 -19.5t-9.5 -38.5v-396l70 -14l-7 -30h-199z" />
    <glyph glyph-name="L" unicode="L" horiz-adv-x="438" 
d="M56 30q29 6 38.5 18.5t9.5 39.5v395l-71 15l6 29h200l-8 -29q-28 -7 -37.5 -19.5t-9.5 -38.5v-396l174 11l32 76h35l-19 -131h-358z" />
    <glyph glyph-name="M" unicode="M" horiz-adv-x="739" 
d="M38 30q13 3 21.5 7.5t13.5 12t8 20t5 32.5l39 381l-62 15l6 29h127l171 -411l178 411h124l-7 -29q-34 -5 -42 -18.5t-5 -48.5l33 -387l71 -14l-7 -30h-199l8 30q29 6 39.5 18.5t8.5 38.5l-22 257q-2 25 -3.5 40t-2.5 29h-1q-5 -14 -11 -30.5t-14 -34.5l-142 -331h-42
l-143 335q-10 23 -16 37t-9 24h-1q0 -8 -1 -29.5t-3 -44.5l-24 -295l71 -14l-6 -30h-169z" />
    <glyph glyph-name="N" unicode="N" horiz-adv-x="605" 
d="M56 30q29 6 38.5 18.5t9.5 38.5v396l-71 15l6 29h112l279 -334q17 -20 25 -30t14 -18l1 1q-1 17 -1 31.5v43.5v262l-51 15l5 29h154l-8 -29q-29 -7 -38.5 -19t-9.5 -38v-441h-40l-291 352q-24 28 -35 44l-1 -1q1 -13 1.5 -26.5t0.5 -36.5v-288l65 -14l-5 -30h-168z" />
    <glyph glyph-name="O" unicode="O" horiz-adv-x="599" 
d="M137 261q0 -103 43.5 -162.5t127.5 -59.5q33 0 61 11.5t48.5 37.5t32.5 68t12 103q0 103 -43 164.5t-127 61.5q-33 0 -61 -12.5t-49 -39.5t-33 -69.5t-12 -102.5zM298 -11q-56 0 -102 17.5t-79 50.5t-51.5 80t-18.5 106q0 61 20.5 114.5t56.5 93t84.5 62t104.5 22.5
t100.5 -18t75 -52t47 -81.5t16.5 -106.5t-19 -111.5t-52.5 -91.5t-80.5 -62t-102 -23z" />
    <glyph glyph-name="P" unicode="P" horiz-adv-x="467" 
d="M56 30q29 6 38.5 18t9.5 38v397l-71 15l6 29h208q95 0 147.5 -40t52.5 -106q0 -45 -17 -78.5t-46.5 -56t-70 -33.5t-86.5 -11h-43v-158l80 -14l-5 -30h-211zM184 241h21q79 0 117.5 34.5t38.5 94.5q0 58 -36 88t-101 30h-40v-247z" />
    <glyph glyph-name="Q" unicode="Q" horiz-adv-x="599" 
d="M676 -111q-30 -20 -60.5 -29.5t-65.5 -9.5q-28 0 -53.5 6t-53.5 22t-61 42.5t-76 68.5q-53 0 -100.5 17.5t-82.5 50.5t-55.5 80t-20.5 106q0 61 20.5 114.5t56.5 93t84.5 62t104.5 22.5q55 0 99.5 -18t75.5 -52t47.5 -81.5t16.5 -106.5q0 -48 -12 -91.5t-34.5 -79.5
t-55 -63t-72.5 -42q36 -29 63.5 -47.5t50.5 -29.5t43 -15.5t41 -4.5q29 0 49 3.5t40 10.5zM308 39q33 0 61 11.5t48.5 37.5t32.5 68t12 103q0 51 -11 93t-32.5 72t-53 46t-73.5 16q-33 0 -61 -12.5t-49 -39.5t-33 -70t-12 -103q0 -103 43.5 -162.5t127.5 -59.5z" />
    <glyph glyph-name="R" unicode="R" horiz-adv-x="545" 
d="M56 30q29 6 38.5 18t9.5 38v397l-71 15l6 29h211q100 0 150.5 -40t50.5 -108q0 -43 -26 -80.5t-76 -57.5l92 -140q13 -20 22.5 -32.5t19 -20t20 -11t25.5 -4.5l-7 -32q-9 -3 -20 -6t-29 -3q-29 0 -53 17.5t-56 68.5l-91 144h-88v-178l70 -14l-5 -30h-201zM184 261h66
q54 0 84.5 27t30.5 87q0 58 -39.5 85t-108.5 27h-33v-226z" />
    <glyph glyph-name="S" unicode="S" horiz-adv-x="441" 
d="M73 145h37l7 -63q23 -20 52 -32t66 -12q45 0 71.5 21.5t26.5 53.5q0 14 -5.5 27.5t-20.5 28.5t-40.5 32t-65.5 38q-37 20 -61.5 38t-38.5 36t-20 36.5t-6 38.5q0 27 12.5 53.5t35 47t54 33.5t69.5 13q39 0 74 -10.5t64 -26.5l-24 -88h-31l-9 55q-32 21 -87 21
q-40 0 -67 -21t-27 -49q0 -12 4 -23t17 -23t35.5 -27t60.5 -36q42 -24 69.5 -44.5t43 -40t21.5 -39.5t6 -43q0 -35 -13.5 -62.5t-37 -47.5t-54.5 -30.5t-66 -10.5q-48 0 -95 15.5t-85 37.5z" />
    <glyph glyph-name="T" unicode="T" horiz-adv-x="490" 
d="M157 30q29 6 38.5 18.5t9.5 38.5v401l-128 -15l-10 -66h-33l-24 120h470l-24 -120h-33l-10 66l-128 15v-444l70 -14l-5 -30h-201z" />
    <glyph glyph-name="U" unicode="U" horiz-adv-x="588" 
d="M231 527l-8 -29q-28 -7 -37.5 -19t-9.5 -38v-237q0 -83 36 -120.5t107 -37.5q31 0 57 9t44.5 29t28.5 52t10 77v270l-64 15l5 29h167l-7 -29q-29 -7 -38.5 -19.5t-9.5 -38.5v-222q0 -118 -53.5 -173.5t-153.5 -55.5q-114 0 -161.5 52.5t-47.5 169.5v272l-71 15l5 29h201z
" />
    <glyph glyph-name="V" unicode="V" horiz-adv-x="530" 
d="M202 527l-6 -29l-46 -15l117 -325q8 -23 13 -37.5t9 -26.5h1q3 12 7.5 26t12.5 37l115 326l-55 15l5 29h155l-6 -29q-14 -3 -23.5 -7.5t-17 -13t-14.5 -23t-16 -38.5l-150 -416h-62l-179 483l-57 15l6 29h191z" />
    <glyph glyph-name="W" unicode="W" horiz-adv-x="749" 
d="M199 527l-6 -29l-47 -15l94 -325q5 -17 9 -33.5t6 -29.5h1q3 16 6 28t6 23l103 360h57l102 -339q9 -30 13.5 -45.5t6.5 -26.5h1q2 11 6 26t12 46l81 316l-50 15l6 29h143l-6 -29q-12 -3 -21 -6.5t-15.5 -12t-12.5 -23.5t-13 -40l-111 -416h-66l-101 331q-12 40 -17 75h-1
q-2 -17 -7 -35.5t-10 -38.5l-94 -332h-70l-144 483l-55 15l6 29h188z" />
    <glyph glyph-name="X" unicode="X" horiz-adv-x="553" 
d="M17 30q15 3 27 7.5t22 12.5t20 20t22 29l119 172l-145 212l-61 15l6 29h219l-8 -29l-59 -15l116 -173l123 173l-60 15l6 29h165l-6 -29q-28 -5 -44.5 -16t-33.5 -35l-121 -170l158 -233l61 -14l-6 -30h-217l5 30l63 15l-132 191l-133 -193l73 -13l-4 -30h-182z" />
    <glyph glyph-name="Y" unicode="Y" horiz-adv-x="487" 
d="M187 527l-6 -29l-35 -15l123 -215l118 215l-58 15l6 29h152l-7 -29q-12 -3 -21 -7t-17 -11.5t-16.5 -20t-19.5 -31.5l-114 -209v-175l70 -14l-5 -30h-200l8 30q29 6 38 18.5t9 38.5v128l-155 268l-52 15l6 29h176z" />
    <glyph glyph-name="Z" unicode="Z" horiz-adv-x="473" 
d="M30 32l302 451l-219 -10l-15 -53h-26l-21 107h363l15 -33l-299 -450l244 14l31 60h38l-19 -118h-384z" />
    <glyph glyph-name="bracketleft" unicode="[" horiz-adv-x="221" 
d="M206 586q-20 -2 -45 -9.5t-39 -15.5q-6 -39 -9 -119t-3 -217t3 -217t9 -119q14 -8 39 -16t45 -11v-36q-45 5 -81.5 15.5t-65.5 26.5q-8 38 -14 123t-6 234q0 75 1.5 131t4.5 98.5t6.5 73.5t7.5 54q29 15 65.5 26t81.5 16v-38z" />
    <glyph glyph-name="backslash" unicode="\" horiz-adv-x="291" 
d="M291 -69l-52 -19l-239 676l53 21z" />
    <glyph glyph-name="bracketright" unicode="]" horiz-adv-x="221" 
d="M15 624q45 -5 81.5 -16t65.5 -26q3 -23 6.5 -54t6.5 -73.5t5 -98.5t2 -131q0 -149 -6.5 -234t-13.5 -123q-29 -16 -65.5 -26.5t-81.5 -15.5v36q20 3 45 11t39 16q6 39 9 119t3 217t-3 217t-9 119q-14 8 -39 15.5t-45 9.5v38z" />
    <glyph glyph-name="asciicircum" unicode="^" horiz-adv-x="537" 
d="M58 189l188 338h47l186 -338h-64l-148 286l-144 -286h-65z" />
    <glyph glyph-name="underscore" unicode="_" horiz-adv-x="500" 
d="M0 -35h500v-50h-500v50z" />
    <glyph glyph-name="grave" unicode="`" horiz-adv-x="350" 
d="M224 445l-66 50q-37 28 -49.5 46t-12.5 33q0 16 11.5 28.5t29.5 17.5l107 -156z" />
    <glyph glyph-name="a" unicode="a" horiz-adv-x="393" 
d="M43 344q38 26 75.5 37.5t80.5 11.5q52 0 88 -35.5t36 -98.5v-207l55 -15v-13q-10 -13 -27.5 -22.5t-32.5 -9.5q-24 0 -40.5 13t-24.5 42q-23 -26 -52.5 -40.5t-61.5 -14.5q-22 0 -41.5 7t-34.5 21t-24 34.5t-9 47.5q0 20 8.5 40t22.5 31q23 18 68 33t119 25v15
q0 48 -14.5 74t-40.5 37q-46 -14 -109 -70zM248 187q-20 0 -39.5 -1.5t-37.5 -4.5t-32 -6.5t-23 -7.5q-11 -22 -11 -55q0 -32 15 -50t47 -18q26 0 47 10t35 27q0 11 -0.5 28t-0.5 37v41z" />
    <glyph glyph-name="b" unicode="b" horiz-adv-x="454" 
d="M142 69q17 -16 43 -25.5t52 -9.5q17 0 31 3t24 8q47 50 47 153q0 34 -8 61.5t-21.5 47t-30 29.5t-34.5 10q-23 0 -51 -16t-52 -47v-214zM67 507l-67 14l7 30l135 16v-205q0 -10 -1 -20.5t-3 -16.5q31 37 65 53.5t69 16.5q31 0 57.5 -12.5t46.5 -36t31.5 -57.5t11.5 -76
q0 -53 -16 -94t-44 -70t-66 -44t-82 -15q-17 0 -36.5 3t-38.5 8t-36.5 12t-32.5 16v478z" />
    <glyph glyph-name="c" unicode="c" horiz-adv-x="336" 
d="M313 15q-21 -11 -50.5 -18t-56.5 -7q-82 0 -128 44.5t-46 135.5q0 48 14 89t39 71t59.5 46.5t74.5 16.5q62 0 104 -24l-19 -86h-34l-11 44q-21 16 -59 16q-16 0 -33.5 -3.5t-28.5 -8.5q-11 -20 -18.5 -57.5t-7.5 -83.5q0 -79 34.5 -114.5t97.5 -35.5q17 0 32.5 2.5
t27.5 5.5z" />
    <glyph glyph-name="d" unicode="d" horiz-adv-x="467" 
d="M313 307q-20 20 -42 32t-51 12q-32 0 -59 -12q-22 -23 -34 -61.5t-12 -91.5q0 -76 30.5 -111.5t72.5 -35.5q27 0 50 14.5t45 47.5v206zM333 -12l-18 68q-27 -37 -58 -52t-72 -15q-30 0 -57 12t-48 35.5t-33 57t-12 75.5q0 40 12 80.5t37.5 72.5t65 52.5t93.5 20.5
q20 0 38.5 -5.5t33.5 -14.5q-1 5 -1.5 14t-0.5 15v103l-67 14l7 30l135 16v-525l64 -12l-6 -30z" />
    <glyph glyph-name="e" unicode="e" horiz-adv-x="378" 
d="M326 18q-23 -13 -54 -20.5t-66 -7.5q-78 0 -126 46.5t-48 133.5q0 48 13.5 89.5t38 71.5t59 47t76.5 17q61 0 95.5 -32t34.5 -92q0 -17 -5 -41t-12 -40h-220q2 -79 36 -115t103 -36q19 0 35 2.5t31 7.5zM270 233q2 9 3 18.5t1 20.5q0 38 -18.5 60t-48.5 22q-31 0 -61 -15
q-11 -18 -21.5 -49t-12.5 -68z" />
    <glyph glyph-name="f" unicode="f" horiz-adv-x="280" 
d="M52 30q23 5 33 14t10 29v262l-83 20l8 28h75q1 53 15 88.5t41 56.5t68.5 30t98.5 9h8l-22 -73q-18 5 -40 8t-40 3q-26 0 -42 -4q-6 -16 -9 -38.5t-3 -58.5v-21h101l-10 -48h-91v-291l70 -14l-6 -30h-190z" />
    <glyph glyph-name="g" unicode="g" horiz-adv-x="407" 
d="M202 167q33 0 53 18.5t20 69.5q0 50 -22 76.5t-62 26.5q-32 0 -52.5 -22.5t-20.5 -70.5q0 -50 23 -74t61 -24zM89 -37q0 -43 25.5 -68.5t78.5 -25.5q49 0 82 20.5t33 52.5q0 26 -26.5 42t-80.5 16h-55q-46 0 -68.5 15.5t-30.5 43.5l63 90q-29 14 -48 42t-19 60
q0 29 11.5 55.5t32.5 46t50 31t64 11.5q58 0 97 -27q14 31 28 44t28 13t27 -13.5t21 -43.5l-83 -17q14 -17 22.5 -38.5t8.5 -44.5q0 -31 -12 -56.5t-33 -43.5t-49 -28t-60 -10q-15 0 -30.5 2.5t-26.5 5.5l-22 -73h103q78 0 117.5 -29t39.5 -69q0 -28 -13.5 -53t-39 -44.5
t-63 -31t-85.5 -11.5q-75 0 -118 25t-43 57q0 22 21 40.5t53 23.5v-10z" />
    <glyph glyph-name="h" unicode="h" horiz-adv-x="482" 
d="M40 30q23 5 32.5 14t9.5 29v434l-67 14l6 30l136 16v-183q0 -35 -5 -60q50 39 81.5 53.5t59.5 14.5q49 0 78 -30.5t29 -90.5v-227l64 -14l-6 -30h-183l8 30q23 5 32.5 14t9.5 29v168q0 38 -13 60.5t-37 33.5q-29 -3 -56 -13t-62 -30v-248l64 -14l-6 -30h-183z" />
    <glyph glyph-name="i" unicode="i" horiz-adv-x="251" 
d="M79 517q0 46 48 46q45 0 45 -46q0 -47 -45 -47q-26 0 -37 12t-11 35zM49 30q23 5 33 14t10 29v258l-67 15l7 29l135 17v-348l64 -14l-6 -30h-183z" />
    <glyph glyph-name="j" unicode="j" horiz-adv-x="230" 
d="M18 -146q21 19 39.5 40t28.5 38q1 13 1.5 22t1 16.5t0.5 16.5v23v321l-67 15l7 29l135 17v-369q0 -39 -6 -67t-20 -50t-38.5 -40.5t-60.5 -38.5zM77 517q0 46 48 46q45 0 45 -46q0 -47 -45 -47q-26 0 -37 12t-11 35z" />
    <glyph glyph-name="k" unicode="k" horiz-adv-x="458" 
d="M448 10q-27 -15 -59 -15q-11 0 -22 2.5t-22.5 9.5t-25 20t-29.5 34l-112 143l122 143l-50 7l6 29h180l-6 -29q-22 -1 -38 -5t-30.5 -12t-28.5 -21t-31 -32l-52 -61l100 -122q16 -20 28 -32t23.5 -19t23.5 -10.5t28 -4.5zM40 30q23 5 32.5 14t9.5 29v434l-66 14l6 30
l135 16v-523l65 -14l-6 -30h-184z" />
    <glyph glyph-name="l" unicode="l" horiz-adv-x="236" 
d="M39 30q23 5 32.5 14t9.5 29v434l-66 14l6 30l135 16v-523l65 -14l-6 -30h-184z" />
    <glyph glyph-name="m" unicode="m" horiz-adv-x="725" 
d="M49 30q23 5 33 14t10 29v258l-67 15l7 29l112 17l18 -68q51 39 82 53.5t59 14.5q35 0 58.5 -18t37.5 -51q25 21 44.5 34t35.5 21t29.5 11t27.5 3q49 0 78 -30.5t29 -90.5v-227l64 -14l-6 -30h-183l8 30q23 5 32.5 14t9.5 29v168q0 74 -48 94q-26 -2 -53 -12.5t-62 -30.5
v-248l64 -14l-5 -30h-184l8 30q23 5 32.5 14t9.5 29v168q0 42 -11.5 63t-37.5 31q-26 -2 -52.5 -12.5t-61.5 -30.5v-248l64 -14l-6 -30h-183z" />
    <glyph glyph-name="n" unicode="n" horiz-adv-x="492" 
d="M49 30q23 5 33 14t10 29v258l-67 15l7 29l112 17l18 -68q51 39 82 53.5t59 14.5q49 0 78 -30.5t29 -90.5v-227l64 -14l-6 -30h-183l8 30q23 5 32.5 14t9.5 29v168q0 38 -13 60.5t-37 33.5q-29 -3 -56 -13t-62 -30v-248l64 -14l-6 -30h-183z" />
    <glyph glyph-name="o" unicode="o" horiz-adv-x="438" 
d="M212 -10q-87 0 -132 49t-45 131q0 44 12 84.5t35.5 72t59 50t82.5 18.5q43 0 76.5 -13.5t56 -37.5t34.5 -57.5t12 -73.5q0 -47 -14 -87.5t-39.5 -70.5t-60.5 -47.5t-77 -17.5zM227 34q22 0 40 7.5t30.5 26t19 49t6.5 75.5q0 38 -9 67.5t-25 50t-36.5 31t-42.5 10.5
q-48 0 -71.5 -38t-23.5 -121q0 -78 33 -118t79 -40z" />
    <glyph glyph-name="p" unicode="p" horiz-adv-x="470" 
d="M157 82q20 -24 43 -35.5t58 -11.5q27 0 51 9q20 22 33 59t13 95q0 34 -8 61.5t-21 47t-29.5 29.5t-33.5 10q-27 0 -51 -11.5t-55 -42.5v-210zM40 -136q23 5 32.5 14t9.5 29v426l-66 15l6 29l112 15l20 -60q34 35 63.5 49t65.5 14q31 0 58.5 -12t48.5 -35.5t33 -57.5
t12 -77q0 -48 -16 -88.5t-42 -70t-60 -46.5t-71 -17q-58 0 -94 23q2 -6 3.5 -20.5t1.5 -29.5v-87l64 -13l-5 -31h-184z" />
    <glyph glyph-name="q" unicode="q" horiz-adv-x="453" 
d="M313 307q-36 44 -93 44q-32 0 -59 -12q-22 -23 -34 -61.5t-12 -91.5q0 -38 8 -65.5t22 -45.5t32.5 -27t39.5 -9q28 0 51 14.5t45 47.5v206zM226 -136q52 6 69.5 14.5t17.5 28.5v93q0 17 0.5 31t1.5 25q-27 -37 -58 -52t-71 -15q-30 0 -57.5 12t-48.5 35.5t-33 57
t-12 76.5q0 40 12 80t37.5 72t65 52.5t93.5 20.5t93 -31l20 31l32 -10v-508l45 -13l-5 -31h-208z" />
    <glyph glyph-name="r" unicode="r" horiz-adv-x="319" 
d="M47 30q23 5 33 14t10 29v258l-67 15l7 29l112 17l18 -68q31 35 60.5 51.5t49.5 16.5q15 0 26 -15t15 -47l-146 -33v-253l64 -14l-6 -30h-183z" />
    <glyph glyph-name="s" unicode="s" horiz-adv-x="342" 
d="M50 117h36l6 -49q39 -34 91 -34q27 0 44.5 13.5t17.5 34.5q0 12 -4.5 22t-16.5 21t-32 23t-50 29q-45 25 -64 50t-19 57q0 21 10 41t28 35.5t43.5 25t56.5 9.5q34 0 61.5 -7t50.5 -18l-19 -80h-31l-10 42q-14 9 -30.5 14t-36.5 5q-15 0 -29 -2.5t-26 -7.5q-3 -5 -6.5 -13
t-3.5 -16q0 -10 3 -18t12 -17t26.5 -20t46.5 -27q58 -32 80.5 -60.5t22.5 -63.5q0 -52 -37 -84t-94 -32q-36 0 -74.5 11t-74.5 30z" />
    <glyph glyph-name="t" unicode="t" horiz-adv-x="303" 
d="M163 494v-111h110l-13 -48h-97v-214q0 -46 10 -60t36 -14q15 0 30 3.5t32 11.5l12 -35q-29 -19 -55.5 -26.5t-53.5 -7.5q-18 0 -34 4.5t-27.5 15.5t-18 30.5t-6.5 49.5v242l-83 20l8 28h75v98z" />
    <glyph glyph-name="u" unicode="u" horiz-adv-x="469" 
d="M146 383v-227q0 -65 16.5 -89.5t51.5 -24.5q29 0 52.5 13t43.5 42v242l-64 15l6 29h133v-341l64 -12l-5 -30l-114 -8l-18 66q-27 -35 -58 -50.5t-73 -15.5q-57 0 -83.5 32t-26.5 104v211l-56 15l5 29h126z" />
    <glyph glyph-name="v" unicode="v" horiz-adv-x="415" 
d="M45 347l-40 7l6 29h175l-6 -29l-50 -7l103 -266l94 266l-56 7l5 29h134l-5 -29q-17 -2 -27.5 -12.5t-18.5 -33.5l-112 -308h-66z" />
    <glyph glyph-name="w" unicode="w" horiz-adv-x="610" 
d="M187 383l-6 -29l-51 -7l81 -266l89 293h52l96 -293l70 266l-58 7l6 29h139l-6 -29q-10 -1 -17 -4t-12 -10t-10 -19t-10 -31l-79 -290h-71l-87 267l-83 -267h-71l-111 347l-43 7l6 29h176z" />
    <glyph glyph-name="x" unicode="x" horiz-adv-x="440" 
d="M6 29q18 3 31 6.5t23 10.5t19 17t21 26l76 106l-113 150l-42 9l6 29h176l-5 -29l-40 -9l80 -108l83 110l-39 7l6 29h147l-6 -29q-18 -2 -30.5 -4.5t-23 -8t-20 -14.5t-20.5 -23l-71 -94l124 -171l45 -10l-6 -29h-181l6 29l45 10l-92 127l-93 -127l52 -10l-5 -29h-159z
" />
    <glyph glyph-name="y" unicode="y" horiz-adv-x="420" 
d="M23 -116q55 16 98.5 48.5t63.5 74.5l-140 340l-40 7l6 29h175l-6 -29l-50 -7l100 -259l94 259l-53 7l5 29h139l-5 -29q-21 -3 -32 -14t-22 -40l-101 -262q-18 -46 -37.5 -80.5t-41 -60t-45.5 -42.5t-51 -28z" />
    <glyph glyph-name="z" unicode="z" horiz-adv-x="377" 
d="M20 28l229 315l-150 -6l-17 -52h-34l-12 98h305l4 -28l-230 -316l169 9l31 55h42l-18 -103h-309z" />
    <glyph glyph-name="braceleft" unicode="{" horiz-adv-x="222" 
d="M39 240q40 8 55.5 21t15.5 32t-7.5 40.5t-24.5 53.5t-25.5 53t-8.5 46q0 19 12 41t34 42t52 35.5t66 20.5l-17 -62q-26 -7 -53 -28t-41 -44q4 -18 13 -38.5t22 -49.5q14 -32 22.5 -55.5t8.5 -45.5q0 -58 -78 -79q38 -10 58 -30t20 -49q0 -22 -8.5 -45.5t-22.5 -55.5
q-14 -29 -22.5 -49.5t-12.5 -37.5q14 -24 41 -45t53 -28l17 -62q-36 5 -66 20.5t-52 35.5t-34 42t-12 41q0 25 8.5 46.5t25.5 53.5q17 31 24.5 52.5t7.5 40.5t-15.5 32t-55.5 21v34z" />
    <glyph glyph-name="bar" unicode="|" horiz-adv-x="400" 
d="M173 567h54v-616h-54v616z" />
    <glyph glyph-name="braceright" unicode="}" horiz-adv-x="222" 
d="M183 206q-40 -8 -55.5 -21t-15.5 -32t8 -40.5t25 -52.5q17 -32 25 -53.5t8 -46.5q0 -19 -12 -41t-34 -42t-51.5 -35.5t-65.5 -20.5l16 62q26 7 53 28t41 45q-3 17 -12 37.5t-23 49.5q-14 32 -22.5 55.5t-8.5 45.5q0 29 20 49t58 30q-78 21 -78 79q0 22 8.5 45.5
t22.5 55.5q13 29 22.5 49.5t12.5 38.5q-14 23 -41 44t-53 28l-16 62q36 -5 65.5 -20.5t51.5 -35.5t34 -42t12 -41q0 -25 -8 -46t-25 -53t-25 -53.5t-8 -40.5t15.5 -32t55.5 -21v-34z" />
    <glyph glyph-name="asciitilde" unicode="~" horiz-adv-x="488" 
d="M73 185q35 62 57.5 86.5t45.5 24.5q9 0 27.5 -8t45.5 -25q29 -18 44 -25t23 -7q10 0 18 3t17 10.5t20 20t25 31.5l19 -20q-35 -62 -58 -87t-44 -25q-10 0 -26.5 7t-42.5 23q-20 11 -32 18t-19.5 10.5t-12 5t-8.5 1.5q-9 0 -16.5 -2.5t-16.5 -9t-20 -19.5t-27 -34z" />
    <glyph glyph-name="Euro" unicode="&#x20ac;" 
d="M387 363h-3q-23 23 -50 34t-53 11q-15 0 -30 -2t-28 -7q-17 -16 -31.5 -46.5t-18.5 -62.5h202l-15 -45h-193q-1 -8 -1.5 -21.5t0.5 -24.5h179l-12 -46h-166q5 -53 37.5 -81.5t80.5 -28.5q37 0 67.5 14.5t51.5 36.5h1l22 -29v-1q-28 -32 -65 -51.5t-84 -19.5
q-78 0 -124.5 42t-60.5 118h-58l11 46h43q0 11 0.5 24.5t1.5 21.5h-67l15 45h64q26 90 77.5 130t130.5 40q37 0 69 -12.5t53 -32.5v-2z" />
    <glyph glyph-name="quotesinglbase" unicode="&#x201a;" horiz-adv-x="191" 
d="M120 86q17 -18 24.5 -38.5t7.5 -40.5q0 -32 -21 -66t-69 -77l-23 20q42 68 45 118l-26 46z" />
    <glyph glyph-name="florin" unicode="&#x192;" 
d="M78 42q8 -45 23 -62t33 -17q11 0 20 5.5t16 20.5t12 41.5t9 67.5l13 142q-38 5 -55 13t-19 22l-1 8l80 3q6 41 19.5 73t32 53.5t42 33t48.5 11.5q33 0 55 -13.5t22 -35.5q0 -11 -4.5 -21.5t-10.5 -18.5h-1q-25 19 -49 31t-41 12q-21 0 -30 -30t-13 -94l95 3l-12 -51h-87
l-14 -120q-14 -109 -52.5 -153.5t-94.5 -44.5q-38 0 -62 17.5t-24 43.5q0 17 13 34t36 26h1z" />
    <glyph glyph-name="quotedblbase" unicode="&#x201e;" horiz-adv-x="335" 
d="M264 86q17 -18 24.5 -38.5t7.5 -40.5q0 -32 -21 -66t-69 -77l-23 20q42 68 45 118l-26 46zM120 86q17 -18 24.5 -38.5t7.5 -40.5q0 -32 -21 -66t-69 -77l-23 20q42 68 45 118l-26 46z" />
    <glyph glyph-name="ellipsis" unicode="&#x2026;" horiz-adv-x="800" 
d="M71 49q0 55 55 55q26 0 40 -14.5t14 -40.5t-13.5 -40t-40.5 -14q-55 0 -55 54zM345 49q0 55 55 55q26 0 40 -14.5t14 -40.5t-13.5 -40t-40.5 -14q-55 0 -55 54zM619 49q0 55 55 55q26 0 40 -14.5t14 -40.5t-13.5 -40t-40.5 -14q-55 0 -55 54z" />
    <glyph glyph-name="dagger" unicode="&#x2020;" horiz-adv-x="389" 
d="M204 376l144 23q6 -6 11 -16.5t5 -20.5q0 -14 -7.5 -23.5t-24.5 -9.5q-20 0 -55.5 7.5t-72.5 21.5l27 -95l-29 -346h-20l-24 347l28 96l-144 -23q-6 6 -11.5 16.5t-5.5 20.5q0 15 7.5 24.5t24.5 9.5q20 0 55.5 -8t73.5 -22l-35 164q15 15 37 15q18 0 30 -10.5t15 -29.5z
" />
    <glyph glyph-name="daggerdbl" unicode="&#x2021;" horiz-adv-x="389" 
d="M186 360l-144 -23q-6 6 -11.5 16.5t-5.5 20.5q0 15 7.5 24.5t24.5 9.5q20 0 55.5 -8t73.5 -22l-35 164q15 15 37 15q18 0 30 -10.5t15 -29.5l-29 -141l144 23q6 -6 11 -16.5t5 -20.5q0 -14 -7.5 -23.5t-24.5 -9.5q-20 0 -55.5 7.5t-72.5 21.5l27 -122l-27 -123l144 24
q6 -7 11 -17.5t5 -20.5q0 -14 -7.5 -24t-24.5 -10q-19 0 -55 8.5t-73 22.5l34 -165q-8 -8 -17.5 -11t-18.5 -3q-38 0 -46 40l30 140l-144 -23q-6 7 -11 17.5t-5 19.5q0 14 7.5 24t24.5 10q19 0 54.5 -8t72.5 -21l-27 121z" />
    <glyph glyph-name="circumflex" unicode="&#x2c6;" horiz-adv-x="350" 
d="M301 478l-20 -23l-88 56l-18 30l-18 -30l-88 -56l-20 23l114 120h24z" />
    <glyph glyph-name="perthousand" unicode="&#x2030;" horiz-adv-x="947" 
d="M768 -7q-50 0 -82 29t-32 97t32 97t82 29q25 0 46 -7t36 -22t23.5 -39t8.5 -58t-8.5 -58t-23.5 -39t-36 -22t-46 -7zM768 21q50 0 50 98q0 51 -12 74t-38 23t-37.5 -23t-11.5 -74q0 -98 49 -98zM495 -7q-50 0 -82 29t-32 97t32 97t82 29q25 0 46 -7t36 -22t23.5 -39
t8.5 -58t-8.5 -58t-23.5 -39t-36 -22t-46 -7zM495 21q50 0 50 98q0 51 -12 74t-38 23t-37.5 -23t-11.5 -74q0 -98 49 -98zM512 475l36 -30l-381 -465l-36 30zM179 209q-51 0 -82.5 29t-31.5 97t32 96.5t82 28.5q25 0 46 -6.5t36 -21.5t23.5 -39t8.5 -58q0 -68 -32.5 -97
t-81.5 -29zM179 237q49 0 49 98q0 51 -11.5 74t-37.5 23t-37.5 -23t-11.5 -74q0 -98 49 -98z" />
    <glyph glyph-name="Scaron" unicode="&#x160;" horiz-adv-x="445" 
d="M264 583h-32l-136 74l20 28l108 -25l24 -30l24 30l108 25l20 -28zM73 145h37l7 -63q23 -20 52 -32t66 -12q45 0 71.5 21.5t26.5 53.5q0 14 -5.5 27.5t-20.5 28.5t-40.5 32t-65.5 38q-37 20 -61.5 38t-38.5 36t-20 36.5t-6 38.5q0 27 12.5 53.5t35 47t54 33.5t69.5 13
q39 0 74 -10.5t64 -26.5l-24 -88h-31l-9 55q-32 21 -87 21q-40 0 -67 -21t-27 -49q0 -12 4 -23t17 -23t35.5 -27t60.5 -36q42 -24 69.5 -44.5t43 -40t21.5 -39.5t6 -43q0 -35 -13.5 -62.5t-37 -47.5t-54.5 -30.5t-66 -10.5q-48 0 -95 15.5t-85 37.5z" />
    <glyph glyph-name="guilsinglleft" unicode="&#x2039;" horiz-adv-x="286" 
d="M70 220l144 142l2 -29l-63 -115l-48 -25l48 -25l63 -115l-2 -28l-144 142v53z" />
    <glyph glyph-name="OE" unicode="&#x152;" horiz-adv-x="729" 
d="M674 0h-292q-15 -5 -40.5 -8t-48.5 -3q-54 0 -99 17.5t-78 50.5t-51 80t-18 106q0 63 19 116.5t53.5 92.5t82 61t103.5 22q27 0 51.5 -3t45.5 -5h283l-28 -110h-31l-9 56l-165 10v-184h170l-11 -44h-159v-211l177 13l32 61h32zM372 473q-14 5 -31.5 8.5t-43.5 3.5
q-33 0 -62 -12.5t-50.5 -39.5t-34.5 -69.5t-13 -102.5q0 -50 11 -91t33 -70.5t53.5 -45.5t73.5 -16q21 0 35.5 1.5t28.5 5.5v428z" />
    <glyph glyph-name="Zcaron" unicode="&#x17d;" horiz-adv-x="517" 
d="M265 583h-32l-136 74l20 28l108 -25l24 -30l24 30l108 25l20 -28zM39 32l302 451l-219 -10l-15 -53h-26l-21 107h363l15 -33l-299 -450l244 14l31 60h38l-19 -118h-384z" />
    <glyph glyph-name="quoteleft" unicode="&#x2018;" horiz-adv-x="200" 
d="M66 365q-14 22 -20.5 40t-6.5 33q0 34 23 68t79 76l20 -22q-47 -64 -53 -114l23 -47z" />
    <glyph glyph-name="quoteright" unicode="&#x2019;" horiz-adv-x="191" 
d="M120 580q17 -18 24.5 -38.5t7.5 -40.5q0 -32 -21 -66t-69 -77l-23 20q42 68 45 118l-26 46z" />
    <glyph glyph-name="quotedblleft" unicode="&#x201c;" horiz-adv-x="341" 
d="M207 365q-14 22 -20.5 40t-6.5 33q0 34 23 68t79 76l20 -22q-47 -64 -53 -114l23 -47zM66 365q-14 22 -20.5 40t-6.5 33q0 34 23 68t79 76l20 -22q-47 -64 -53 -114l23 -47z" />
    <glyph glyph-name="quotedblright" unicode="&#x201d;" horiz-adv-x="330" 
d="M259 580q17 -18 24.5 -38.5t7.5 -40.5q0 -32 -21 -66t-69 -77l-23 20q42 68 45 118l-26 46zM120 580q17 -18 24.5 -38.5t7.5 -40.5q0 -32 -21 -66t-69 -77l-23 20q42 68 45 118l-26 46z" />
    <glyph glyph-name="bullet" unicode="&#x2022;" horiz-adv-x="347" 
d="M78 215q0 24 9 45t24.5 37t36.5 25t45 9t45 -9t37 -25t25 -37t9 -45t-9 -45t-25 -36.5t-37 -24.5t-45 -9t-45 9t-36.5 24.5t-24.5 36.5t-9 45z" />
    <glyph glyph-name="endash" unicode="&#x2013;" horiz-adv-x="500" 
d="M7 245h486v-55h-486v55z" />
    <glyph glyph-name="emdash" unicode="&#x2014;" horiz-adv-x="1000" 
d="M20 245h960v-55h-960v55z" />
    <glyph glyph-name="tilde" unicode="&#x2dc;" horiz-adv-x="350" 
d="M41 464q30 48 49.5 65.5t32.5 17.5q11 0 22.5 -4t31.5 -15l55 -29l65 47l15 -19q-53 -82 -80 -82q-8 0 -22.5 5t-37.5 17l-50 28l-66 -49l-15 18v0z" />
    <glyph glyph-name="trademark" unicode="&#x2122;" horiz-adv-x="571" 
d="M250 311q17 2 22.5 8t7.5 18l13 143l-31 6l3 19h70l65 -144l65 144h68l-3 -19q-12 -2 -19.5 -7t-5.5 -15l18 -147l33 -6l-3 -19h-109l3 19q11 2 18 7.5t5 19.5l-9 68q-2 12 -2 19.5v14.5h-2q-2 -8 -4 -15.5t-7 -18.5l-47 -105h-24l-47 101q-10 22 -12 38h-2
q0 -5 -0.5 -14.5t-1.5 -18.5l-8 -90l28 -6l-3 -19h-83zM81 311q11 2 20.5 5.5t9.5 12.5v156l-49 -7l-5 -37h-26l-9 64h230l-9 -64h-25l-5 37l-50 7v-168l41 -6l-3 -19h-123z" />
    <glyph glyph-name="scaron" unicode="&#x161;" horiz-adv-x="342" 
d="M201 455h-24l-114 120l20 23l88 -56l18 -30l18 30l88 56l20 -23zM50 117h36l6 -49q39 -34 91 -34q27 0 44.5 13.5t17.5 34.5q0 12 -4.5 22t-16.5 21t-32 23t-50 29q-45 25 -64 50t-19 57q0 21 10 41t28 35.5t43.5 25t56.5 9.5q34 0 61.5 -7t50.5 -18l-19 -80h-31l-10 42
q-14 9 -30.5 14t-36.5 5q-15 0 -29 -2.5t-26 -7.5q-3 -5 -6.5 -13t-3.5 -16q0 -10 3 -18t12 -17t26.5 -20t46.5 -27q58 -32 80.5 -60.5t22.5 -63.5q0 -52 -37 -84t-94 -32q-36 0 -74.5 11t-74.5 30z" />
    <glyph glyph-name="guilsinglright" unicode="&#x203a;" horiz-adv-x="286" 
d="M216 167l-143 -142l-3 28l63 115l48 25l-48 25l-63 115l3 29l143 -142v-53z" />
    <glyph glyph-name="oe" unicode="&#x153;" horiz-adv-x="665" 
d="M613 18q-23 -13 -54 -20.5t-66 -7.5q-48 0 -82 18.5t-57 53.5q-54 -72 -142 -72q-87 0 -132 48.5t-45 130.5q0 44 12 84.5t35.5 72t59 50.5t82.5 19q49 0 84.5 -19t58.5 -53q24 33 60.5 52.5t78.5 19.5q61 0 95.5 -32t34.5 -92q0 -17 -5 -41t-12 -40h-220q2 -79 36 -115
t103 -36q20 0 35.5 2.5t30.5 7.5zM227 34q22 0 40 7.5t30.5 26t19 49t6.5 76.5q0 37 -9.5 66.5t-25 49.5t-36 31t-42.5 11q-48 0 -71.5 -38.5t-23.5 -121.5q0 -78 33 -117.5t79 -39.5zM557 233q2 9 3 18.5t1 20.5q0 38 -18.5 60t-48.5 22q-31 0 -61 -15q-11 -18 -21.5 -49
t-12.5 -68z" />
    <glyph glyph-name="zcaron" unicode="&#x17e;" horiz-adv-x="377" 
d="M213 455h-24l-114 120l20 23l88 -56l18 -30l18 30l88 56l20 -23zM20 28l229 315l-150 -6l-17 -52h-34l-12 98h305l4 -28l-230 -316l169 9l31 55h42l-18 -103h-309z" />
    <glyph glyph-name="Ydieresis" unicode="&#x178;" horiz-adv-x="497" 
d="M122 645q0 46 45 46t45 -46t-45 -46t-45 46zM320 645q0 23 12 34.5t33 11.5q45 0 45 -46t-45 -46t-45 46zM192 527l-6 -29l-35 -15l123 -215l118 215l-58 15l6 29h152l-7 -29q-12 -3 -21 -7t-17 -11.5t-16.5 -20t-19.5 -31.5l-114 -209v-175l70 -14l-5 -30h-200l8 30
q29 6 38 18.5t9 38.5v128l-155 268l-52 15l6 29h176z" />
    <glyph glyph-name="uni00A0" unicode="&#xa0;" horiz-adv-x="156" 
 />
    <glyph glyph-name="exclamdown" unicode="&#xa1;" horiz-adv-x="227" 
d="M150 344q0 -52 -51 -52q-50 0 -50 52q0 24 12 37.5t38 13.5q27 0 39 -13t12 -38zM83 193q2 22 6.5 30t15.5 8h8l41 -395l-101 -16z" />
    <glyph glyph-name="cent" unicode="&#xa2;" 
d="M363 48q-17 -10 -39.5 -15.5t-45.5 -7.5v-76h-58v78q-65 10 -100 53.5t-35 122.5q0 41 10.5 77t29.5 64.5t45 48t58 27.5v78h58v-72q52 -3 90 -24l-19 -86h-34l-11 44q-21 16 -59 16q-16 0 -33.5 -3.5t-28.5 -8.5q-11 -20 -18.5 -57.5t-7.5 -83.5q0 -79 34.5 -114
t97.5 -35q17 0 31 2t26 5z" />
    <glyph glyph-name="sterling" unicode="&#xa3;" 
d="M77 253h58q9 109 55 156.5t113 47.5q29 0 54 -11t43 -32v-1l-45 -48h-1q-15 18 -34 28t-44 10q-14 0 -26 -2t-23 -6q-8 -17 -13 -48.5t-6 -93.5h141l-12 -44h-133q-9 -48 -28 -77t-43 -49v-1q23 -1 46.5 -4t52.5 -11q30 -8 50 -11.5t42 -3.5q29 0 52 10t37 27h1l16 -36
q-13 -28 -39 -46t-61 -18q-26 0 -50 5.5t-47 13.5q-24 8 -49.5 13t-49.5 5q-26 0 -49.5 -7.5t-45.5 -20.5l-6 2l11 57q7 5 16.5 10.5t17.5 9.5q12 6 20.5 13.5t14.5 21.5t10.5 37t8.5 60h-66z" />
    <glyph glyph-name="currency" unicode="&#xa4;" 
d="M41 78l73 47q-14 20 -22.5 44t-8.5 50q0 53 30 94l-72 46l45 57l58 -71q38 29 86 29q26 0 49.5 -9t42.5 -26l52 77l45 -57l-77 -40q17 -20 26 -45.5t9 -54.5t-9 -54.5t-26 -45.5l77 -41l-45 -56l-52 76q-19 -16 -42.5 -25t-49.5 -9q-48 0 -87 30l-57 -72zM135 219
q0 -22 7.5 -41.5t20 -34.5t30 -23.5t37.5 -8.5t37.5 8.5t30 23.5t20 34.5t7.5 41.5t-7.5 41.5t-20 34t-30 23t-37.5 8.5t-37.5 -8.5t-30 -23t-20 -34t-7.5 -41.5z" />
    <glyph glyph-name="yen" unicode="&#xa5;" 
d="M196 454l-6 -30l-42 -14l68 -108q11 -17 20 -34.5t14 -30.5h2q7 25 32 61l73 112l-52 14l6 30h136l-6 -30q-23 -4 -36 -14.5t-32 -38.5l-85 -132h121l-13 -44h-121v-45h131l-13 -44h-118v-62l58 -14l-7 -30h-183l8 30q29 6 39 18.5t10 38.5v19h-134l13 44h121v45h-131
l13 44h100l-112 171l-55 14l7 30h174z" />
    <glyph glyph-name="brokenbar" unicode="&#xa6;" horiz-adv-x="400" 
d="M173 298v269h54v-269h-54zM227 221v-270h-54v270h54z" />
    <glyph glyph-name="section" unicode="&#xa7;" horiz-adv-x="449" 
d="M133 -5q18 -23 44 -37t56 -14q26 0 41.5 14.5t15.5 30.5q0 20 -20 40t-69 54q-68 46 -98 85t-30 85q0 55 39 102l24 6q-15 25 -15 56q0 23 10 44t27 37t39.5 25.5t48.5 9.5q35 0 62 -12t46 -32l-38 -56q-18 23 -44 36.5t-56 13.5q-26 0 -41 -14t-15 -30q0 -20 19.5 -40
t68.5 -54q34 -23 58.5 -44t40 -41.5t22.5 -41.5t7 -44q0 -26 -9.5 -52t-29.5 -49l-24 -7q15 -26 15 -56q0 -23 -10 -44t-27 -36.5t-39.5 -25t-48.5 -9.5q-34 0 -61.5 12t-46.5 32zM307 78q24 36 24 68q0 15 -5 29t-17.5 29t-33.5 32t-53 40q-28 20 -47.5 37.5t-31.5 36.5
q-13 -19 -18.5 -35.5t-5.5 -32.5q0 -15 5 -29t17.5 -29t33.5 -33t53 -40q27 -20 46.5 -37.5t32.5 -35.5z" />
    <glyph glyph-name="dieresis" unicode="&#xa8;" horiz-adv-x="350" 
d="M214 489q0 44 44 44q42 0 42 -44q0 -20 -10 -32t-32 -12q-44 0 -44 44zM50 489q0 44 43 44t43 -44q0 -20 -10.5 -32t-32.5 -12q-43 0 -43 44z" />
    <glyph glyph-name="copyright" unicode="&#xa9;" horiz-adv-x="728" 
d="M485 331h-37l-9 56q-11 6 -28.5 12t-37.5 6q-48 0 -75 -37t-27 -91q0 -58 25 -92t79 -34q17 0 35 5t29 13l14 62h37v-89q-26 -14 -56.5 -22t-62.5 -8q-43 0 -76.5 12t-56 33.5t-34 51.5t-11.5 65q0 36 14 66.5t38.5 53t58.5 35.5t75 13q37 0 69 -8.5t53 -18.5zM97 274
q0 -55 21 -104t57 -86t85 -58.5t105 -21.5t104.5 21.5t84.5 58.5t56.5 86t20.5 104t-20.5 103.5t-56.5 85.5t-84.5 58.5t-104.5 21.5t-105 -21.5t-85 -58.5t-57 -85.5t-21 -103.5zM50 274q0 65 24 122t66 99.5t99.5 67t125.5 24.5q67 0 124.5 -24.5t99.5 -67t65.5 -99.5
t23.5 -122t-23.5 -122t-65.5 -100t-99.5 -67.5t-124.5 -24.5q-68 0 -125.5 24.5t-99.5 67.5t-66 100t-24 122z" />
    <glyph glyph-name="ordfeminine" unicode="&#xaa;" horiz-adv-x="291" 
d="M37 498q22 18 50 28.5t62 10.5q38 0 66 -26t28 -79v-137l44 -12v-11q-9 -10 -23 -18t-26 -8q-15 0 -27 11.5t-17 30.5q-21 -23 -41 -32.5t-40 -9.5q-37 0 -61 22.5t-24 57.5q0 16 7.5 30.5t21.5 25.5q17 13 47 23.5t85 18.5q0 23 -2.5 37.5t-7 24t-12 14.5t-16.5 9
q-18 -5 -42.5 -19.5t-40.5 -32.5zM190 314q-1 7 -1 14v26v31q-37 0 -62.5 -4t-36.5 -10q-7 -11 -7 -38q0 -23 13 -34t34 -11q35 0 60 26z" />
    <glyph glyph-name="guillemotleft" unicode="&#xab;" horiz-adv-x="455" 
d="M239 220l144 142l2 -29l-63 -115l-48 -25l48 -25l63 -115l-2 -28l-144 142v53zM70 220l144 142l2 -29l-63 -115l-48 -25l48 -25l63 -115l-2 -28l-144 142v53z" />
    <glyph glyph-name="logicalnot" unicode="&#xac;" horiz-adv-x="488" 
d="M69 263h339v-198h-56v142h-283v56z" />
    <glyph glyph-name="uni00AD" unicode="&#xad;" horiz-adv-x="315" 
d="M283 219q0 -24 -18 -33.5t-48 -9.5h-181v20q0 24 18.5 34.5t44.5 10.5h184v-22z" />
    <glyph glyph-name="registered" unicode="&#xae;" horiz-adv-x="516" 
d="M145 309q23 3 23 19v153l-33 7l4 17h111q43 0 67.5 -17t24.5 -43q0 -24 -14 -37.5t-36 -20.5l32 -43q8 -11 13.5 -17t10.5 -9t10 -4t13 -2l-4 -18q-6 -2 -15 -4.5t-19 -2.5q-16 0 -27 8.5t-27 32.5l-33 50h-29v-63l32 -6l-3 -17h-105zM217 399h14q28 0 45.5 10t17.5 31
q0 20 -13 29.5t-43 9.5h-21v-80zM30 392q0 45 17 84.5t47 69.5t69.5 47t84.5 17t84.5 -17t69.5 -47t47 -69.5t17 -84.5t-17 -84.5t-47 -69.5t-69.5 -47t-84.5 -17t-84.5 17t-69.5 47t-47 69.5t-17 84.5zM63 392q0 -38 14.5 -72t39.5 -59t59 -39.5t72 -14.5t72 14.5t59 39.5
t39.5 59t14.5 72t-14.5 72t-39.5 59t-59 39.5t-72 14.5t-72 -14.5t-59 -39.5t-39.5 -59t-14.5 -72z" />
    <glyph glyph-name="macron" unicode="&#xaf;" horiz-adv-x="350" 
d="M47 485q4 20 15.5 27t40.5 7h199l-4 -21q-4 -19 -15 -25.5t-34 -6.5h-206z" />
    <glyph glyph-name="degree" unicode="&#xb0;" horiz-adv-x="317" 
d="M30 438q0 27 10 50.5t27.5 41t40.5 27.5t50 10t50.5 -10t41 -27.5t27.5 -41t10 -50.5t-10 -50t-27.5 -40.5t-41 -27.5t-50.5 -10t-50 10t-40.5 27.5t-27.5 40.5t-10 50zM79 438q0 -35 23 -59t56 -24t56.5 24t23.5 59t-23.5 59.5t-56.5 24.5t-56 -24.5t-23 -59.5z" />
    <glyph glyph-name="plusminus" unicode="&#xb1;" 
d="M62 54h337v-54h-337v54zM62 309h140v147h57v-147h140v-54h-140v-147h-57v147h-140v54z" />
    <glyph glyph-name="twosuperior" unicode="&#xb2;" horiz-adv-x="297" 
d="M45 255l3 30l72 67q47 44 69 75.5t22 62.5q0 24 -14 42t-35 26q-18 -6 -39 -25.5t-38 -42.5l-43 38q25 28 54 45.5t68 17.5q21 0 40.5 -7t34.5 -19.5t24 -29.5t9 -36q0 -18 -5 -35t-17 -36t-33.5 -41t-54.5 -49l-58 -48l183 26l-9 -61h-233z" />
    <glyph glyph-name="threesuperior" unicode="&#xb3;" horiz-adv-x="292" 
d="M50 548q27 23 55 33t57 10q21 0 40.5 -6.5t34 -17.5t23 -26.5t8.5 -33.5q0 -26 -22 -47.5t-72 -29.5q47 -5 78.5 -25.5t31.5 -62.5q0 -40 -33.5 -66t-89.5 -26q-32 0 -59.5 7.5t-51.5 21.5l13 33q20 -11 41 -17.5t48 -6.5q33 0 52.5 15t19.5 41q0 29 -31 47.5t-89 24.5
l7 27q48 2 74 17.5t26 41.5q0 23 -14.5 37t-38.5 19q-16 -4 -38 -19t-37 -31l-33 40v0z" />
    <glyph glyph-name="acute" unicode="&#xb4;" horiz-adv-x="350" 
d="M96 464l107 156q18 -5 29.5 -17.5t11.5 -28.5q0 -15 -12.5 -33t-49.5 -46l-66 -50z" />
    <glyph glyph-name="mu" unicode="&#xb5;" horiz-adv-x="472" 
d="M106 -173q-33 70 -33 147q0 14 1.5 28.5t3.5 28.5q6 36 10 73.5t4 89.5q0 49 -3 93t-7 79l75 17q2 -17 3 -32t1 -30q0 -51 -6 -93t-6 -85q0 -95 63 -95q23 0 49 19t46 62q5 17 7.5 41.5t2.5 53.5q0 15 -1 34t-2.5 38.5t-3.5 37.5t-4 32l69 17q2 -19 3 -39.5t1 -46.5
q0 -33 -3 -70t-7 -72q-3 -20 -3 -37q0 -34 13 -51t43 -17q11 0 23 2.5t24 7.5v-36q-20 -14 -41.5 -23t-43.5 -9q-29 0 -50.5 23.5t-23.5 69.5q-25 -49 -50 -71t-59 -22q-24 0 -42.5 10t-29.5 27q-1 -4 -2 -13.5t-1 -18.5q0 -45 12.5 -78t45.5 -66l-78 -26v0z" />
    <glyph glyph-name="paragraph" unicode="&#xb6;" horiz-adv-x="547" 
d="M309 94q0 -42 -7 -74.5t-22 -58t-39 -47t-59 -40.5l-37 58q60 31 88 68t28 97v155q-91 13 -139.5 56.5t-48.5 109.5q0 32 13 59t37.5 47t59 31.5t78.5 11.5h48v-473zM375 567h133q-5 -33 -25.5 -44.5t-58.5 -13.5v-509h-49v567z" />
    <glyph glyph-name="periodcentered" unicode="&#xb7;" horiz-adv-x="125" 
d="M15 223q0 48 48 48q47 0 47 -48q0 -23 -11.5 -35.5t-35.5 -12.5q-26 0 -37 12.5t-11 35.5z" />
    <glyph glyph-name="cedilla" unicode="&#xb8;" horiz-adv-x="350" 
d="M214 43l22 -16l-43 -57q35 -15 50 -28t15 -27q0 -9 -5.5 -18t-20.5 -19.5t-41 -23.5t-66 -30l-13 22q46 25 60.5 38.5t14.5 21.5t-10 16t-38 23z" />
    <glyph glyph-name="onesuperior" unicode="&#xb9;" horiz-adv-x="276" 
d="M181 592l18 -10v-292l64 -11l-3 -24h-186l5 24q35 5 51 14t16 32v209l-102 -55l-16 30z" />
    <glyph glyph-name="ordmasculine" unicode="&#xba;" horiz-adv-x="345" 
d="M173 248q-60 0 -95.5 35t-35.5 94q0 31 9 60.5t27 52t44.5 36t61.5 13.5q60 0 95 -34.5t35 -96.5q0 -33 -10.5 -62.5t-29 -51t-44.5 -34t-57 -12.5zM184 283q28 0 50 26t22 85q0 49 -25 79t-61 30q-28 0 -49 -29.5t-21 -81.5q0 -49 24 -79t60 -30z" />
    <glyph glyph-name="guillemotright" unicode="&#xbb;" horiz-adv-x="455" 
d="M385 167l-143 -142l-3 28l63 115l48 25l-48 25l-63 115l3 29l143 -142v-53zM216 167l-143 -142l-3 28l63 115l48 25l-48 25l-63 115l3 29l143 -142v-53z" />
    <glyph glyph-name="onequarter" unicode="&#xbc;" horiz-adv-x="732" 
d="M169 572l18 -10v-292l64 -11l-3 -24h-186l5 24q35 5 51 14t16 32v209l-102 -55l-16 30zM513 554l40 -26l-348 -552l-40 25zM585 331h47v-225l55 3l-9 -45h-46v-64h-55v64h-152l-15 33zM577 104v164l-129 -171z" />
    <glyph glyph-name="onehalf" unicode="&#xbd;" horiz-adv-x="732" 
d="M513 554l40 -26l-348 -552l-40 25zM169 572l18 -10v-292l64 -11l-3 -24h-186l5 24q35 5 51 14t16 32v209l-102 -55l-16 30zM468 0l3 30l72 67q47 44 69 75.5t22 62.5q0 24 -14 42t-35 26q-18 -6 -39 -25.5t-38 -42.5l-43 38q25 28 54 45.5t68 17.5q21 0 40.5 -7
t34.5 -19.5t24 -29.5t9 -36q0 -18 -5 -35t-17 -36t-33.5 -41t-54.5 -49l-58 -48l183 26l-9 -61h-233z" />
    <glyph glyph-name="threequarters" unicode="&#xbe;" horiz-adv-x="732" 
d="M519 554l40 -26l-348 -552l-40 25zM585 331h47v-225l55 3l-9 -45h-46v-64h-55v64h-152l-15 33zM577 104v164l-129 -171zM36 528q27 23 55 33t57 10q21 0 40.5 -6.5t34 -17.5t23 -26.5t8.5 -33.5q0 -26 -22 -47.5t-72 -29.5q47 -5 78.5 -25.5t31.5 -62.5q0 -40 -33.5 -66
t-89.5 -26q-32 0 -59.5 7.5t-51.5 21.5l13 33q20 -11 41 -17.5t48 -6.5q33 0 52.5 15t19.5 41q0 29 -31 47.5t-89 24.5l7 27q48 2 74 17.5t26 41.5q0 23 -14.5 37t-38.5 19q-16 -4 -38 -19t-37 -31z" />
    <glyph glyph-name="questiondown" unicode="&#xbf;" horiz-adv-x="372" 
d="M201 241q23 -17 36.5 -36t13.5 -39q0 -12 -4 -24t-13.5 -26t-25 -30.5t-38.5 -38.5q-41 -39 -56.5 -64t-15.5 -53q0 -17 5 -30.5t12 -22.5q8 -6 16.5 -9t25.5 -3q12 0 25.5 3t29.5 10.5t36 21.5t46 35l50 -57q-45 -35 -83.5 -49.5t-83.5 -14.5q-32 0 -59 9.5t-46.5 26
t-30.5 38.5t-11 48q0 15 2.5 31t11 33.5t24.5 37.5t43 44q24 21 39 36t24 26.5t12 20t3 17.5q0 14 -5.5 25.5t-15.5 23.5zM232 346q0 -51 -51 -51q-50 0 -50 51t50 51q27 0 39 -13t12 -38z" />
    <glyph glyph-name="Agrave" unicode="&#xc0;" horiz-adv-x="554" 
d="M346 578l-84 28q-52 18 -69 34t-17 36q0 14 11 25t25 16l149 -117zM13 30q28 7 47.5 23t33.5 54l150 418l66 15l179 -496l65 -14l-8 -30h-190l8 30l40 14l-41 117h-197l-45 -117l47 -14l-6 -30h-157zM347 205l-84 241l-84 -241h168z" />
    <glyph glyph-name="Aacute" unicode="&#xc1;" horiz-adv-x="554" 
d="M193 609l149 117q14 -5 25 -16t11 -25q0 -20 -17 -36t-69 -34l-84 -28zM13 30q28 7 47.5 23t33.5 54l150 418l66 15l179 -496l65 -14l-8 -30h-190l8 30l40 14l-41 117h-197l-45 -117l47 -14l-6 -30h-157zM347 205l-84 241l-84 -241h168z" />
    <glyph glyph-name="Acircumflex" unicode="&#xc2;" horiz-adv-x="554" 
d="M262 685h32l136 -74l-20 -28l-108 25l-24 30l-24 -30l-108 -25l-20 28zM13 30q28 7 47.5 23t33.5 54l150 418l66 15l179 -496l65 -14l-8 -30h-190l8 30l40 14l-41 117h-197l-45 -117l47 -14l-6 -30h-157zM347 205l-84 241l-84 -241h168z" />
    <glyph glyph-name="Atilde" unicode="&#xc3;" horiz-adv-x="554" 
d="M417 688l19 -21q-55 -89 -91 -89q-13 0 -24.5 4t-25.5 11l-75 36l-65 -51l-19 20q55 90 91 90q13 0 24 -3.5t25 -10.5l76 -37zM13 30q28 7 47.5 23t33.5 54l150 418l66 15l179 -496l65 -14l-8 -30h-190l8 30l40 14l-41 117h-197l-45 -117l47 -14l-6 -30h-157zM347 205
l-84 241l-84 -241h168z" />
    <glyph glyph-name="Adieresis" unicode="&#xc4;" horiz-adv-x="554" 
d="M134 645q0 46 45 46t45 -46t-45 -46t-45 46zM332 645q0 23 12 34.5t33 11.5q45 0 45 -46t-45 -46t-45 46zM13 30q28 7 47.5 23t33.5 54l150 418l66 15l179 -496l65 -14l-8 -30h-190l8 30l40 14l-41 117h-197l-45 -117l47 -14l-6 -30h-157zM347 205l-84 241l-84 -241h168z
" />
    <glyph glyph-name="Aring" unicode="&#xc5;" horiz-adv-x="554" 
d="M184 588q0 18 7 34t19.5 28t30 19.5t38.5 7.5t38.5 -7.5t30 -19.5t19 -28t6.5 -34q0 -26 -14 -47.5t-38 -32.5l168 -464l65 -14l-8 -30h-190l8 30l40 14l-41 117h-197l-45 -117l47 -14l-6 -30h-157l8 30q28 7 47.5 23t33.5 54l144 401q-26 11 -40 32.5t-14 47.5zM347 205
l-84 241l-84 -241h168zM231 588q0 -22 13.5 -35.5t34.5 -13.5q22 0 34.5 13.5t12.5 35.5q0 21 -12.5 35.5t-34.5 14.5q-21 0 -34.5 -14.5t-13.5 -35.5z" />
    <glyph glyph-name="AE" unicode="&#xc6;" horiz-adv-x="711" 
d="M308 30q29 6 38 18.5t9 39.5v73h-168l-63 -117l47 -14l-6 -30h-163l8 30q15 4 26.5 9t21.5 13t19 20.5t20 30.5l216 386l-55 9l5 29h405l-28 -110h-31l-9 56l-165 10v-184h170l-11 -44h-159v-211l177 13l32 61h32l-19 -118h-357zM355 205v192q0 23 0.5 44t1.5 37h-1
q-6 -14 -14 -29t-17 -32l-115 -212h145z" />
    <glyph glyph-name="Ccedilla" unicode="&#xc7;" horiz-adv-x="513" 
d="M461 406h-33l-12 52q-19 11 -46 19t-62 8q-36 0 -67 -14t-54.5 -41.5t-36.5 -69.5t-13 -99q0 -54 13 -95t36.5 -69.5t56 -43t71.5 -14.5h12l2 2l2 -2q25 2 47 8.5t40 20.5l28 65h35l-10 -99q-32 -19 -66 -30t-78 -14l-21 -29q35 -14 53.5 -28.5t18.5 -31.5
q0 -20 -30.5 -42.5t-107.5 -47.5l-13 26q23 12 37 21t21.5 15.5t10 11.5t2.5 9q0 8 -11 17.5t-39 24.5l41 53q-54 1 -98 21t-76 54.5t-49.5 82t-17.5 104.5t20.5 108.5t56.5 90.5t85.5 62t107.5 23q53 0 95 -9t74 -23z" />
    <glyph glyph-name="Egrave" unicode="&#xc8;" 
d="M307 578l-84 28q-52 18 -69 34t-17 36q0 14 11 25t25 16l149 -117zM56 30q29 6 38.5 18.5t9.5 39.5v395l-71 15l6 29h378l-28 -110h-31l-9 56l-165 10v-184h170l-11 -44h-159v-211l177 13l32 61h32l-19 -118h-358z" />
    <glyph glyph-name="Eacute" unicode="&#xc9;" 
d="M174 609l149 117q14 -5 25 -16t11 -25q0 -20 -17 -36t-69 -34l-84 -28zM56 30q29 6 38.5 18.5t9.5 39.5v395l-71 15l6 29h378l-28 -110h-31l-9 56l-165 10v-184h170l-11 -44h-159v-211l177 13l32 61h32l-19 -118h-358z" />
    <glyph glyph-name="Ecircumflex" unicode="&#xca;" 
d="M233 685h32l136 -74l-20 -28l-108 25l-24 30l-24 -30l-108 -25l-20 28zM56 30q29 6 38.5 18.5t9.5 39.5v395l-71 15l6 29h378l-28 -110h-31l-9 56l-165 10v-184h170l-11 -44h-159v-211l177 13l32 61h32l-19 -118h-358z" />
    <glyph glyph-name="Edieresis" unicode="&#xcb;" 
d="M105 645q0 46 45 46t45 -46t-45 -46t-45 46zM303 645q0 23 12 34.5t33 11.5q45 0 45 -46t-45 -46t-45 46zM56 30q29 6 38.5 18.5t9.5 39.5v395l-71 15l6 29h378l-28 -110h-31l-9 56l-165 10v-184h170l-11 -44h-159v-211l177 13l32 61h32l-19 -118h-358z" />
    <glyph glyph-name="Igrave" unicode="&#xcc;" horiz-adv-x="287" 
d="M207 578l-84 28q-52 18 -69 34t-17 36q0 14 11 25t25 16l149 -117zM56 30q29 6 38.5 18.5t9.5 38.5v396l-71 15l6 29h198l-6 -29q-28 -7 -37.5 -19.5t-9.5 -38.5v-396l70 -14l-7 -30h-199z" />
    <glyph glyph-name="Iacute" unicode="&#xcd;" horiz-adv-x="287" 
d="M74 609l149 117q14 -5 25 -16t11 -25q0 -20 -17 -36t-69 -34l-84 -28zM56 30q29 6 38.5 18.5t9.5 38.5v396l-71 15l6 29h198l-6 -29q-28 -7 -37.5 -19.5t-9.5 -38.5v-396l70 -14l-7 -30h-199z" />
    <glyph glyph-name="Icircumflex" unicode="&#xce;" horiz-adv-x="287" 
d="M130 685h32l136 -74l-20 -28l-108 25l-24 30l-24 -30l-108 -25l-20 28zM56 30q29 6 38.5 18.5t9.5 38.5v396l-71 15l6 29h198l-6 -29q-28 -7 -37.5 -19.5t-9.5 -38.5v-396l70 -14l-7 -30h-199z" />
    <glyph glyph-name="Idieresis" unicode="&#xcf;" horiz-adv-x="287" 
d="M19 645q0 46 45 46t45 -46t-45 -46t-45 46zM179 645q0 23 12 34.5t33 11.5q45 0 45 -46t-45 -46t-45 46zM56 30q29 6 38.5 18.5t9.5 38.5v396l-71 15l6 29h198l-6 -29q-28 -7 -37.5 -19.5t-9.5 -38.5v-396l70 -14l-7 -30h-199z" />
    <glyph glyph-name="Eth" unicode="&#xd0;" horiz-adv-x="570" 
d="M32 291h72v192l-71 15l6 29h200q140 0 212 -65t72 -185q0 -65 -19.5 -116t-55.5 -87t-87 -55t-114 -19h-199l8 30q29 6 38.5 18t9.5 38v161h-72v44zM217 44q107 0 161.5 47t54.5 161q0 120 -54.5 175.5t-166.5 55.5h-28v-192h122v-44h-122v-203h33z" />
    <glyph glyph-name="Ntilde" unicode="&#xd1;" horiz-adv-x="605" 
d="M459 688l19 -21q-55 -89 -91 -89q-13 0 -24.5 4t-25.5 11l-75 36l-65 -51l-19 20q55 90 91 90q13 0 24 -3.5t25 -10.5l76 -37zM56 30q29 6 38.5 18.5t9.5 38.5v396l-71 15l6 29h112l279 -334q17 -20 25 -30t14 -18l1 1q-1 17 -1 31.5v43.5v262l-51 15l5 29h154l-8 -29
q-29 -7 -38.5 -19t-9.5 -38v-441h-40l-291 352q-24 28 -35 44l-1 -1q1 -13 1.5 -26.5t0.5 -36.5v-288l65 -14l-5 -30h-168z" />
    <glyph glyph-name="Ograve" unicode="&#xd2;" horiz-adv-x="599" 
d="M365 578l-84 28q-52 18 -69 34t-17 36q0 14 11 25t25 16l149 -117zM137 261q0 -103 43.5 -162.5t127.5 -59.5q33 0 61 11.5t48.5 37.5t32.5 68t12 103q0 103 -43 164.5t-127 61.5q-33 0 -61 -12.5t-49 -39.5t-33 -69.5t-12 -102.5zM298 -11q-56 0 -102 17.5t-79 50.5
t-51.5 80t-18.5 106q0 61 20.5 114.5t56.5 93t84.5 62t104.5 22.5t100.5 -18t75 -52t47 -81.5t16.5 -106.5t-19 -111.5t-52.5 -91.5t-80.5 -62t-102 -23z" />
    <glyph glyph-name="Oacute" unicode="&#xd3;" horiz-adv-x="599" 
d="M252 609l149 117q14 -5 25 -16t11 -25q0 -20 -17 -36t-69 -34l-84 -28zM137 261q0 -103 43.5 -162.5t127.5 -59.5q33 0 61 11.5t48.5 37.5t32.5 68t12 103q0 103 -43 164.5t-127 61.5q-33 0 -61 -12.5t-49 -39.5t-33 -69.5t-12 -102.5zM298 -11q-56 0 -102 17.5t-79 50.5
t-51.5 80t-18.5 106q0 61 20.5 114.5t56.5 93t84.5 62t104.5 22.5t100.5 -18t75 -52t47 -81.5t16.5 -106.5t-19 -111.5t-52.5 -91.5t-80.5 -62t-102 -23z" />
    <glyph glyph-name="Ocircumflex" unicode="&#xd4;" horiz-adv-x="599" 
d="M291 685h32l136 -74l-20 -28l-108 25l-24 30l-24 -30l-108 -25l-20 28zM137 261q0 -103 43.5 -162.5t127.5 -59.5q33 0 61 11.5t48.5 37.5t32.5 68t12 103q0 103 -43 164.5t-127 61.5q-33 0 -61 -12.5t-49 -39.5t-33 -69.5t-12 -102.5zM298 -11q-56 0 -102 17.5t-79 50.5
t-51.5 80t-18.5 106q0 61 20.5 114.5t56.5 93t84.5 62t104.5 22.5t100.5 -18t75 -52t47 -81.5t16.5 -106.5t-19 -111.5t-52.5 -91.5t-80.5 -62t-102 -23z" />
    <glyph glyph-name="Otilde" unicode="&#xd5;" horiz-adv-x="599" 
d="M446 688l19 -21q-55 -89 -91 -89q-13 0 -24.5 4t-25.5 11l-75 36l-65 -51l-19 20q55 90 91 90q13 0 24 -3.5t25 -10.5l76 -37zM137 261q0 -103 43.5 -162.5t127.5 -59.5q33 0 61 11.5t48.5 37.5t32.5 68t12 103q0 103 -43 164.5t-127 61.5q-33 0 -61 -12.5t-49 -39.5
t-33 -69.5t-12 -102.5zM298 -11q-56 0 -102 17.5t-79 50.5t-51.5 80t-18.5 106q0 61 20.5 114.5t56.5 93t84.5 62t104.5 22.5t100.5 -18t75 -52t47 -81.5t16.5 -106.5t-19 -111.5t-52.5 -91.5t-80.5 -62t-102 -23z" />
    <glyph glyph-name="Odieresis" unicode="&#xd6;" horiz-adv-x="599" 
d="M163 645q0 46 45 46t45 -46t-45 -46t-45 46zM361 645q0 23 12 34.5t33 11.5q45 0 45 -46t-45 -46t-45 46zM137 261q0 -103 43.5 -162.5t127.5 -59.5q33 0 61 11.5t48.5 37.5t32.5 68t12 103q0 103 -43 164.5t-127 61.5q-33 0 -61 -12.5t-49 -39.5t-33 -69.5t-12 -102.5z
M298 -11q-56 0 -102 17.5t-79 50.5t-51.5 80t-18.5 106q0 61 20.5 114.5t56.5 93t84.5 62t104.5 22.5t100.5 -18t75 -52t47 -81.5t16.5 -106.5t-19 -111.5t-52.5 -91.5t-80.5 -62t-102 -23z" />
    <glyph glyph-name="multiply" unicode="&#xd7;" 
d="M39 67l156 156l-157 157l36 36l157 -157l157 157l35 -36l-156 -157l156 -156l-35 -36l-157 156l-156 -156z" />
    <glyph glyph-name="Oslash" unicode="&#xd8;" horiz-adv-x="599" 
d="M97 80q-22 29 -36 69t-14 94q0 61 20.5 114.5t56.5 93t84.5 62t104.5 22.5q47 0 87 -13.5t66 -36.5l54 59l31 -29l-54 -60q26 -34 40.5 -78.5t14.5 -99.5q0 -59 -19 -111.5t-52.5 -91.5t-80.5 -62t-102 -23q-104 0 -171 58l-62 -66l-34 29zM181 99q20 -28 51.5 -44
t75.5 -16q33 0 61 11.5t48.5 37.5t32.5 68t12 103q0 37 -7.5 73t-18.5 57zM413 429q-40 56 -121 56q-33 0 -61 -12.5t-49 -39.5t-33 -69.5t-12 -102.5q0 -36 5.5 -68.5t16.5 -52.5z" />
    <glyph glyph-name="Ugrave" unicode="&#xd9;" horiz-adv-x="588" 
d="M376 578l-84 28q-52 18 -69 34t-17 36q0 14 11 25t25 16l149 -117zM231 527l-8 -29q-28 -7 -37.5 -19t-9.5 -38v-237q0 -83 36 -120.5t107 -37.5q31 0 57 9t44.5 29t28.5 52t10 77v270l-64 15l5 29h167l-7 -29q-29 -7 -38.5 -19.5t-9.5 -38.5v-222q0 -118 -53.5 -173.5
t-153.5 -55.5q-114 0 -161.5 52.5t-47.5 169.5v272l-71 15l5 29h201z" />
    <glyph glyph-name="Uacute" unicode="&#xda;" horiz-adv-x="588" 
d="M263 609l149 117q14 -5 25 -16t11 -25q0 -20 -17 -36t-69 -34l-84 -28zM231 527l-8 -29q-28 -7 -37.5 -19t-9.5 -38v-237q0 -83 36 -120.5t107 -37.5q31 0 57 9t44.5 29t28.5 52t10 77v270l-64 15l5 29h167l-7 -29q-29 -7 -38.5 -19.5t-9.5 -38.5v-222
q0 -118 -53.5 -173.5t-153.5 -55.5q-114 0 -161.5 52.5t-47.5 169.5v272l-71 15l5 29h201z" />
    <glyph glyph-name="Ucircumflex" unicode="&#xdb;" horiz-adv-x="588" 
d="M302 685h32l136 -74l-20 -28l-108 25l-24 30l-24 -30l-108 -25l-20 28zM231 527l-8 -29q-28 -7 -37.5 -19t-9.5 -38v-237q0 -83 36 -120.5t107 -37.5q31 0 57 9t44.5 29t28.5 52t10 77v270l-64 15l5 29h167l-7 -29q-29 -7 -38.5 -19.5t-9.5 -38.5v-222
q0 -118 -53.5 -173.5t-153.5 -55.5q-114 0 -161.5 52.5t-47.5 169.5v272l-71 15l5 29h201z" />
    <glyph glyph-name="Udieresis" unicode="&#xdc;" horiz-adv-x="588" 
d="M174 645q0 46 45 46t45 -46t-45 -46t-45 46zM372 645q0 23 12 34.5t33 11.5q45 0 45 -46t-45 -46t-45 46zM231 527l-8 -29q-28 -7 -37.5 -19t-9.5 -38v-237q0 -83 36 -120.5t107 -37.5q31 0 57 9t44.5 29t28.5 52t10 77v270l-64 15l5 29h167l-7 -29q-29 -7 -38.5 -19.5
t-9.5 -38.5v-222q0 -118 -53.5 -173.5t-153.5 -55.5q-114 0 -161.5 52.5t-47.5 169.5v272l-71 15l5 29h201z" />
    <glyph glyph-name="Yacute" unicode="&#xdd;" horiz-adv-x="497" 
d="M211 609l149 117q14 -5 25 -16t11 -25q0 -20 -17 -36t-69 -34l-84 -28zM192 527l-6 -29l-35 -15l123 -215l118 215l-58 15l6 29h152l-7 -29q-12 -3 -21 -7t-17 -11.5t-16.5 -20t-19.5 -31.5l-114 -209v-175l70 -14l-5 -30h-200l8 30q29 6 38 18.5t9 38.5v128l-155 268
l-52 15l6 29h176z" />
    <glyph glyph-name="Thorn" unicode="&#xde;" horiz-adv-x="472" 
d="M56 30q29 6 38.5 18t9.5 38v397l-71 15l6 29h198l-6 -29q-28 -7 -37.5 -19.5t-9.5 -38.5v-24h62q100 0 150.5 -39t50.5 -103q0 -41 -17 -71t-47 -49.5t-70 -29t-86 -9.5h-43v-71l70 -14l-7 -30h-199zM184 149h21q80 0 116 27.5t36 87.5q0 112 -144 112h-29v-227z" />
    <glyph glyph-name="germandbls" unicode="&#xdf;" horiz-adv-x="528" 
d="M52 30q23 5 33 14t10 29v262l-83 20l8 28h75q1 83 46 133.5t129 50.5q68 0 107.5 -34t39.5 -88q0 -16 -6 -41.5t-20 -45.5q-32 -6 -50 -19t-18 -33q0 -8 3.5 -16t13 -17t26 -20t42.5 -27q30 -18 49.5 -33t30.5 -29.5t15.5 -29t4.5 -30.5q0 -28 -11 -49.5t-29.5 -36
t-42.5 -22t-50 -7.5q-40 0 -75 10t-68 30l22 90h37l5 -56q14 -13 36 -21.5t47 -8.5q33 0 49.5 13t16.5 33q0 11 -4 21t-15 21t-29.5 23.5t-47.5 28.5q-50 28 -70 53.5t-20 56.5q0 61 69 95q8 18 11 32.5t3 31.5q0 36 -25 58.5t-63 22.5q-23 0 -40.5 -6.5t-31.5 -15.5
q-3 -8 -5.5 -17.5t-4 -24t-2 -34t-0.5 -47.5v-378h-126z" />
    <glyph glyph-name="agrave" unicode="&#xe0;" horiz-adv-x="394" 
d="M44 344q38 26 75.5 37.5t80.5 11.5q52 0 88 -35.5t36 -98.5v-207l55 -15v-13q-10 -13 -27.5 -22.5t-32.5 -9.5q-24 0 -40.5 13t-24.5 42q-23 -26 -52.5 -40.5t-61.5 -14.5q-22 0 -41.5 7t-34.5 21t-24 34.5t-9 47.5q0 20 8.5 40t22.5 31q23 18 68 33t119 25v15
q0 48 -14.5 74t-40.5 37q-46 -14 -109 -70zM249 187q-20 0 -39.5 -1.5t-37.5 -4.5t-32 -6.5t-23 -7.5q-11 -22 -11 -55q0 -32 15 -50t47 -18q26 0 47 10t35 27q0 11 -0.5 28t-0.5 37v41zM213 445l-66 50q-37 28 -49.5 46t-12.5 33q0 16 11.5 28.5t29.5 17.5l107 -156z" />
    <glyph glyph-name="aacute" unicode="&#xe1;" horiz-adv-x="394" 
d="M44 344q38 26 75.5 37.5t80.5 11.5q52 0 88 -35.5t36 -98.5v-207l55 -15v-13q-10 -13 -27.5 -22.5t-32.5 -9.5q-24 0 -40.5 13t-24.5 42q-23 -26 -52.5 -40.5t-61.5 -14.5q-22 0 -41.5 7t-34.5 21t-24 34.5t-9 47.5q0 20 8.5 40t22.5 31q23 18 68 33t119 25v15
q0 48 -14.5 74t-40.5 37q-46 -14 -109 -70zM249 187q-20 0 -39.5 -1.5t-37.5 -4.5t-32 -6.5t-23 -7.5q-11 -22 -11 -55q0 -32 15 -50t47 -18q26 0 47 10t35 27q0 11 -0.5 28t-0.5 37v41zM146 464l107 156q18 -5 29.5 -17.5t11.5 -28.5q0 -15 -12.5 -33t-49.5 -46l-66 -50z
" />
    <glyph glyph-name="acircumflex" unicode="&#xe2;" horiz-adv-x="394" 
d="M44 344q38 26 75.5 37.5t80.5 11.5q52 0 88 -35.5t36 -98.5v-207l55 -15v-13q-10 -13 -27.5 -22.5t-32.5 -9.5q-24 0 -40.5 13t-24.5 42q-23 -26 -52.5 -40.5t-61.5 -14.5q-22 0 -41.5 7t-34.5 21t-24 34.5t-9 47.5q0 20 8.5 40t22.5 31q23 18 68 33t119 25v15
q0 48 -14.5 74t-40.5 37q-46 -14 -109 -70zM249 187q-20 0 -39.5 -1.5t-37.5 -4.5t-32 -6.5t-23 -7.5q-11 -22 -11 -55q0 -32 15 -50t47 -18q26 0 47 10t35 27q0 11 -0.5 28t-0.5 37v41zM323 467l-20 -23l-88 56l-18 30l-18 -30l-88 -56l-20 23l114 120h24z" />
    <glyph glyph-name="atilde" unicode="&#xe3;" horiz-adv-x="394" 
d="M44 344q38 26 75.5 37.5t80.5 11.5q52 0 88 -35.5t36 -98.5v-207l55 -15v-13q-10 -13 -27.5 -22.5t-32.5 -9.5q-24 0 -40.5 13t-24.5 42q-23 -26 -52.5 -40.5t-61.5 -14.5q-22 0 -41.5 7t-34.5 21t-24 34.5t-9 47.5q0 20 8.5 40t22.5 31q23 18 68 33t119 25v15
q0 48 -14.5 74t-40.5 37q-46 -14 -109 -70zM249 187q-20 0 -39.5 -1.5t-37.5 -4.5t-32 -6.5t-23 -7.5q-11 -22 -11 -55q0 -32 15 -50t47 -18q26 0 47 10t35 27q0 11 -0.5 28t-0.5 37v41zM63 464q30 48 49.5 65.5t32.5 17.5q11 0 22.5 -4t31.5 -15l55 -29l65 47l15 -19
q-53 -82 -80 -82q-8 0 -22.5 5t-37.5 17l-50 28l-66 -49l-15 18v0z" />
    <glyph glyph-name="adieresis" unicode="&#xe4;" horiz-adv-x="394" 
d="M44 344q38 26 75.5 37.5t80.5 11.5q52 0 88 -35.5t36 -98.5v-207l55 -15v-13q-10 -13 -27.5 -22.5t-32.5 -9.5q-24 0 -40.5 13t-24.5 42q-23 -26 -52.5 -40.5t-61.5 -14.5q-22 0 -41.5 7t-34.5 21t-24 34.5t-9 47.5q0 20 8.5 40t22.5 31q23 18 68 33t119 25v15
q0 48 -14.5 74t-40.5 37q-46 -14 -109 -70zM249 187q-20 0 -39.5 -1.5t-37.5 -4.5t-32 -6.5t-23 -7.5q-11 -22 -11 -55q0 -32 15 -50t47 -18q26 0 47 10t35 27q0 11 -0.5 28t-0.5 37v41zM236 499q0 44 44 44q42 0 42 -44q0 -20 -10 -32t-32 -12q-44 0 -44 44zM72 499
q0 44 43 44t43 -44q0 -20 -10.5 -32t-32.5 -12q-43 0 -43 44z" />
    <glyph glyph-name="aring" unicode="&#xe5;" horiz-adv-x="394" 
d="M97 522q0 19 8 36t21.5 30t32 20.5t39.5 7.5t39 -7.5t31.5 -20.5t21.5 -30t8 -36t-8 -36t-21.5 -29.5t-31.5 -20t-39 -7.5t-39.5 7.5t-32 20t-21.5 29.5t-8 36zM146 522q0 -24 14.5 -39t37.5 -15q24 0 37.5 15t13.5 39q0 23 -13.5 39t-37.5 16q-23 0 -37.5 -16t-14.5 -39
zM44 344q38 26 75.5 37.5t80.5 11.5q52 0 88 -35.5t36 -98.5v-207l55 -15v-13q-10 -13 -27.5 -22.5t-32.5 -9.5q-24 0 -40.5 13t-24.5 42q-23 -26 -52.5 -40.5t-61.5 -14.5q-22 0 -41.5 7t-34.5 21t-24 34.5t-9 47.5q0 20 8.5 40t22.5 31q23 18 68 33t119 25v15
q0 48 -14.5 74t-40.5 37q-46 -14 -109 -70zM249 187q-20 0 -39.5 -1.5t-37.5 -4.5t-32 -6.5t-23 -7.5q-11 -22 -11 -55q0 -32 15 -50t47 -18q26 0 47 10t35 27q0 11 -0.5 28t-0.5 37v41z" />
    </font>
</defs>
</svg>
