<?xml version="1.0" standalone="no"?>
<!DOCTYPE svg PUBLIC "-//W3C//DTD SVG 1.1//EN" "http://www.w3.org/Graphics/SVG/1.1/DTD/svg11.dtd" >
<svg xmlns="http://www.w3.org/2000/svg" xmlns:xlink="http://www.w3.org/1999/xlink" version="1.1">
<metadata>
Created by FontForge 20150913 at Tue Apr 12 07:08:10 2016
 By Jimmy Wärting
To use this font, it is necessary to obtain the license from www.fontiran.com
</metadata>
<defs>
<font id="IRANSansWeb-Light" horiz-adv-x="0" >
  <font-face 
    font-family="IRANSansWeb Light"
    font-weight="300"
    font-stretch="normal"
    units-per-em="2300"
    panose-1="2 4 5 3 5 2 1 2 2 3"
    ascent="1840"
    descent="-460"
    x-height="1201"
    cap-height="1654"
    bbox="-1183 -1249 4424 2406"
    underline-thickness="100"
    underline-position="-550"
    stemh="139"
    stemv="97"
    unicode-range="U+0020-FEFC"
  />
<missing-glyph horiz-adv-x="1229" 
d="M102 -362v1806h1024v-1806h-1024zM217 -248h795v1577h-795v-1577z" />
    <glyph glyph-name="uniFDF2" unicode="&#xfedf;&#xfee0;&#x651;&#xfeea;" horiz-adv-x="2000" arabic-form="isolated" 
d="M1079 17c-19 -3 -41 -3 -62 0h-10l-17 3c-33 5 -60 15 -80 29c-51 25 -95 66 -131 125c-92 -13 -166 -20 -230 -20c-165 0 -280 39 -343 118c-37 44 -50 95 -50 142c0 39 9 74 20 97v1c109 218 354 329 470 373l-14 152c-1 7 -2 10 -2 15c59 5 101 10 157 15
c36 -424 71 -676 102 -759c33 -88 82 -134 138 -137c24 -1 47 -1 67 -1c19 0 37 0 52 1c68 4 114 44 137 96l-1 -2c5 9 7 32 7 70c0 113 -14 342 -41 772l158 17c13 -202 27 -305 35 -436c17 -243 26 -363 26 -366c0 -27 2 -70 42 -117c21 -23 49 -37 82 -38
c91 -3 156 10 185 53l-1 -2c28 35 32 79 32 122c0 9 -24 303 -73 886c57 12 99 23 154 35c45 -600 68 -933 67 -986c-1 -51 -22 -107 -65 -170c-41 -59 -124 -87 -250 -84c-11 -3 -18 -2 -27 -2c-21 0 -44 3 -68 11c-13 1 -24 4 -33 7c-43 19 -80 41 -115 73l-26 -19
l-27 -21c-72 -45 -154 -53 -221 -53h-44zM673 721c-133 -51 -284 -136 -353 -274c-5 -12 -12 -53 11 -78c13 -15 46 -39 113 -50c32 -4 69 -7 112 -7c41 0 97 4 168 12c-16 77 -32 226 -51 397zM1200 1268c-31 0 -57 12 -79 36v-1c-24 33 -36 80 -33 148c1 33 5 63 8 76
c23 -4 39 -10 59 -14l-2 -23c-1 -13 -3 -29 -3 -42v-1c-3 -48 6 -85 19 -104c7 -7 12 -13 31 -13c42 0 70 51 86 94c16 47 20 84 23 99c23 -1 43 0 64 -1c0 -11 1 -22 3 -33c3 -19 7 -43 14 -66c11 -38 35 -90 71 -90c13 0 25 3 34 10c8 11 23 34 23 94
c0 55 -32 129 -50 160l53 30c13 -24 59 -110 59 -190c0 -63 -14 -108 -43 -137s-64 -29 -76 -29c-35 0 -67 19 -91 47c-9 12 -19 31 -34 66c-45 -95 -97 -116 -136 -116zM1278 1662c11 43 16 91 16 136c0 47 -5 96 -16 137l60 17c9 -40 15 -87 15 -140
c0 -51 -4 -102 -17 -166z" />
    <glyph glyph-name="uniFDFC" unicode="&#x631;&#xfef3;&#xfe8e;&#x644;" horiz-adv-x="3142" arabic-form="isolated" 
d="M1243 492c3 -101 7 -199 15 -501c0 -91 -7 -179 -38 -266c-85 -237 -337 -377 -586 -377c-117 0 -232 31 -325 95c-141 101 -240 253 -240 425c0 168 23 335 124 476c43 -37 72 -62 115 -97c-70 -105 -87 -217 -87 -346c0 -27 1 -52 3 -76c16 -172 166 -289 332 -318
c23 -4 49 -7 77 -7c136 0 280 60 368 159c91 104 104 222 104 347c0 271 -20 742 -32 969l-19 447c8 0 16 1 157 12l14 -352c3 -76 2 -152 6 -228c5 -90 7 -180 12 -362zM2408 489c7 -37 10 -73 10 -108c0 -95 -33 -194 -102 -266c-96 -85 -244 -106 -372 -106
c-25 0 -49 -2 -76 1c-163 11 -313 87 -334 263v-1c-7 60 -2 119 -2 191c1 71 6 139 6 210c0 115 -1 144 -1 173c0 168 -37 559 -48 559l160 30c32 -401 66 -649 30 -1060c0 -89 19 -174 112 -201c20 -14 88 -5 130 -13c137 0 334 3 345 191c8 150 -59 311 -123 444
c6 12 20 8 137 61c51 -102 109 -250 128 -368zM2812 226c-21 117 -61 258 -98 370l147 45c45 -165 115 -325 115 -512c0 -23 -1 -44 -4 -67c-36 -321 -337 -555 -611 -696l-2 4l-64 134c160 80 317 195 426 339c64 92 98 189 98 290c0 31 -3 62 -7 93zM1942 -275l-141 -141
l-143 142l141 142zM2285 -277l-140 -141l-143 143l141 141z" />
    <glyph glyph-name="uniFEF5" unicode="&#xfedf;&#xfe82;" horiz-adv-x="1350" arabic-form="isolated" 
d="M1207 589c1 -11 1 -20 1 -29c0 -146 -64 -337 -167 -430c-85 -79 -204 -135 -341 -167l1 1c-73 -15 -145 -23 -215 -23c-43 0 -86 3 -128 9c11 57 19 101 28 154c31 -5 62 -6 98 -6c60 0 129 8 201 24c-84 448 -459 1012 -532 1117l130 91c34 -50 135 -202 242 -389
c159 -281 261 -537 310 -766c126 80 226 273 215 404c-33 305 -68 605 -101 910c59 5 101 11 158 16c12 -77 72 -511 100 -915v-1zM6 1365c7 19 21 62 40 93h-1c40 64 96 104 155 115c13 3 30 3 41 3c56 0 102 -17 142 -34c39 -15 72 -28 115 -29c64 -3 124 65 145 92
c37 -23 62 -41 98 -64c-13 -23 -111 -153 -248 -148c-53 1 -98 18 -137 31h1l-16 6c-44 17 -80 31 -123 24h1c-50 -5 -88 -86 -101 -124z" />
    <glyph glyph-name="uniFEF6" unicode="&#xfee0;&#xfe82;" horiz-adv-x="1470" arabic-form="final" 
d="M1317 214c47 -27 92 -33 107 -36c1 0 6 -1 7 -1l30 -1h9c43 0 79 -35 79 -78c0 -44 -36 -78 -79 -78h-49c-29 0 -184 5 -291 179c-111 -123 -239 -191 -404 -231l1 1c-73 -15 -145 -23 -215 -23c-43 0 -86 3 -128 9c11 57 19 101 28 154c31 -5 62 -6 98 -6
c60 0 129 8 201 24c-84 455 -466 1019 -531 1116l129 92c34 -50 135 -202 242 -389c159 -283 261 -536 310 -764c116 64 201 167 201 284c0 11 -1 20 -2 31v-1c-24 366 -71 830 -83 972l-3 24l158 17c2 -7 66 -656 92 -1103c8 -88 20 -148 93 -191v-1zM40 1364
c7 19 21 62 40 93h-1c40 64 96 104 155 115c13 3 30 3 41 3c56 0 102 -17 142 -34c39 -15 72 -28 115 -29c64 -3 124 65 145 92c37 -23 62 -41 98 -64c-13 -23 -111 -153 -248 -148c-53 1 -98 18 -137 31h1l-16 6c-44 17 -80 31 -123 24h1c-50 -5 -88 -86 -101 -124z" />
    <glyph glyph-name="uniFEF7" unicode="&#xfedf;&#xfe84;" horiz-adv-x="1247" arabic-form="isolated" 
d="M1105 589c1 -11 1 -20 1 -29c0 -146 -64 -337 -167 -430c-85 -79 -204 -135 -341 -167l1 1c-73 -15 -145 -23 -215 -23c-43 0 -86 3 -128 9c11 57 19 101 28 154c31 -5 62 -6 98 -6c60 0 129 8 201 24c-84 448 -459 1012 -532 1117l130 91c34 -50 135 -202 242 -389
c159 -281 261 -537 310 -766c126 80 226 273 215 404c-33 305 -68 605 -101 910c59 5 101 11 158 16c12 -77 72 -511 100 -915v-1zM281 1853c-10 1 -21 3 -32 5c-20 4 -42 6 -63 6c-24 0 -48 -3 -73 -15h1c-52 -20 -87 -71 -87 -123c0 -12 2 -29 10 -45
c21 -53 85 -97 152 -97c16 0 31 1 51 9l-1 -1c63 18 131 64 149 79l53 -69c-56 -39 -140 -84 -260 -151l-244 -135c-16 29 -26 49 -42 77l210 117c-71 31 -126 82 -151 137c-9 24 -14 50 -14 79c0 88 57 171 141 205c34 13 69 20 105 20c52 0 101 -11 121 -18z" />
    <glyph glyph-name="uniFEF8" unicode="&#xfee0;&#xfe84;" horiz-adv-x="1470" arabic-form="final" 
d="M1317 214c47 -27 92 -33 107 -36c1 0 6 -1 7 -1l30 -1h9c43 0 79 -35 79 -78c0 -44 -36 -78 -79 -78h-49c-29 0 -184 5 -291 179c-111 -123 -239 -191 -404 -231l1 1c-73 -15 -145 -23 -215 -23c-43 0 -86 3 -128 9c11 57 19 101 28 154c31 -5 62 -6 98 -6
c60 0 129 8 201 24c-84 455 -466 1019 -531 1116l129 92c34 -50 135 -202 242 -389c159 -283 261 -536 310 -764c116 64 201 167 201 284c0 11 -1 20 -2 31v-1c-24 366 -71 830 -83 972l-3 24l158 17c2 -7 66 -656 92 -1103c8 -88 20 -148 93 -191v-1zM379 1884
c-10 1 -21 3 -32 5c-20 4 -42 6 -63 6c-24 0 -48 -3 -73 -15h1c-52 -20 -87 -71 -87 -123c0 -12 2 -29 10 -45c21 -53 85 -97 152 -97c16 0 31 1 51 9l-1 -1c63 18 131 64 149 79l53 -69c-56 -39 -140 -84 -260 -151l-244 -135c-16 29 -26 49 -42 77l210 117
c-71 31 -126 82 -151 137c-9 24 -14 50 -14 79c0 88 57 171 141 205c34 13 69 20 105 20c52 0 101 -11 121 -18z" />
    <glyph glyph-name="uniFEF9" unicode="&#xfedf;&#xfe88;" horiz-adv-x="1247" arabic-form="isolated" 
d="M1105 589c1 -11 1 -20 1 -29c0 -146 -64 -337 -167 -430c-85 -79 -204 -135 -341 -167l1 1c-73 -15 -145 -23 -215 -23c-43 0 -86 3 -128 9c11 57 19 101 28 154c31 -5 62 -6 98 -6c60 0 129 8 201 24c-84 448 -459 1012 -532 1117l130 91c34 -50 135 -202 242 -389
c159 -281 261 -537 310 -766c126 80 226 273 215 404c-33 305 -68 605 -101 910c59 5 101 11 158 16c12 -77 72 -511 100 -915v-1zM782 -258c-10 1 -21 3 -32 5c-20 4 -42 6 -63 6c-24 0 -48 -3 -73 -15h1c-52 -20 -87 -71 -87 -123c0 -12 2 -29 10 -45
c21 -53 85 -97 152 -97c16 0 31 1 51 9l-1 -1c63 18 131 64 149 79l53 -69c-56 -39 -140 -84 -260 -151l-244 -135c-16 29 -26 49 -42 77l210 117c-71 31 -126 82 -151 137c-9 24 -14 50 -14 79c0 88 57 171 141 205c34 13 69 20 105 20c52 0 101 -11 121 -18z" />
    <glyph glyph-name="uniFEFA" unicode="&#xfee0;&#xfe88;" horiz-adv-x="1470" arabic-form="final" 
d="M1317 214c47 -27 92 -33 107 -36c1 0 6 -1 7 -1l30 -1h9c43 0 79 -35 79 -78c0 -44 -36 -78 -79 -78h-49c-29 0 -184 5 -291 179c-111 -123 -239 -191 -404 -231l1 1c-73 -15 -145 -23 -215 -23c-43 0 -86 3 -128 9c11 57 19 101 28 154c31 -5 62 -6 98 -6
c60 0 129 8 201 24c-84 455 -466 1019 -531 1116l129 92c34 -50 135 -202 242 -389c159 -283 261 -536 310 -764c116 64 201 167 201 284c0 11 -1 20 -2 31v-1c-24 366 -71 830 -83 972l-3 24l158 17c2 -7 66 -656 92 -1103c8 -88 20 -148 93 -191v-1zM934 -216
c-10 1 -21 3 -32 5c-20 4 -42 6 -63 6c-24 0 -48 -3 -73 -15h1c-52 -20 -87 -71 -87 -123c0 -12 2 -29 10 -45c21 -53 85 -97 152 -97c16 0 31 1 51 9l-1 -1c63 18 131 64 149 79l53 -69c-56 -39 -140 -84 -260 -151l-244 -135c-16 29 -26 49 -42 77l210 117
c-71 31 -126 82 -151 137c-9 24 -14 50 -14 79c0 88 57 171 141 205c34 13 69 20 105 20c52 0 101 -11 121 -18z" />
    <glyph glyph-name="uniFEFB" unicode="&#xfedf;&#xfe8e;" horiz-adv-x="1187" arabic-form="isolated" 
d="M1105 589c1 -11 1 -20 1 -29c0 -146 -64 -337 -167 -430c-85 -79 -204 -135 -341 -167l1 1c-73 -15 -145 -23 -215 -23c-43 0 -86 3 -128 9c11 57 19 101 28 154c31 -5 62 -6 98 -6c60 0 129 8 201 24c-84 448 -459 1012 -532 1117l130 91c34 -50 135 -202 242 -389
c159 -281 261 -537 310 -766c126 80 226 273 215 404c-33 305 -68 605 -101 910c59 5 101 11 158 16c12 -77 72 -511 100 -915v-1z" />
    <glyph glyph-name="uniFEFC" unicode="&#xfee0;&#xfe8e;" horiz-adv-x="1461" arabic-form="final" 
d="M1317 214c47 -27 92 -33 107 -36c1 0 6 -1 7 -1l30 -1h9c43 0 79 -35 79 -78c0 -44 -36 -78 -79 -78h-49c-29 0 -184 5 -291 179c-111 -123 -239 -191 -404 -231l1 1c-73 -15 -145 -23 -215 -23c-43 0 -86 3 -128 9c11 57 19 101 28 154c31 -5 62 -6 98 -6
c60 0 129 8 201 24c-84 455 -466 1019 -531 1116l129 92c34 -50 135 -202 242 -389c159 -283 261 -536 310 -764c116 64 201 167 201 284c0 11 -1 20 -2 31v-1c-24 366 -71 830 -83 972l-3 24l158 17c2 -7 66 -656 92 -1103c8 -88 20 -148 93 -191v-1z" />
    <glyph glyph-name="uni06440671.isol" unicode="&#xfedf;&#xfb51;" horiz-adv-x="1247" 
d="M1105 589c1 -11 1 -20 1 -29c0 -146 -64 -337 -167 -430c-85 -79 -204 -135 -341 -167l1 1c-73 -15 -145 -23 -215 -23c-43 0 -86 3 -128 9c11 57 19 101 28 154c31 -5 62 -6 98 -6c60 0 129 8 201 24c-84 448 -459 1012 -532 1117l130 91c34 -50 135 -202 242 -389
c159 -281 261 -537 310 -766c126 80 226 273 215 404c-33 305 -68 605 -101 910c59 5 101 11 158 16c12 -77 72 -511 100 -915v-1zM443 1446c70 -8 193 -7 249 41c17 15 27 34 29 57c0 19 -11 34 -18 41c-27 28 -58 27 -82 23c-36 -7 -72 -24 -103 -55
c-39 -39 -64 -84 -75 -107zM169 1477c17 9 35 16 52 22c29 11 63 19 86 14s41 -14 54 -25c7 -6 14 -12 19 -19c13 25 43 83 94 132c39 37 87 63 135 70c56 12 106 -3 141 -40c25 -27 39 -57 35 -92c-1 -41 -19 -76 -53 -104c-58 -47 -152 -58 -224 -58c-39 0 -72 4 -85 5
c-17 2 -33 7 -49 14c-19 8 -34 19 -53 44c-21 16 -55 9 -83 -3c-17 -7 -34 -17 -51 -28z" />
    <glyph glyph-name="uni06440671.fina" unicode="&#xfee0;&#xfb51;" horiz-adv-x="1470" 
d="M1317 214c47 -27 92 -33 107 -36c1 0 6 -1 7 -1l30 -1h9c43 0 79 -35 79 -78c0 -44 -36 -78 -79 -78h-49c-29 0 -184 5 -291 179c-111 -123 -239 -191 -404 -231l1 1c-73 -15 -145 -23 -215 -23c-43 0 -86 3 -128 9c11 57 19 101 28 154c31 -5 62 -6 98 -6
c60 0 129 8 201 24c-84 455 -466 1019 -531 1116l129 92c34 -50 135 -202 242 -389c159 -283 261 -536 310 -764c116 64 201 167 201 284c0 11 -1 20 -2 31v-1c-24 366 -71 830 -83 972l-3 24l158 17c2 -7 66 -656 92 -1103c8 -88 20 -148 93 -191v-1zM570 1422
c70 -8 193 -7 249 41c17 15 27 34 29 57c0 19 -11 34 -18 41c-27 28 -58 27 -82 23c-36 -7 -72 -24 -103 -55c-39 -39 -64 -84 -75 -107zM296 1453c17 9 35 16 52 22c29 11 63 19 86 14s41 -14 54 -25c7 -6 14 -12 19 -19c13 25 43 83 94 132c39 37 87 63 135 70
c56 12 106 -3 141 -40c25 -27 39 -57 35 -92c-1 -41 -19 -76 -53 -104c-58 -47 -152 -58 -224 -58c-39 0 -72 4 -85 5c-17 2 -33 7 -49 14c-19 8 -34 19 -53 44c-21 16 -55 9 -83 -3c-17 -7 -34 -17 -51 -28z" />
    <glyph glyph-name="tooman" unicode="&#xfe97;&#xfeee;&#xfee3;&#xfe8e;&#x646;" horiz-adv-x="4519" 
d="M3736 98c0 44 35 78 78 78h103c15 0 30 -1 45 -1c130 0 238 21 289 131v-1c11 22 16 51 16 88c0 63 -15 141 -44 235c-22 67 -64 161 -80 198l142 71c16 -37 55 -122 87 -221c35 -108 52 -201 52 -281c0 -59 -9 -110 -28 -153c-47 -97 -128 -170 -240 -201
c-69 -20 -136 -21 -196 -21h-146c-43 0 -78 34 -78 78zM4028 1221l-146 -146l-148 147l146 147zM4383 1219l-145 -146l-148 148l146 146zM3092 -525c406 88 651 329 683 545h-77c-49 0 -105 1 -157 5c-138 9 -240 54 -306 135v-1c-43 55 -61 124 -61 200
c0 122 53 260 117 348c61 76 141 120 218 120c89 0 171 -41 246 -122v1c109 -122 179 -322 184 -530h94c44 0 80 -34 80 -79c0 -43 -36 -77 -80 -77h-107c-77 -389 -425 -635 -797 -699zM3509 670c-98 0 -202 -181 -202 -308c0 -44 15 -81 35 -106v1c45 -58 157 -73 209 -76
c75 -4 162 -5 230 2c-8 186 -73 337 -144 416c-29 32 -76 71 -128 71zM1905 98c0 43 35 75 78 78h-1c235 0 315 165 400 336c35 72 66 138 109 189c57 69 125 103 203 103c95 0 173 -38 236 -114c98 -119 125 -333 66 -481c-36 -88 -98 -150 -174 -170c-23 -6 -49 -9 -76 -9
c-50 0 -105 12 -165 36c-65 26 -135 67 -212 123l-19 -18c-99 -101 -221 -151 -367 -151c-44 0 -78 35 -78 78zM2460 319c114 -85 244 -133 314 -133c13 0 26 1 39 5h-1c118 45 112 435 -118 455c-66 5 -103 -64 -172 -203zM1972 20c-141 0 -239 32 -307 100
c-83 83 -81 198 -81 260c1 40 4 145 4 285c0 122 -1 266 -7 412c-4 149 -12 268 -26 355l156 28c16 -94 24 -221 28 -378c6 -153 6 -307 6 -437c0 -103 -1 -183 -2 -267c-1 -64 0 -112 36 -147c33 -33 95 -54 184 -55h9c43 0 79 -35 79 -78c0 -44 -36 -78 -79 -78zM741 -460
c-397 8 -640 227 -640 616c0 206 78 432 163 573l128 -94c-48 -75 -132 -284 -132 -485c0 -186 78 -439 484 -451c365 -11 568 198 568 513c0 234 -108 443 -153 515l139 89c36 -56 173 -304 173 -599c0 -422 -303 -693 -730 -677zM933 785l-147 -147l-148 148l147 147z" />
    <glyph glyph-name="yeye" unicode="&#xfbff;&#xfbff;" horiz-adv-x="1756" 
d="M-81 98c0 44 34 78 78 78h76c236 0 448 35 440 246c-3 72 -10 126 -37 227c56 15 96 28 149 43c32 -115 34 -185 47 -288c13 -111 28 -228 183 -228c44 0 80 -34 80 -78s-35 -78 -78 -78c-126 0 -215 58 -273 138c-103 -101 -322 -138 -511 -138h-76c-44 0 -78 34 -78 78
zM810 98c0 44 34 78 78 78h76c236 0 448 35 440 246c-3 72 -10 126 -37 227c56 15 96 28 149 43c32 -115 34 -185 47 -288c13 -111 28 -228 183 -228c44 0 80 -34 80 -78s-35 -78 -78 -78c-126 0 -215 58 -273 138c-103 -101 -322 -138 -511 -138h-76c-44 0 -78 34 -78 78z
M357 -473l-148 -148l-150 149l148 149zM751 -474l-148 -149l-150 150l148 148zM1247 -343l-148 -148l-150 149l148 149zM1641 -344l-148 -149l-150 150l148 148z" />
    <glyph glyph-name="yeye1" unicode="&#xfbfe;&#xfbff;" horiz-adv-x="1717" 
d="M-81 98c0 44 34 78 78 78h76c236 0 448 35 440 246c-3 72 -10 126 -37 227c56 15 96 28 149 43c32 -115 34 -185 47 -288c13 -111 28 -228 183 -228c44 0 80 -34 80 -78s-35 -78 -78 -78c-126 0 -215 58 -273 138c-103 -101 -322 -138 -511 -138h-76c-44 0 -78 34 -78 78
zM357 -488l-148 -148l-150 149l148 149zM751 -489l-148 -149l-150 150l148 148zM804 98c0 44 35 78 78 78h111c149 0 383 4 439 130v-1c11 22 16 51 16 88c0 63 -21 142 -50 235c-22 67 -64 161 -80 198l142 71c16 -37 55 -122 87 -221c35 -108 52 -201 52 -281
c0 -59 -9 -110 -28 -153c-47 -97 -128 -170 -240 -201c-68 -21 -237 -21 -295 -21h-154c-43 0 -78 34 -78 78zM1208 -344l-148 -148l-150 149l148 149zM1602 -345l-148 -149l-150 150l148 148z" />
    <glyph glyph-name="uni0621" unicode="&#x621;" horiz-adv-x="1019" arabic-form="isolated" 
d="M780 567c-12 5 -25 9 -38 14c-24 8 -54 16 -86 23c-32 4 -72 4 -101 -1c-81 -24 -134 -92 -134 -169c0 -92 86 -178 181 -191c9 -1 20 -2 33 -2c84 0 180 45 250 77c20 -39 37 -71 57 -108c-74 -37 -172 -72 -728 -280l-42 119l293 111c-81 49 -142 128 -161 208
c-5 19 -8 40 -8 63c0 193 190 328 378 296c74 -13 140 -41 160 -49z" />
    <glyph glyph-name="uni0622" unicode="&#x622;" horiz-adv-x="621" arabic-form="isolated" 
d="M224 23c19 289 20 500 17 763c-3 109 -6 205 -13 274c-9 124 -17 256 -34 384c57 9 98 10 154 17c24 -176 39 -387 47 -568c3 -91 5 -190 5 -302c0 -173 -4 -364 -19 -577zM-103 1561c7 19 21 62 40 93h-1c40 64 96 104 155 115c13 3 30 3 41 3c56 0 102 -17 142 -34
c39 -15 72 -28 115 -29c64 -3 124 65 145 92c37 -23 62 -41 98 -64c-13 -23 -111 -153 -248 -148c-53 1 -98 18 -137 31h1l-16 6c-44 17 -80 31 -123 24h1c-50 -5 -88 -86 -101 -124z" />
    <glyph glyph-name="uni0623" unicode="&#x623;" horiz-adv-x="525" arabic-form="isolated" 
d="M151 23c19 289 20 500 17 763c-3 109 -6 205 -13 274c-9 124 -17 256 -34 384c57 9 98 10 154 17c24 -176 39 -387 47 -568c3 -91 5 -190 5 -302c0 -173 -4 -364 -19 -577zM384 2019c-10 1 -21 3 -32 5c-20 4 -42 6 -63 6c-24 0 -48 -3 -73 -15h1
c-52 -20 -87 -71 -87 -123c0 -12 2 -29 10 -45c21 -53 85 -97 152 -97c16 0 31 1 51 9l-1 -1c63 18 131 64 149 79l53 -69c-56 -39 -140 -84 -260 -151l-244 -135c-16 29 -26 49 -42 77l210 117c-71 31 -126 82 -151 137c-9 24 -14 50 -14 79c0 88 57 171 141 205
c34 13 69 20 105 20c52 0 101 -11 121 -18z" />
    <glyph glyph-name="uni0624" unicode="&#x624;" horiz-adv-x="1043" arabic-form="isolated" 
d="M518 670c-98 0 -201 -180 -201 -308c0 -44 16 -81 36 -106v1c86 -84 210 -79 308 -79c43 0 98 2 129 5c-8 186 -73 337 -144 416c-29 32 -76 71 -128 71zM101 -525c406 88 651 329 683 545h-77c-154 -8 -383 18 -463 140v-1c-43 55 -61 124 -61 200c0 122 53 260 117 348
c61 76 141 120 218 120c89 0 171 -41 246 -122v1c115 -128 184 -328 184 -536c0 -453 -385 -781 -810 -849zM502 1338l-27 6c-17 3 -40 7 -65 7c-20 0 -41 -3 -62 -12v2c-43 -19 -71 -60 -71 -104c0 -11 3 -23 8 -36l-1 1c19 -47 71 -82 128 -82c15 0 27 0 42 7
c35 11 69 30 96 46c15 9 30 19 43 29l59 -78c-52 -39 -129 -79 -242 -142l-227 -126l-48 87l179 100c-55 23 -98 68 -121 120c-9 23 -14 47 -14 74c0 83 53 161 133 193c31 13 64 19 98 19c31 0 59 -5 82 -10l38 -9z" />
    <glyph glyph-name="uni0625" unicode="&#x625;" horiz-adv-x="525" arabic-form="isolated" 
d="M131 23c19 289 20 500 17 763c-3 109 -6 205 -13 274c-9 124 -17 256 -34 384c57 9 98 10 154 17c24 -176 39 -387 47 -568c3 -91 5 -190 5 -302c0 -173 -4 -364 -19 -577zM374 -197c-10 1 -21 3 -32 5c-20 4 -42 6 -63 6c-24 0 -48 -3 -73 -15h1
c-52 -20 -87 -71 -87 -123c0 -12 2 -29 10 -45c21 -53 85 -97 152 -97c16 0 31 1 51 9l-1 -1c63 18 131 64 149 79l53 -69c-56 -39 -140 -84 -260 -151l-244 -135c-16 29 -26 49 -42 77l210 117c-71 31 -126 82 -151 137c-9 24 -14 50 -14 79c0 88 57 171 141 205
c34 13 69 20 105 20c52 0 101 -11 121 -18z" />
    <glyph glyph-name="uni0626" unicode="&#x626;" horiz-adv-x="1723" arabic-form="isolated" 
d="M1375 812c37 8 72 11 104 11c99 0 180 -28 218 -42c-27 -57 -45 -91 -71 -147c-28 11 -82 25 -143 25c-24 0 -50 -2 -74 -7h2c-158 -16 -364 -228 -364 -405c0 -23 3 -45 10 -66c29 -83 137 -113 246 -137c140 -32 295 -73 295 -246c0 -19 -2 -40 -6 -64v1
c-23 -125 -114 -231 -263 -306c-144 -73 -329 -112 -544 -112c-244 0 -438 75 -558 206c-84 99 -132 232 -132 377c0 31 2 64 6 97c32 228 122 514 146 584c53 -19 104 -38 153 -55c-56 -170 -109 -374 -136 -548c-3 -23 -5 -50 -5 -78c0 -85 26 -189 91 -267
c91 -96 243 -151 435 -151c391 0 633 140 646 284c5 64 -89 92 -182 116c-134 35 -314 83 -346 244c-7 33 -10 67 -10 100c0 270 213 530 482 586zM692 1125l-27 6c-17 3 -40 7 -65 7c-20 0 -41 -3 -62 -12v2c-43 -19 -71 -60 -71 -104c0 -11 3 -23 8 -36l-1 1
c19 -47 71 -82 128 -82c15 0 27 0 42 7c35 11 69 30 96 46c15 9 30 19 43 29l59 -78c-52 -39 -129 -79 -242 -142l-227 -126l-48 87l179 100c-55 23 -98 68 -121 120c-9 23 -14 47 -14 74c0 83 53 161 133 193c31 13 64 19 98 19c31 0 59 -5 82 -10l38 -9z" />
    <glyph glyph-name="uni0627" unicode="&#x627;" horiz-adv-x="502" arabic-form="isolated" 
d="M182 20c13 219 19 404 19 586c0 500 -41 840 -52 925l157 24c0 -4 4 -23 12 -100c9 -76 15 -164 22 -265c7 -99 10 -195 13 -276c3 -93 5 -195 5 -310c0 -179 -4 -374 -19 -593z" />
    <glyph glyph-name="uni0628" unicode="&#x628;" horiz-adv-x="1992" arabic-form="isolated" 
d="M998 20c-232 3 -427 31 -568 82c-129 51 -224 126 -269 219c-27 51 -40 107 -40 169c0 59 14 125 38 189c27 68 58 121 75 148l126 -94c-8 -11 -5 -9 -56 -114c-17 -47 -28 -89 -28 -128c0 -35 9 -70 22 -98c74 -132 331 -215 700 -215c217 0 530 31 767 161
c-16 173 -145 380 -182 442l133 86c36 -57 138 -231 178 -401c9 -40 15 -75 15 -108c0 -60 -30 -108 -105 -157c-184 -104 -554 -184 -806 -181zM1158 -361l-147 -147l-148 148l147 147z" />
    <glyph glyph-name="uni0629" unicode="&#x629;" horiz-adv-x="1020" arabic-form="isolated" 
d="M522 16c-11 0 -109 1 -204 46c-119 56 -182 152 -182 281c0 113 54 237 158 364c41 49 93 99 132 135c-77 67 -72 71 -75 68l107 114c34 -32 131 -118 214 -209c156 -179 238 -341 238 -472c0 -129 -59 -225 -168 -280c-83 -40 -172 -47 -220 -47zM510 719
c-80 -69 -232 -236 -232 -375c0 -45 27 -100 108 -139h-1c56 -27 116 -30 137 -30c26 0 96 1 150 28c57 31 95 67 95 135c0 90 -92 232 -223 376l-18 20zM428 1360l-146 -146l-148 147l146 147zM783 1358l-145 -146l-148 148l146 146z" />
    <glyph glyph-name="uni062A" unicode="&#x62a;" horiz-adv-x="2000" arabic-form="isolated" 
d="M978 20c-232 3 -427 31 -568 82c-129 51 -224 126 -269 219c-27 51 -40 107 -40 169c0 59 14 125 38 189c27 68 58 121 75 148l126 -94c-8 -11 -5 -9 -56 -114c-17 -47 -28 -89 -28 -128c0 -35 9 -70 22 -98c74 -132 331 -215 700 -215c217 0 530 31 767 161
c-16 173 -145 380 -182 442l133 86c36 -57 138 -231 178 -401c9 -40 15 -75 15 -108c0 -60 -30 -108 -105 -157c-184 -104 -554 -184 -806 -181zM972 989l-146 -146l-148 147l146 147zM1327 987l-145 -146l-148 148l146 146z" />
    <glyph glyph-name="uni062B" unicode="&#x62b;" horiz-adv-x="1964" arabic-form="isolated" 
d="M985 20c-232 3 -427 31 -568 82c-129 51 -224 126 -269 219c-27 51 -40 107 -40 169c0 59 14 125 38 189c27 68 58 121 75 148l126 -94c-8 -11 -5 -9 -56 -114c-17 -47 -28 -89 -28 -128c0 -35 9 -70 22 -98c74 -132 331 -215 700 -215c217 0 530 31 767 161
c-16 173 -145 380 -182 442l133 86c36 -57 138 -231 178 -401c9 -40 15 -75 15 -108c0 -60 -30 -108 -105 -157c-184 -104 -554 -184 -806 -181zM1058 968l146 146l148 -148l-146 -146zM652 969l146 147l148 -148l-146 -147zM875 1259l132 132l133 -133l-132 -132z" />
    <glyph glyph-name="uni062C" unicode="&#x62c;" horiz-adv-x="1570" arabic-form="isolated" 
d="M873 -608c188 0 352 51 515 164l90 -129c-189 -127 -402 -199 -643 -199c-400 0 -725 222 -725 607c0 15 0 27 1 43c24 409 471 727 1107 715c-146 77 -359 312 -577 312c-143 0 -255 -132 -325 -229c-32 22 -44 28 -70 46c-19 13 -38 25 -59 38c91 145 245 303 438 303
c337 0 544 -282 814 -439l-63 -182c-574 60 -1085 -216 -1113 -581c-4 -320 299 -469 610 -469zM1034 -93l-147 -147l-148 148l147 147z" />
    <glyph glyph-name="uni062D" unicode="&#x62d;" horiz-adv-x="1592" arabic-form="isolated" 
d="M867 -608c188 0 352 51 515 164l90 -129c-189 -127 -402 -199 -643 -199c-400 0 -725 222 -725 607c0 15 0 27 1 43c24 409 471 727 1107 715c-146 77 -359 312 -577 312c-143 0 -255 -132 -325 -229c-32 22 -44 28 -70 46c-19 13 -38 25 -59 38c91 145 245 303 438 303
c337 0 544 -282 814 -439l-63 -182c-574 60 -1085 -216 -1113 -581c-4 -320 299 -469 610 -469z" />
    <glyph glyph-name="uni062E" unicode="&#x62e;" horiz-adv-x="1570" arabic-form="isolated" 
d="M867 -608c188 0 352 51 515 164l90 -129c-189 -127 -402 -199 -643 -199c-400 0 -725 222 -725 607c0 15 0 27 1 43c24 409 471 727 1107 715c-146 77 -359 312 -577 312c-143 0 -255 -132 -325 -229c-32 22 -44 28 -70 46c-19 13 -38 25 -59 38c91 145 245 303 438 303
c337 0 544 -282 814 -439l-63 -182c-574 60 -1085 -216 -1113 -581c-4 -320 299 -469 610 -469zM754 1442l-147 -147l-148 148l147 147z" />
    <glyph glyph-name="uni062F" unicode="&#x62f;" horiz-adv-x="1127" arabic-form="isolated" 
d="M545 21c-121 0 -348 60 -418 116l67 153c95 -55 252 -106 390 -106c99 0 193 23 250 94c139 171 -259 589 -425 680l65 146c220 -120 471 -419 527 -655c19 -88 19 -195 -45 -270c-59 -71 -142 -118 -247 -141c-47 -12 -103 -17 -164 -17z" />
    <glyph glyph-name="uni0630" unicode="&#x630;" horiz-adv-x="1111" arabic-form="isolated" 
d="M545 21c-121 0 -348 60 -418 116l67 153c95 -55 252 -106 390 -106c99 0 193 23 250 94c139 171 -259 589 -425 680l65 146c220 -120 471 -419 527 -655c19 -88 19 -195 -45 -270c-59 -71 -142 -118 -247 -141c-47 -12 -103 -17 -164 -17zM609 1464l-147 -147l-148 148
l147 147z" />
    <glyph glyph-name="uni0631" unicode="&#x631;" horiz-adv-x="717" arabic-form="isolated" 
d="M481 625c18 -62 35 -122 50 -181c26 -101 54 -220 65 -300c0 -16 3 -31 3 -54c0 -333 -308 -615 -632 -779l-69 140c279 144 545 375 545 639c0 13 -2 26 -3 41c-16 148 -95 391 -111 447z" />
    <glyph glyph-name="uni0632" unicode="&#x632;" horiz-adv-x="722" arabic-form="isolated" 
d="M481 625c18 -62 35 -122 50 -181c26 -101 54 -220 65 -300c0 -16 3 -31 3 -54c0 -333 -308 -615 -632 -779l-69 140c279 144 545 375 545 639c0 13 -2 26 -3 41c-16 148 -95 391 -111 447zM545 1056l-147 -147l-148 148l147 147z" />
    <glyph glyph-name="uni0633" unicode="&#x633;" horiz-adv-x="2654" arabic-form="isolated" 
d="M2420 897c40 -71 143 -290 143 -482c-3 -219 -92 -392 -320 -392c-69 0 -170 50 -233 145c-88 -104 -189 -141 -297 -146c-60 -3 -115 17 -155 40c-23 13 -45 28 -65 45c32 -520 -353 -770 -752 -746c-171 0 -313 48 -421 145c-97 87 -164 211 -184 354
c-17 116 -12 232 17 349s77 228 142 333c45 -33 82 -55 123 -86c-93 -149 -153 -393 -126 -574c16 -111 93 -362 446 -362c420 19 599 186 599 514c0 203 -72 379 -154 525l138 78l12 -29l42 -94c72 -166 167 -329 331 -332c170 8 193 163 193 328v122c60 5 108 10 165 17
c1 -6 1 -13 1 -20c0 -12 0 -28 1 -45c4 -104 20 -411 184 -411c102 0 160 128 157 257c-11 150 -78 297 -123 385z" />
    <glyph glyph-name="uni0634" unicode="&#x634;" horiz-adv-x="2681" arabic-form="isolated" 
d="M2420 897c40 -71 143 -290 143 -482c-3 -219 -92 -392 -320 -392c-69 0 -170 50 -233 145c-88 -104 -189 -141 -297 -146c-60 -3 -115 17 -155 40c-23 13 -45 28 -65 45c32 -520 -353 -770 -752 -746c-171 0 -313 48 -421 145c-97 87 -164 211 -184 354
c-17 116 -12 232 17 349s77 228 142 333c45 -33 82 -55 123 -86c-93 -149 -153 -393 -126 -574c16 -111 93 -362 446 -362c420 19 599 186 599 514c0 203 -72 379 -154 525l138 78l12 -29l42 -94c72 -166 167 -329 331 -332c170 8 193 163 193 328v122c60 5 108 10 165 17
c1 -6 1 -13 1 -20c0 -12 0 -28 1 -45c4 -104 20 -411 184 -411c102 0 160 128 157 257c-11 150 -78 297 -123 385zM1952 1142l146 146l148 -148l-146 -146zM1546 1143l146 147l148 -148l-146 -147zM1769 1433l132 132l133 -133l-132 -132z" />
    <glyph glyph-name="uni0635" unicode="&#x635;" horiz-adv-x="2867" arabic-form="isolated" 
d="M836 -629c-31 0 -64 1 -99 6c-129 9 -234 41 -319 92c-80 47 -136 112 -179 193c-37 80 -56 168 -55 271c0 83 14 169 37 261c35 139 90 259 119 306l132 -85c-38 -71 -131 -290 -131 -490c0 -69 12 -137 40 -194c56 -113 185 -182 369 -198c28 -3 59 -4 86 -4
c149 0 271 39 359 114c127 119 164 271 164 400c0 207 -84 441 -121 542c49 19 103 41 146 56c46 -105 68 -160 114 -233c47 -75 101 -116 132 -135c53 99 143 222 258 333v-1c116 109 252 196 393 223h-1c148 30 308 -10 408 -118c72 -72 107 -169 103 -262
c-12 -139 -88 -262 -205 -342c-140 -87 -320 -116 -442 -119c-16 -1 -31 -1 -47 -1c-237 0 -396 49 -584 178c0 -24 3 -89 3 -113c0 -111 -19 -225 -62 -318c-37 -84 -91 -156 -156 -212c-117 -96 -275 -150 -462 -150zM1767 201c104 -39 217 -57 337 -57
c136 0 291 33 395 94c76 51 127 128 136 220c3 64 -36 119 -60 143c-79 79 -176 88 -267 72h1c-111 -19 -217 -92 -312 -181c-104 -99 -190 -216 -230 -291z" />
    <glyph glyph-name="uni0636" unicode="&#x636;" horiz-adv-x="2894" arabic-form="isolated" 
d="M836 -629c-31 0 -64 1 -99 6c-129 9 -234 41 -319 92c-80 47 -136 112 -179 193c-37 80 -56 168 -55 271c0 83 14 169 37 261c35 139 90 259 119 306l132 -85c-38 -71 -131 -290 -131 -490c0 -69 12 -137 40 -194c56 -113 185 -182 369 -198c28 -3 59 -4 86 -4
c149 0 271 39 359 114c127 119 164 271 164 400c0 207 -84 441 -121 542c49 19 103 41 146 56c46 -105 68 -160 114 -233c47 -75 101 -116 132 -135c53 99 143 222 258 333v-1c116 109 252 196 393 223h-1c148 30 308 -10 408 -118c72 -72 107 -169 103 -262
c-12 -139 -88 -262 -205 -342c-140 -87 -320 -116 -442 -119c-16 -1 -31 -1 -47 -1c-237 0 -396 49 -584 178c0 -24 3 -89 3 -113c0 -111 -19 -225 -62 -318c-37 -84 -91 -156 -156 -212c-117 -96 -275 -150 -462 -150zM1767 201c104 -39 217 -57 337 -57
c136 0 291 33 395 94c76 51 127 128 136 220c3 64 -36 119 -60 143c-79 79 -176 88 -267 72h1c-111 -19 -217 -92 -312 -181c-104 -99 -190 -216 -230 -291zM2421 1250l-147 -147l-148 148l147 147z" />
    <glyph glyph-name="uni0637" unicode="&#x637;" horiz-adv-x="1776" arabic-form="isolated" 
d="M856 20c-44 0 -86 1 -126 4h-4c-195 11 -399 53 -608 132c21 55 36 96 56 147c79 -31 163 -56 256 -79c28 41 81 113 142 192c19 128 26 220 26 318c0 83 -5 173 -14 294c-19 263 -45 460 -53 505l157 21c8 -59 40 -339 56 -541c12 -128 7 -126 15 -392
c179 171 340 266 483 287c193 32 430 -83 443 -297c8 -138 -66 -278 -137 -347c-219 -211 -497 -244 -692 -244zM603 192c26 -3 85 -10 112 -10c7 0 13 -1 20 -1c41 -1 82 -3 125 -3c178 0 402 10 586 194c51 51 91 153 83 234c-16 129 -154 157 -263 146
c-140 -23 -307 -127 -490 -330z" />
    <glyph glyph-name="uni0638" unicode="&#x638;" horiz-adv-x="1787" arabic-form="isolated" 
d="M856 20c-44 0 -86 1 -126 4h-4c-195 11 -399 53 -608 132c21 55 36 96 56 147c79 -31 163 -56 256 -79c28 41 81 113 142 192c19 128 26 220 26 318c0 83 -5 173 -14 294c-19 263 -45 460 -53 505l157 21c8 -59 40 -339 56 -541c12 -128 7 -126 15 -392
c179 171 340 266 483 287c193 32 430 -83 443 -297c8 -138 -66 -278 -137 -347c-219 -211 -497 -244 -692 -244zM603 192c26 -3 85 -10 112 -10c7 0 13 -1 20 -1c41 -1 82 -3 125 -3c178 0 402 10 586 194c51 51 91 153 83 234c-16 129 -154 157 -263 146
c-140 -23 -307 -127 -490 -330zM1446 1338l-147 -147l-148 148l147 147z" />
    <glyph glyph-name="uni0639" unicode="&#x639;" horiz-adv-x="1543" arabic-form="isolated" 
d="M828 -715c-191 0 -407 58 -562 226c-105 113 -151 270 -140 433c7 128 57 250 140 358c88 106 223 206 360 262l-2 -1l56 19l-47 24c-96 68 -146 174 -146 298c0 220 192 401 408 409c141 8 290 -67 394 -163c-32 -39 -68 -85 -99 -122c-32 25 -64 47 -97 66
c-56 33 -129 63 -190 62c-145 -24 -270 -107 -257 -284c5 -59 31 -105 77 -137c53 -36 137 -61 245 -61c32 0 67 2 102 7c61 8 115 19 155 28c23 5 44 11 64 16c12 -56 14 -108 25 -163c-69 -12 -135 -24 -236 -40c-235 -40 -335 -76 -456 -135c-97 -48 -323 -190 -339 -453
v1c-21 -312 249 -482 549 -482c166 0 345 53 483 159l93 -133c-208 -165 -404 -194 -580 -194z" />
    <glyph glyph-name="uni063A" unicode="&#x63a;" horiz-adv-x="1548" arabic-form="isolated" 
d="M828 -715c-191 0 -407 58 -562 226c-105 113 -151 270 -140 433c7 128 57 250 140 358c88 106 223 206 360 262l-2 -1l56 19l-47 24c-96 68 -146 174 -146 298c0 220 192 401 408 409c141 8 290 -67 394 -163c-32 -39 -68 -85 -99 -122c-32 25 -64 47 -97 66
c-56 33 -129 63 -190 62c-145 -24 -270 -107 -257 -284c5 -59 31 -105 77 -137c53 -36 137 -61 245 -61c32 0 67 2 102 7c61 8 115 19 155 28c23 5 44 11 64 16c12 -56 14 -108 25 -163c-69 -12 -135 -24 -236 -40c-235 -40 -335 -76 -456 -135c-97 -48 -323 -190 -339 -453
v1c-21 -312 249 -482 549 -482c166 0 345 53 483 159l93 -133c-208 -165 -404 -194 -580 -194zM1006 1725l-147 -147l-148 148l147 147z" />
    <glyph glyph-name="uni0641" unicode="&#x641;" horiz-adv-x="1953" arabic-form="isolated" 
d="M1699 999c93 -101 166 -284 166 -475c0 -55 -1 -112 -20 -168c-104 -303 -482 -335 -890 -335c-397 0 -652 98 -767 294c-47 80 -64 163 -64 243c0 146 39 240 63 287c47 -25 92 -51 139 -76c-19 -44 -44 -107 -44 -210c0 -55 14 -114 43 -165c84 -136 285 -211 600 -223
c29 -1 57 -1 84 -1c330 0 611 77 694 224c-204 -45 -385 4 -481 108c-31 35 -58 92 -58 179c0 181 118 431 310 431c82 0 157 -37 225 -112v-1zM1709 572c-26 138 -68 354 -231 383c-60 11 -173 -134 -173 -257c0 -37 15 -71 36 -99c72 -93 265 -79 371 -52zM1630 1465
l-147 -147l-148 148l147 147z" />
    <glyph glyph-name="uni0642" unicode="&#x642;" horiz-adv-x="1592" arabic-form="isolated" 
d="M1063 21c-140 11 -244 54 -307 135c-43 55 -65 120 -65 195c0 126 55 267 121 352c61 80 137 121 217 121c91 0 170 -42 246 -123v1c114 -127 182 -331 182 -536c0 -31 -1 -60 -4 -91c3 -6 -6 -173 -94 -341c-53 -103 -123 -183 -209 -242c-108 -76 -233 -111 -385 -111
c-131 0 -243 25 -338 74c-101 51 -181 121 -233 214c-57 93 -88 204 -88 328c0 19 1 40 3 61c11 147 59 301 142 462l140 -76c-84 -161 -126 -311 -126 -446c0 -92 20 -176 63 -248c81 -135 239 -208 434 -211c12 -1 26 -1 37 -1c265 0 439 230 492 480zM1029 665
c-116 -12 -188 -212 -188 -310c0 -43 10 -76 29 -99v1c46 -60 149 -74 202 -79c40 -2 77 -3 112 -3c37 0 90 1 117 4c-8 188 -74 336 -143 416c-32 32 -76 70 -129 70zM971 1166l-146 -146l-148 147l146 147zM1326 1164l-145 -146l-148 148l146 146z" />
    <glyph glyph-name="uni0643" unicode="&#x643;" horiz-adv-x="2003" arabic-form="isolated" 
d="M1842 954c3 -72 4 -133 7 -189c5 -131 7 -214 7 -257c-1 -64 -13 -127 -46 -190c-51 -97 -146 -172 -273 -223c-145 -53 -338 -86 -566 -86c-232 3 -427 32 -568 83c-129 51 -224 124 -269 219c-27 51 -40 107 -40 169c0 59 14 125 38 189c27 68 58 121 75 148l126 -94
c-8 -11 -6 -9 -13 -22l1 1c-15 -25 -31 -57 -44 -93c-17 -45 -25 -88 -25 -128c0 -35 9 -70 22 -98c74 -132 328 -215 697 -215c217 0 383 23 507 72c94 38 158 89 193 153l-1 -1c23 41 29 84 30 125l-17 432c-8 241 -25 456 -33 525l156 16c3 -43 23 -243 36 -536z
M1145 901c-10 1 -21 3 -32 5c-20 4 -42 6 -63 6c-24 0 -48 -3 -73 -15h1c-52 -20 -87 -71 -87 -123c0 -12 2 -29 10 -45c21 -53 85 -97 152 -97c16 0 31 1 51 9l-1 -1c63 18 131 64 149 79l53 -69c-56 -39 -140 -84 -260 -151l-244 -135c-16 29 -26 49 -42 77l210 117
c-71 31 -126 82 -151 137c-9 24 -14 50 -14 79c0 88 57 171 141 205c34 13 69 20 105 20c52 0 101 -11 121 -18z" />
    <glyph glyph-name="uni0644" unicode="&#x644;" horiz-adv-x="1472" arabic-form="isolated" 
d="M338 330c-18 -36 -34 -76 -48 -119c-24 -75 -48 -176 -48 -293c0 -278 243 -389 388 -397h-1c11 -1 21 -1 32 -1c205 0 477 129 477 466c0 388 -47 1366 -52 1515c59 1 100 5 156 8c10 -209 19 -410 26 -603c13 -328 26 -709 26 -920c0 -467 -367 -622 -627 -622
c-12 0 -23 0 -35 1c-234 12 -550 167 -546 553c3 277 80 431 109 476z" />
    <glyph glyph-name="uni0645" unicode="&#x645;" horiz-adv-x="1178" arabic-form="isolated" 
d="M153 -711l-36 908c0 30 4 127 73 175c21 19 55 34 103 34c23 0 52 -5 91 -16c19 55 41 111 69 166c40 75 81 133 122 175c64 63 132 93 205 90c101 -4 186 -46 246 -123c43 -61 73 -152 81 -240c1 -15 1 -28 1 -43c0 -72 -11 -141 -38 -205c-35 -88 -96 -143 -163 -158
c-69 -8 -170 27 -356 104v-1c-75 32 -155 64 -219 85c-13 4 -41 15 -52 8c-7 -8 -6 -14 -6 -45l35 -914h-156zM611 302c61 -27 121 -49 172 -68c53 -19 85 -26 97 -27c48 19 72 155 72 211c0 29 -4 59 -12 89c-40 142 -133 157 -166 157c-53 1 -123 -69 -180 -181
c-19 -37 -35 -76 -64 -149z" />
    <glyph glyph-name="uni0646" unicode="&#x646;" horiz-adv-x="1592" arabic-form="isolated" 
d="M767 -668c-397 8 -640 227 -640 616c0 206 78 432 163 573l128 -94c-48 -75 -132 -284 -132 -485c0 -186 78 -439 484 -451c365 -11 568 198 568 513c0 234 -108 443 -153 515l139 89c36 -56 173 -304 173 -599c0 -422 -303 -693 -730 -677zM966 641l-147 -147l-148 148
l147 147z" />
    <glyph glyph-name="uni0647" unicode="&#x647;" horiz-adv-x="974" arabic-form="isolated" 
d="M485 16c-11 0 -109 1 -204 46c-119 56 -182 152 -182 281c0 113 54 237 158 364c41 49 93 99 132 135c-77 67 -72 71 -75 68l107 114c34 -32 131 -118 214 -209c156 -179 238 -341 238 -472c0 -129 -59 -225 -168 -280c-83 -40 -172 -47 -220 -47zM473 719
c-80 -69 -232 -236 -232 -375c0 -45 27 -100 108 -139h-1c56 -27 116 -30 137 -30c26 0 96 1 150 28c57 31 95 67 95 135c0 90 -92 232 -223 376l-18 20z" />
    <glyph glyph-name="uni0648" unicode="&#x648;" horiz-adv-x="1051" arabic-form="isolated" 
d="M518 670c-98 0 -201 -180 -201 -308c0 -44 16 -81 36 -106v1c86 -84 210 -79 308 -79c43 0 98 2 129 5c-8 186 -73 337 -144 416c-29 32 -76 71 -128 71zM101 -525c406 88 651 329 683 545h-77c-154 -8 -383 18 -463 140v-1c-43 55 -61 124 -61 200c0 122 53 260 117 348
c61 76 141 120 218 120c89 0 171 -41 246 -122v1c115 -128 184 -328 184 -536c0 -453 -385 -781 -810 -849z" />
    <glyph glyph-name="uni0649" unicode="&#x649;" horiz-adv-x="1733" arabic-form="isolated" 
d="M1375 812c37 8 72 11 104 11c99 0 180 -28 218 -42c-27 -57 -45 -91 -71 -147c-28 11 -82 25 -143 25c-24 0 -50 -2 -74 -7h2c-158 -16 -364 -228 -364 -405c0 -23 3 -45 10 -66c29 -83 137 -113 246 -137c140 -32 295 -73 295 -246c0 -19 -2 -40 -6 -64v1
c-23 -125 -114 -231 -263 -306c-144 -73 -329 -112 -544 -112c-244 0 -438 75 -558 206c-84 99 -132 232 -132 377c0 31 2 64 6 97c32 228 122 514 146 584c53 -19 104 -38 153 -55c-56 -170 -109 -374 -136 -548c-3 -23 -5 -50 -5 -78c0 -85 26 -189 91 -267
c91 -96 243 -151 435 -151c391 0 633 140 646 284c5 64 -89 92 -182 116c-134 35 -314 83 -346 244c-7 33 -10 67 -10 100c0 270 213 530 482 586z" />
    <glyph glyph-name="uni064A" unicode="&#x64a;" horiz-adv-x="1781" arabic-form="isolated" 
d="M1375 812c37 8 72 11 104 11c99 0 180 -28 218 -42c-27 -57 -45 -91 -71 -147c-28 11 -82 25 -143 25c-24 0 -50 -2 -74 -7h2c-158 -16 -364 -228 -364 -405c0 -23 3 -45 10 -66c29 -83 137 -113 246 -137c140 -32 295 -73 295 -246c0 -19 -2 -40 -6 -64v1
c-23 -125 -114 -231 -263 -306c-144 -73 -329 -112 -544 -112c-244 0 -438 75 -558 206c-84 99 -132 232 -132 377c0 31 2 64 6 97c32 228 122 514 146 584c53 -19 104 -38 153 -55c-56 -170 -109 -374 -136 -548c-3 -23 -5 -50 -5 -78c0 -85 26 -189 91 -267
c91 -96 243 -151 435 -151c391 0 633 140 646 284c5 64 -89 92 -182 116c-134 35 -314 83 -346 244c-7 33 -10 67 -10 100c0 270 213 530 482 586zM773 -993l-146 -146l-148 147l146 147zM1128 -995l-145 -146l-148 148l146 146z" />
    <glyph glyph-name="uni066E.init" unicode="&#x66e;" horiz-adv-x="700" 
d="M-85 98c0 44 35 78 78 78h103c15 0 30 -1 45 -1c130 0 238 21 289 131v-1c11 22 16 51 16 88c0 63 -15 141 -44 235c-22 67 -64 161 -80 198l142 71c16 -37 55 -122 87 -221c35 -108 52 -201 52 -281c0 -59 -9 -110 -28 -153c-47 -97 -128 -170 -240 -201
c-69 -20 -136 -21 -196 -21h-146c-43 0 -78 34 -78 78z" />
    <glyph glyph-name="uni066E.medi" unicode="&#x66e;" horiz-adv-x="705" 
d="M-74 98c0 43 34 78 78 78h17c237 0 346 84 346 256c0 71 -12 133 -39 232c56 15 96 28 149 43c31 -115 47 -206 50 -291c5 -151 25 -240 177 -240c43 0 79 -35 79 -78c0 -44 -35 -78 -78 -78c-127 0 -211 55 -272 134c-92 -89 -223 -134 -412 -134h-17
c-44 0 -78 34 -78 78z" />
    <glyph glyph-name="uni066E.fina" unicode="&#x66e;" horiz-adv-x="2316" 
d="M1938 177c-25 30 -48 74 -69 133c-187 -195 -468 -293 -841 -293c-399 3 -660 89 -776 285c-47 77 -64 162 -64 243c0 51 7 100 18 143c23 93 51 160 66 191c51 -28 90 -51 139 -78c-16 -40 -69 -139 -69 -244c0 -55 13 -114 42 -165c85 -138 316 -216 644 -216
c297 0 507 51 647 166l-1 -1c121 97 173 228 207 345l152 -42c-7 -27 -11 -44 -19 -80c-8 -39 -12 -74 -11 -105c3 -60 15 -131 60 -186l-1 1c52 -65 137 -98 254 -98c44 0 79 -34 79 -78s-35 -78 -79 -78h-8c-167 2 -290 54 -369 156z" />
    <glyph glyph-name="uni066F.init" unicode="&#x66f;" horiz-adv-x="895" 
d="M428 947c-45 0 -151 -72 -175 -220v1c-8 -42 -6 -98 22 -129h-1c29 -37 115 -66 192 -71c35 -3 67 -2 96 -2c28 0 65 0 109 4c-11 145 -63 281 -135 358v-1c-24 27 -64 60 -108 60zM-81 98c0 44 36 78 80 78c374 0 559 47 661 192h-154c-136 0 -263 47 -330 127
c-48 40 -65 169 -52 254c17 97 54 181 103 245c56 73 126 111 201 111c82 0 157 -37 225 -111c104 -115 167 -299 167 -483c0 -397 -376 -495 -806 -491h-17c-43 0 -78 35 -78 78z" />
    <glyph glyph-name="uni066F.medi" unicode="&#x66f;" horiz-adv-x="1019" 
d="M508 761c-81 0 -212 -89 -212 -266c0 -72 82 -180 223 -244c114 50 176 162 176 255c0 129 -101 255 -187 255zM-78 98c0 45 34 78 78 78c95 0 216 8 309 21c-104 91 -155 203 -155 295c0 201 148 418 355 426c212 -13 332 -198 332 -388c0 -108 -43 -223 -135 -323
c103 -21 220 -31 312 -31c45 0 79 -33 79 -78c0 -44 -34 -78 -79 -78h-9c-79 0 -182 5 -258 18c-81 13 -156 30 -228 54c-125 -48 -314 -72 -515 -72h-8c-44 0 -78 34 -78 78z" />
    <glyph glyph-name="uni066F.fina" unicode="&#x66f;" horiz-adv-x="1570" 
d="M1022 668c-30 0 -61 -20 -94 -61l1 1c-41 -51 -77 -122 -92 -203c-3 -19 -4 -35 -4 -52c0 -40 9 -75 29 -99c45 -56 150 -69 201 -74c64 -3 122 -4 169 -4h62c-8 190 -73 340 -144 422c-28 31 -75 70 -128 70zM1232 17c-51 0 -110 2 -178 6c-136 11 -242 59 -306 135
c-39 53 -64 123 -64 196c0 23 3 50 8 81c17 107 56 200 112 269c64 81 137 122 218 122c89 0 171 -41 245 -122c112 -123 176 -317 184 -526c27 -1 79 -2 120 -2c43 0 79 -34 79 -78c0 -43 -36 -78 -79 -78h-9h-122c-13 -72 -38 -183 -89 -282c-53 -102 -123 -183 -208 -244
h1c-108 -74 -237 -111 -387 -111c-128 0 -239 24 -339 75c-101 51 -177 121 -233 213c-56 95 -86 207 -86 332c0 17 1 39 2 58c13 139 62 305 142 462l140 -74c-84 -163 -126 -314 -126 -447c0 -95 21 -177 63 -248c84 -137 234 -212 437 -212c205 0 358 96 451 263
c36 67 60 149 73 212h-49z" />
    <glyph glyph-name="uni0671" unicode="&#x671;" horiz-adv-x="573" arabic-form="isolated" 
d="M147 23c19 289 20 500 17 763c-3 109 -6 205 -13 274c-9 124 -17 256 -34 384c57 9 98 10 154 17c24 -176 39 -387 47 -568c3 -91 5 -190 5 -302c0 -173 -4 -364 -19 -577zM199 1635c70 -8 193 -7 249 41c17 15 27 34 29 57c0 19 -11 34 -18 41c-27 28 -58 27 -82 23
c-36 -7 -72 -24 -103 -55c-39 -39 -64 -84 -75 -107zM-75 1666c17 9 35 16 52 22c29 11 63 19 86 14s41 -14 54 -25c7 -6 14 -12 19 -19c13 25 43 83 94 132c39 37 87 63 135 70c56 12 106 -3 141 -40c25 -27 39 -57 35 -92c-1 -41 -19 -76 -53 -104
c-58 -47 -152 -58 -224 -58c-39 0 -72 4 -85 5c-17 2 -33 7 -49 14c-19 8 -34 19 -53 44c-21 16 -55 9 -83 -3c-17 -7 -34 -17 -51 -28z" />
    <glyph glyph-name="uni0679" unicode="&#x679;" horiz-adv-x="1970" arabic-form="isolated" 
d="M992 20c-232 3 -427 31 -568 82c-129 51 -224 126 -269 219c-27 51 -40 107 -40 169c0 59 14 125 38 189c27 68 58 121 75 148l126 -94c-8 -11 -5 -9 -56 -114c-17 -47 -28 -89 -28 -128c0 -35 9 -70 22 -98c74 -132 331 -215 700 -215c217 0 530 31 767 161
c-16 173 -145 380 -182 442l133 86c36 -57 138 -231 178 -401c9 -40 15 -75 15 -108c0 -60 -30 -108 -105 -157c-184 -104 -554 -184 -806 -181zM1172 967c42 22 70 49 85 80c1 3 2 5 1 4c0 -1 0 -2 -1 -4s-2 -3 -2 -3c0 -1 1 0 2 3c11 26 11 51 -1 75c-13 23 -33 37 -61 42
c-23 4 -49 0 -77 -12c-19 -9 -42 -22 -68 -41c-51 -37 -107 -97 -168 -180c64 -7 123 -7 177 0c41 6 78 18 113 36zM1284 1206c36 -25 55 -58 57 -99c1 -3 1 -3 1 -2s0 3 -1 6v5v-9c3 -28 -3 -58 -17 -89c-13 -29 -32 -54 -55 -73c-55 -46 -120 -75 -193 -88
c-129 -22 -268 -5 -417 52l15 35l15 36c33 -13 66 -24 100 -33c7 -1 13 2 18 9l7 10l6 10l32 43c4 5 7 14 8 25l2 14l1 13l4 42c2 32 2 68 0 108l-4 54l-5 54c-7 65 -15 122 -24 173l80 10c2 -25 6 -61 11 -106l6 -53l5 -52c5 -69 8 -129 8 -181c38 35 73 62 104 81
c44 26 85 39 123 39c43 0 80 -11 113 -34z" />
    <glyph glyph-name="uni067E" unicode="&#x67e;" horiz-adv-x="1964" arabic-form="isolated" 
d="M991 20c-232 3 -427 31 -568 82c-129 51 -224 126 -269 219c-27 51 -40 107 -40 169c0 59 14 125 38 189c27 68 58 121 75 148l126 -94c-8 -11 -5 -9 -56 -114c-17 -47 -28 -89 -28 -128c0 -35 9 -70 22 -98c74 -132 331 -215 700 -215c217 0 530 31 767 161
c-16 173 -145 380 -182 442l133 86c36 -57 138 -231 178 -401c9 -40 15 -75 15 -108c0 -60 -30 -108 -105 -157c-184 -104 -554 -184 -806 -181zM1211 -162l146 -146l-148 -148l-146 146zM805 -163l146 -147l-148 -148l-146 147zM1013 -468l132 -132l-133 -133l-132 132z
" />
    <glyph glyph-name="uni0686" unicode="&#x686;" horiz-adv-x="1598" arabic-form="isolated" 
d="M891 -608c188 0 352 51 515 164l90 -129c-189 -127 -402 -199 -643 -199c-400 0 -725 222 -725 607c0 15 0 27 1 43c24 409 471 727 1107 715c-146 77 -359 312 -577 312c-143 0 -255 -132 -325 -229c-32 22 -44 28 -70 46c-19 13 -38 25 -59 38c91 145 245 303 438 303
c337 0 544 -282 814 -439l-63 -182c-574 60 -1085 -216 -1113 -581c-4 -320 299 -469 610 -469zM1091 154l140 -140l-142 -142l-141 140zM700 153l141 -141l-143 -142l-140 141zM900 -140l127 -127l-128 -128l-127 127z" />
    <glyph glyph-name="uni0688" unicode="&#x688;" horiz-adv-x="1149" arabic-form="isolated" 
d="M553 21c-121 0 -348 60 -418 116l67 153c95 -55 252 -106 390 -106c99 0 193 23 250 94c139 171 -259 589 -425 680l65 146c220 -120 471 -419 527 -655c19 -88 19 -195 -45 -270c-59 -71 -142 -118 -247 -141c-47 -12 -103 -17 -164 -17zM676 1409c42 22 70 49 85 80
c1 3 2 5 1 4c0 -1 0 -2 -1 -4s-2 -3 -2 -3c0 -1 1 0 2 3c11 26 11 51 -1 75c-13 23 -33 37 -61 42c-23 4 -49 0 -77 -12c-19 -9 -42 -22 -68 -41c-51 -37 -107 -97 -168 -180c64 -7 123 -7 177 0c41 6 78 18 113 36zM788 1648c36 -25 55 -58 57 -99c1 -3 1 -3 1 -2s0 3 -1 6
v5v-9c3 -28 -3 -58 -17 -89c-13 -29 -32 -54 -55 -73c-55 -46 -120 -75 -193 -88c-129 -22 -268 -5 -417 52l15 35l15 36c33 -13 66 -24 100 -33c7 -1 13 2 18 9l7 10l6 10l32 43c4 5 7 14 8 25l2 14l1 13l4 42c2 32 2 68 0 108l-4 54l-5 54c-7 65 -15 122 -24 173l80 10
c2 -25 6 -61 11 -106l6 -53l5 -52c5 -69 8 -129 8 -181c38 35 73 62 104 81c44 26 85 39 123 39c43 0 80 -11 113 -34z" />
    <glyph glyph-name="uni0691" unicode="&#x691;" horiz-adv-x="864" arabic-form="isolated" 
d="M481 625c18 -62 35 -122 50 -181c26 -101 54 -220 65 -300c0 -16 3 -31 3 -54c0 -333 -308 -615 -632 -779l-69 140c279 144 545 375 545 639c0 13 -2 26 -3 41c-16 148 -95 391 -111 447zM586 1061c42 22 70 49 85 80c1 3 2 5 1 4c0 -1 0 -2 -1 -4s-2 -3 -2 -3
c0 -1 1 0 2 3c11 26 11 51 -1 75c-13 23 -33 37 -61 42c-23 4 -49 0 -77 -12c-19 -9 -42 -22 -68 -41c-51 -37 -107 -97 -168 -180c64 -7 123 -7 177 0c41 6 78 18 113 36zM698 1300c36 -25 55 -58 57 -99c1 -3 1 -3 1 -2s0 3 -1 6v5v-9c3 -28 -3 -58 -17 -89
c-13 -29 -32 -54 -55 -73c-55 -46 -120 -75 -193 -88c-129 -22 -268 -5 -417 52l15 35l15 36c33 -13 66 -24 100 -33c7 -1 13 2 18 9l7 10l6 10l32 43c4 5 7 14 8 25l2 14l1 13l4 42c2 32 2 68 0 108l-4 54l-5 54c-7 65 -15 122 -24 173l80 10c2 -25 6 -61 11 -106l6 -53
l5 -52c5 -69 8 -129 8 -181c38 35 73 62 104 81c44 26 85 39 123 39c43 0 80 -11 113 -34z" />
    <glyph glyph-name="uni0698" unicode="&#x698;" horiz-adv-x="930" arabic-form="isolated" 
d="M579 625c18 -62 35 -122 50 -181c26 -101 54 -220 65 -300c0 -16 3 -31 3 -54c0 -333 -308 -615 -632 -779l-69 140c279 144 545 375 545 639c0 13 -2 26 -3 41c-16 148 -95 391 -111 447zM529 928l146 146l148 -148l-146 -146zM123 929l146 147l148 -148l-146 -147z
M346 1219l132 132l133 -133l-132 -132z" />
    <glyph glyph-name="uni06A9" unicode="&#x6a9;" horiz-adv-x="2059" arabic-form="isolated" 
d="M2110 1472l-796 -320c255 -213 546 -444 546 -687c0 -68 -26 -145 -77 -220c-16 -21 -61 -78 -173 -129h1c-198 -88 -419 -98 -635 -93c-232 5 -427 31 -568 80c-129 52 -224 127 -269 220c-27 51 -40 107 -40 168c0 59 14 125 38 190c27 68 59 120 76 147l127 -93
c-31 -53 -46 -81 -58 -114c-17 -45 -25 -88 -25 -129c0 -36 7 -68 22 -97c69 -136 326 -211 699 -214c204 -16 463 36 542 69c139 48 203 122 203 205c0 181 -279 407 -462 554c-25 19 -46 38 -66 54c7 71 16 138 23 207l830 346z" />
    <glyph glyph-name="uni06AF" unicode="&#x6af;" horiz-adv-x="2111" arabic-form="isolated" 
d="M2110 1470l-796 -320c255 -213 546 -444 546 -687c0 -68 -26 -145 -77 -220c-16 -21 -61 -78 -173 -129h1c-198 -88 -419 -98 -635 -93c-232 5 -427 31 -568 80c-129 52 -224 127 -269 220c-27 51 -40 107 -40 168c0 59 14 125 38 190c27 68 59 120 76 147l127 -93
c-31 -53 -46 -81 -58 -114c-17 -45 -25 -88 -25 -129c0 -36 7 -68 22 -97c69 -136 326 -211 699 -214c204 -16 463 36 542 69c139 48 203 122 203 205c0 181 -279 407 -462 554c-25 19 -46 38 -66 54c7 71 16 138 23 207l830 346zM1993 1766l-781 -330l7 106l735 307z" />
    <glyph glyph-name="uni06BA" unicode="&#x6ba;" horiz-adv-x="1630" arabic-form="isolated" 
d="M767 -668c-397 8 -640 227 -640 616c0 206 78 432 163 573l128 -94c-48 -75 -132 -284 -132 -485c0 -186 78 -439 484 -451c365 -11 568 198 568 513c0 234 -108 443 -153 515l139 89c36 -56 173 -304 173 -599c0 -422 -303 -693 -730 -677z" />
    <glyph glyph-name="uni06BE" unicode="&#x6be;" horiz-adv-x="1604" arabic-form="isolated" 
d="M42 180c0 42 42 89 101 73c153 -52 274 -70 361 -55c-116 113 -172 224 -172 325c0 142 79 322 266 383l-107 41l77 144c128 -48 213 -80 331 -128c246 -99 477 -223 557 -333c59 -81 88 -163 88 -248c0 -124 -66 -236 -199 -308l1 1c-71 -42 -214 -58 -306 -58
c-116 0 -223 14 -336 61c-136 -43 -398 -27 -580 23c-51 15 -82 35 -82 79zM1076 571c0 -120 -74 -284 -189 -388c60 -12 102 -14 134 -14h48c217 0 328 104 328 225c0 107 -125 261 -348 351c28 -68 28 -126 27 -162v-12zM780 801c-9 3 -18 4 -25 3
c-173 -16 -289 -157 -268 -297c16 -104 102 -199 204 -258c149 64 220 209 220 330c0 108 -53 211 -130 222h-1z" />
    <glyph glyph-name="uni06C0" unicode="&#x6c0;" horiz-adv-x="983" arabic-form="isolated" 
d="M485 16c-11 0 -109 1 -204 46c-119 56 -182 152 -182 281c0 113 54 237 158 364c41 49 93 99 132 135c-77 67 -72 71 -75 68l107 114c34 -32 131 -118 214 -209c156 -179 238 -341 238 -472c0 -129 -59 -225 -168 -280c-83 -40 -172 -47 -220 -47zM473 719
c-80 -69 -232 -236 -232 -375c0 -45 27 -100 108 -139h-1c56 -27 116 -30 137 -30c26 0 96 1 150 28c57 31 95 67 95 135c0 90 -92 232 -223 376l-18 20zM525 1556l-27 6c-17 3 -40 7 -65 7c-20 0 -41 -3 -62 -12v2c-43 -19 -71 -60 -71 -104c0 -11 3 -23 8 -36l-1 1
c19 -47 71 -82 128 -82c15 0 27 0 42 7c35 11 69 30 96 46c15 9 30 19 43 29l59 -78c-52 -39 -129 -79 -242 -142l-227 -126l-48 87l179 100c-55 23 -98 68 -121 120c-9 23 -14 47 -14 74c0 83 53 161 133 193c31 13 64 19 98 19c31 0 59 -5 82 -10l38 -9z" />
    <glyph glyph-name="uni06C1" unicode="&#x6c1;" horiz-adv-x="1313" arabic-form="final" 
d="M1313 176c43 0 78 -35 78 -78s-35 -78 -78 -78c-197 0 -304 132 -419 265c-90 106 -181 209 -300 209c-27 0 -55 -4 -84 -13h1c-136 -48 -226 -235 -282 -441l-150 40c66 255 175 485 385 549c48 15 91 21 130 21c187 0 306 -135 418 -263c85 -99 184 -211 301 -211z" />
    <glyph glyph-name="uni06C2" unicode="&#x6c2;" horiz-adv-x="993" 
d="M495 16c-11 0 -109 1 -204 46c-119 56 -182 152 -182 281c0 113 54 237 158 364c41 49 93 99 132 135c-77 67 -72 71 -75 68l107 114c34 -32 131 -118 214 -209c156 -179 238 -341 238 -472c0 -129 -59 -225 -168 -280c-83 -40 -172 -47 -220 -47zM483 719
c-80 -69 -232 -236 -232 -375c0 -45 27 -100 108 -139h-1c56 -27 116 -30 137 -30c26 0 96 1 150 28c57 31 95 67 95 135c0 90 -92 232 -223 376l-18 20zM518 1550l-27 6c-17 3 -40 7 -65 7c-20 0 -41 -3 -62 -12v2c-43 -19 -71 -60 -71 -104c0 -11 3 -23 8 -36l-1 1
c19 -47 71 -82 128 -82c15 0 27 0 42 7c35 11 69 30 96 46c15 9 30 19 43 29l59 -78c-52 -39 -129 -79 -242 -142l-227 -126l-48 87l179 100c-55 23 -98 68 -121 120c-9 23 -14 47 -14 74c0 83 53 161 133 193c31 13 64 19 98 19c31 0 59 -5 82 -10l38 -9z" />
    <glyph glyph-name="uni06C3.001" unicode="&#x6c3;" horiz-adv-x="1020" 
d="M522 16c-11 0 -109 1 -204 46c-119 56 -182 152 -182 281c0 113 54 237 158 364c41 49 93 99 132 135c-77 67 -72 71 -75 68l107 114c34 -32 131 -118 214 -209c156 -179 238 -341 238 -472c0 -129 -59 -225 -168 -280c-83 -40 -172 -47 -220 -47zM510 719
c-80 -69 -232 -236 -232 -375c0 -45 27 -100 108 -139h-1c56 -27 116 -30 137 -30c26 0 96 1 150 28c57 31 95 67 95 135c0 90 -92 232 -223 376l-18 20zM411 1370l-146 -146l-148 147l146 147zM766 1368l-145 -146l-148 148l146 146z" />
    <glyph glyph-name="uni06CC" unicode="&#x6cc;" horiz-adv-x="1759" arabic-form="isolated" 
d="M1375 812c37 8 72 11 104 11c99 0 180 -28 218 -42c-27 -57 -45 -91 -71 -147c-28 11 -82 25 -143 25c-24 0 -50 -2 -74 -7h2c-158 -16 -364 -228 -364 -405c0 -23 3 -45 10 -66c29 -83 137 -113 246 -137c140 -32 295 -73 295 -246c0 -19 -2 -40 -6 -64v1
c-23 -125 -114 -231 -263 -306c-144 -73 -329 -112 -544 -112c-244 0 -438 75 -558 206c-84 99 -132 232 -132 377c0 31 2 64 6 97c32 228 122 514 146 584c53 -19 104 -38 153 -55c-56 -170 -109 -374 -136 -548c-3 -23 -5 -50 -5 -78c0 -85 26 -189 91 -267
c91 -96 243 -151 435 -151c391 0 633 140 646 284c5 64 -89 92 -182 116c-134 35 -314 83 -346 244c-7 33 -10 67 -10 100c0 270 213 530 482 586z" />
    <glyph glyph-name="uni06D2" unicode="&#x6d2;" horiz-adv-x="1975" arabic-form="isolated" 
d="M1012 -104c-236 0 -529 -17 -723 71c-79 35 -133 85 -160 137c-11 20 -18 46 -18 77s11 55 34 96c104 189 556 223 680 235l-36 -147c-13 -1 -30 -2 -49 -5c-35 -4 -85 -11 -157 -22c-145 -21 -288 -77 -320 -130c-13 -20 -11 -31 -8 -38c18 -55 139 -95 309 -116
c58 -8 366 -7 437 -7c317 0 818 72 927 88l-23 -87c-5 -19 -13 -50 -17 -70c-28 -4 -559 -82 -876 -82z" />
    <glyph glyph-name="uni06D3" unicode="&#x6d3;" horiz-adv-x="2024" arabic-form="isolated" 
d="M1045 -104c-236 0 -529 -17 -723 71c-79 35 -133 85 -160 137c-11 20 -18 46 -18 77s11 55 34 96c104 189 556 223 680 235l-36 -147c-13 -1 -30 -2 -49 -5c-35 -4 -85 -11 -157 -22c-145 -21 -288 -77 -320 -130c-13 -20 -11 -31 -8 -38c18 -55 139 -95 309 -116
c58 -8 366 -7 437 -7c317 0 818 72 927 88l-23 -87c-5 -19 -13 -50 -17 -70c-28 -4 -559 -82 -876 -82zM661 1022l-27 6c-17 3 -40 7 -65 7c-20 0 -41 -3 -62 -12v2c-43 -19 -71 -60 -71 -104c0 -11 3 -23 8 -36l-1 1c19 -47 71 -82 128 -82c15 0 27 0 42 7
c35 11 69 30 96 46c15 9 30 19 43 29l59 -78c-52 -39 -129 -79 -242 -142l-227 -126l-48 87l179 100c-55 23 -98 68 -121 120c-9 23 -14 47 -14 74c0 83 53 161 133 193c31 13 64 19 98 19c31 0 59 -5 82 -10l38 -9z" />
    <glyph glyph-name="uniFB51" unicode="&#x671;" horiz-adv-x="569" arabic-form="final" 
d="M562 20c-141 0 -239 32 -307 100c-83 83 -81 198 -81 260c1 40 4 145 4 285c0 122 -1 266 -7 412c-4 149 -12 268 -26 355l156 28c16 -94 24 -221 28 -378c6 -153 6 -307 6 -437c0 -103 -1 -183 -2 -267c-1 -64 0 -112 36 -147c33 -33 95 -54 184 -55h9
c43 0 79 -35 79 -78c0 -44 -36 -78 -79 -78zM204 1639c70 -8 193 -7 249 41c17 15 27 34 29 57c0 19 -11 34 -18 41c-27 28 -58 27 -82 23c-36 -7 -72 -24 -103 -55c-39 -39 -64 -84 -75 -107zM-70 1670c17 9 35 16 52 22c29 11 63 19 86 14s41 -14 54 -25
c7 -6 14 -12 19 -19c13 25 43 83 94 132c39 37 87 63 135 70c56 12 106 -3 141 -40c25 -27 39 -57 35 -92c-1 -41 -19 -76 -53 -104c-58 -47 -152 -58 -224 -58c-39 0 -72 4 -85 5c-17 2 -33 7 -49 14c-19 8 -34 19 -53 44c-21 16 -55 9 -83 -3c-17 -7 -34 -17 -51 -28z" />
    <glyph glyph-name="uniFB57" unicode="&#x67e;" horiz-adv-x="2247" arabic-form="final" 
d="M1858 177c-25 30 -48 74 -69 133c-187 -195 -468 -293 -841 -293c-399 3 -660 89 -776 285c-47 77 -64 162 -64 243c0 51 7 100 18 143c23 93 51 160 66 191c51 -28 90 -51 139 -78c-16 -40 -69 -139 -69 -244c0 -55 13 -114 42 -165c85 -138 316 -216 644 -216
c297 0 507 51 647 166l-1 -1c121 97 173 228 207 345l152 -42c-7 -27 -11 -44 -19 -80c-8 -39 -12 -74 -11 -105c3 -60 15 -131 60 -186l-1 1c52 -65 137 -98 254 -98c44 0 79 -34 79 -78s-35 -78 -79 -78h-8c-167 2 -290 54 -369 156zM1221 -151l146 -146l-148 -148
l-146 146zM815 -152l146 -147l-148 -148l-146 147zM1023 -457l132 -132l-133 -133l-132 132z" />
    <glyph glyph-name="uniFB58" unicode="&#x67e;" horiz-adv-x="859" arabic-form="initial" 
d="M-78 98c0 44 35 78 78 78h111c149 0 383 4 439 130v-1c11 22 16 51 16 88c0 63 -21 142 -50 235c-22 67 -64 161 -80 198l142 71c16 -37 55 -122 87 -221c35 -108 52 -201 52 -281c0 -59 -9 -110 -28 -153c-47 -97 -128 -170 -240 -201c-68 -21 -237 -21 -295 -21h-154
c-43 0 -78 34 -78 78zM575 -202l146 -146l-148 -148l-146 146zM169 -203l146 -147l-148 -148l-146 147zM377 -508l132 -132l-133 -133l-132 132z" />
    <glyph glyph-name="uniFB59" unicode="&#x67e;" horiz-adv-x="859" arabic-form="medial" 
d="M-81 98c0 44 34 78 78 78h76c236 0 448 35 440 246c-3 72 -10 126 -37 227c56 15 96 28 149 43c32 -115 34 -185 47 -288c13 -111 28 -228 183 -228c44 0 80 -34 80 -78s-35 -78 -78 -78c-126 0 -215 58 -273 138c-103 -101 -322 -138 -511 -138h-76c-44 0 -78 34 -78 78
zM566 -156l146 -146l-148 -148l-146 146zM160 -157l146 -147l-148 -148l-146 147zM368 -462l132 -132l-133 -133l-132 132z" />
    <glyph glyph-name="uniFB67" unicode="&#x679;" horiz-adv-x="2236" arabic-form="final" 
d="M1858 177c-25 30 -48 74 -69 133c-187 -195 -468 -293 -841 -293c-399 3 -660 89 -776 285c-47 77 -64 162 -64 243c0 51 7 100 18 143c23 93 51 160 66 191c51 -28 90 -51 139 -78c-16 -40 -69 -139 -69 -244c0 -55 13 -114 42 -165c85 -138 316 -216 644 -216
c297 0 507 51 647 166l-1 -1c121 97 173 228 207 345l152 -42c-7 -27 -11 -44 -19 -80c-8 -39 -12 -74 -11 -105c3 -60 15 -131 60 -186l-1 1c52 -65 137 -98 254 -98c44 0 79 -34 79 -78s-35 -78 -79 -78h-8c-167 2 -290 54 -369 156zM1246 967c42 22 70 49 85 80
c1 3 2 5 1 4c0 -1 0 -2 -1 -4s-2 -3 -2 -3c0 -1 1 0 2 3c11 26 11 51 -1 75c-13 23 -33 37 -61 42c-23 4 -49 0 -77 -12c-19 -9 -42 -22 -68 -41c-51 -37 -107 -97 -168 -180c64 -7 123 -7 177 0c41 6 78 18 113 36zM1358 1206c36 -25 55 -58 57 -99c1 -3 1 -3 1 -2
s0 3 -1 6v5v-9c3 -28 -3 -58 -17 -89c-13 -29 -32 -54 -55 -73c-55 -46 -120 -75 -193 -88c-129 -22 -268 -5 -417 52l15 35l15 36c33 -13 66 -24 100 -33c7 -1 13 2 18 9l7 10l6 10l32 43c4 5 7 14 8 25l2 14l1 13l4 42c2 32 2 68 0 108l-4 54l-5 54c-7 65 -15 122 -24 173
l80 10c2 -25 6 -61 11 -106l6 -53l5 -52c5 -69 8 -129 8 -181c38 35 73 62 104 81c44 26 85 39 123 39c43 0 80 -11 113 -34z" />
    <glyph glyph-name="uniFB68" unicode="&#x679;" horiz-adv-x="774" arabic-form="initial" 
d="M-83 98c0 44 35 78 78 78h103c15 0 30 -1 45 -1c130 0 238 21 289 131v-1c11 22 16 51 16 88c0 63 -15 141 -44 235c-22 67 -64 161 -80 198l142 71c16 -37 55 -122 87 -221c35 -108 52 -201 52 -281c0 -59 -9 -110 -28 -153c-47 -97 -128 -170 -240 -201
c-69 -20 -136 -21 -196 -21h-146c-43 0 -78 34 -78 78zM523 1226c42 22 70 49 85 80c1 3 2 5 1 4c0 -1 0 -2 -1 -4s-2 -3 -2 -3c0 -1 1 0 2 3c11 26 11 51 -1 75c-13 23 -33 37 -61 42c-23 4 -49 0 -77 -12c-19 -9 -42 -22 -68 -41c-51 -37 -107 -97 -168 -180
c64 -7 123 -7 177 0c41 6 78 18 113 36zM635 1465c36 -25 55 -58 57 -99c1 -3 1 -3 1 -2s0 3 -1 6v5v-9c3 -28 -3 -58 -17 -89c-13 -29 -32 -54 -55 -73c-55 -46 -120 -75 -193 -88c-129 -22 -268 -5 -417 52l15 35l15 36c33 -13 66 -24 100 -33c7 -1 13 2 18 9l7 10l6 10
l32 43c4 5 7 14 8 25l2 14l1 13l4 42c2 32 2 68 0 108l-4 54l-5 54c-7 65 -15 122 -24 173l80 10c2 -25 6 -61 11 -106l6 -53l5 -52c5 -69 8 -129 8 -181c38 35 73 62 104 81c44 26 85 39 123 39c43 0 80 -11 113 -34z" />
    <glyph glyph-name="uniFB69" unicode="&#x679;" horiz-adv-x="859" arabic-form="medial" 
d="M-81 98c0 44 34 78 78 78h76c236 0 448 35 440 246c-3 72 -10 126 -37 227c56 15 96 28 149 43c32 -115 34 -185 47 -288c13 -111 28 -228 183 -228c44 0 80 -34 80 -78s-35 -78 -78 -78c-126 0 -215 58 -273 138c-103 -101 -322 -138 -511 -138h-76c-44 0 -78 34 -78 78
zM584 1116c42 22 70 49 85 80c1 3 2 5 1 4c0 -1 0 -2 -1 -4s-2 -3 -2 -3c0 -1 1 0 2 3c11 26 11 51 -1 75c-13 23 -33 37 -61 42c-23 4 -49 0 -77 -12c-19 -9 -42 -22 -68 -41c-51 -37 -107 -97 -168 -180c64 -7 123 -7 177 0c41 6 78 18 113 36zM696 1355
c36 -25 55 -58 57 -99c1 -3 1 -3 1 -2s0 3 -1 6v5v-9c3 -28 -3 -58 -17 -89c-13 -29 -32 -54 -55 -73c-55 -46 -120 -75 -193 -88c-129 -22 -268 -5 -417 52l15 35l15 36c33 -13 66 -24 100 -33c7 -1 13 2 18 9l7 10l6 10l32 43c4 5 7 14 8 25l2 14l1 13l4 42
c2 32 2 68 0 108l-4 54l-5 54c-7 65 -15 122 -24 173l80 10c2 -25 6 -61 11 -106l6 -53l5 -52c5 -69 8 -129 8 -181c38 35 73 62 104 81c44 26 85 39 123 39c43 0 80 -11 113 -34z" />
    <glyph glyph-name="uniFB6A" unicode="&#x6a4;" horiz-adv-x="1959" arabic-form="isolated" 
d="M1699 999c93 -101 166 -284 166 -475c0 -55 -1 -112 -20 -168c-104 -303 -482 -335 -890 -335c-397 0 -652 98 -767 294c-47 80 -64 163 -64 243c0 146 39 240 63 287c47 -25 92 -51 139 -76c-19 -44 -44 -107 -44 -210c0 -55 14 -114 43 -165c84 -136 285 -211 600 -223
c29 -1 57 -1 84 -1c330 0 611 77 694 224c-204 -45 -385 4 -481 108c-31 35 -58 92 -58 179c0 181 118 431 310 431c82 0 157 -37 225 -112v-1zM1709 572c-26 138 -68 354 -231 383c-60 11 -173 -134 -173 -257c0 -37 15 -71 36 -99c72 -93 265 -79 371 -52zM1499 1487
l146 146l148 -148l-146 -146zM1093 1488l146 147l148 -148l-146 -147zM1316 1778l132 132l133 -133l-132 -132z" />
    <glyph glyph-name="uniFB6B" unicode="&#x6a4;" horiz-adv-x="2106" arabic-form="final" 
d="M1947 536c0 -126 -39 -209 -101 -297c-3 -3 -5 -7 -30 -32c104 -19 201 -31 292 -31c43 0 79 -34 79 -78c0 -43 -36 -78 -79 -78c-169 0 -330 25 -470 73l-67 -22c-128 -48 -375 -73 -610 -73c-400 1 -666 98 -782 295c-48 80 -64 164 -64 244c0 146 50 257 72 303
c47 -25 92 -51 139 -76c-21 -44 -54 -126 -54 -228c0 -55 14 -113 43 -164c86 -137 260 -210 590 -218c39 -1 74 -2 107 -2c183 0 304 20 415 41c-109 87 -159 213 -159 308c0 193 151 417 355 417c84 0 161 -30 218 -93c47 -47 106 -138 106 -289zM1629 263
c133 76 188 165 188 265c0 211 -158 231 -194 231c-84 0 -207 -86 -207 -263c0 -69 80 -193 213 -233zM1641 1274l146 146l148 -148l-146 -146zM1235 1275l146 147l148 -148l-146 -147zM1458 1565l132 132l133 -133l-132 -132z" />
    <glyph glyph-name="uniFB6C" unicode="&#x6a4;" horiz-adv-x="896" arabic-form="initial" 
d="M428 947c-45 0 -151 -72 -175 -220v1c-8 -42 -6 -98 22 -129h-1c29 -37 115 -66 192 -71c35 -3 67 -2 96 -2c28 0 65 0 109 4c-11 145 -63 281 -135 358v-1c-24 27 -64 60 -108 60zM-81 98c0 44 36 78 80 78c374 0 559 47 661 192h-154c-136 0 -263 47 -330 127
c-48 40 -65 169 -52 254c17 97 54 181 103 245c56 73 126 111 201 111c82 0 157 -37 225 -111c104 -115 167 -299 167 -483c0 -397 -376 -495 -806 -491h-17c-43 0 -78 35 -78 78zM401 1388l146 146l148 -148l-146 -146zM-5 1389l146 147l148 -148l-146 -147zM218 1679
l132 132l133 -133l-132 -132z" />
    <glyph glyph-name="uniFB6D" unicode="&#x6a4;" horiz-adv-x="1009" arabic-form="medial" 
d="M508 761c-81 0 -212 -89 -212 -266c0 -72 82 -180 223 -244c114 50 176 162 176 255c0 129 -101 255 -187 255zM-78 98c0 45 34 78 78 78c95 0 216 8 309 21c-104 91 -155 203 -155 295c0 201 148 418 355 426c212 -13 332 -198 332 -388c0 -108 -43 -223 -135 -323
c103 -21 220 -31 312 -31c45 0 79 -33 79 -78c0 -44 -34 -78 -79 -78h-9c-79 0 -182 5 -258 18c-81 13 -156 30 -228 54c-125 -48 -314 -72 -515 -72h-8c-44 0 -78 34 -78 78zM503 1261l146 146l148 -148l-146 -146zM97 1262l146 147l148 -148l-146 -147zM320 1552l132 132
l133 -133l-132 -132z" />
    <glyph glyph-name="uniFB7B" unicode="&#x686;" horiz-adv-x="1587" arabic-form="final" 
d="M1003 83l137 -137l-139 -138l-136 136zM624 82l136 -138l-138 -138l-136 137zM818 -203l124 -124l-125 -124l-123 123zM853 -608c188 0 352 51 515 164l90 -129c-189 -127 -402 -199 -643 -199c-400 0 -725 222 -725 607c0 15 0 27 1 43c24 409 471 727 1107 715
c-146 77 -359 312 -577 312c-143 0 -255 -132 -325 -229c-32 22 -44 28 -70 46c-19 13 -38 25 -59 38c91 145 245 303 438 303c337 0 544 -282 814 -439l-51 -159l-154 -10c-1 -11 -1 -21 -1 -29c0 -42 9 -102 46 -150c69 -83 167 -100 343 -100c43 0 79 -36 79 -80
c0 -43 -36 -76 -79 -76c-233 0 -380 57 -468 161c-43 60 -73 139 -77 224c-1 9 -1 22 1 38c-444 -43 -791 -282 -815 -582c-4 -320 299 -469 610 -469z" />
    <glyph glyph-name="uniFB7C" unicode="&#x686;" horiz-adv-x="1559" arabic-form="initial" 
d="M-81 98c0 44 36 78 80 78h198c360 0 741 158 1068 323l-298 124c-126 59 -245 116 -333 116c-152 0 -258 -182 -291 -240l-134 80c15 31 39 75 90 136c99 120 214 181 335 181c125 0 259 -63 400 -130c155 -72 240 -127 406 -188c11 -59 21 -101 32 -157
c-92 -38 -102 -45 -197 -93c-289 -142 -687 -308 -1078 -308h-198c-44 0 -80 35 -80 78zM954 -145l146 -146l-148 -148l-146 146zM548 -146l146 -147l-148 -148l-146 147zM756 -451l132 -132l-133 -133l-132 132z" />
    <glyph glyph-name="uniFB7D" unicode="&#x686;" horiz-adv-x="1663" arabic-form="medial" 
d="M-79 97c0 43 35 79 79 79h183c362 0 665 146 954 290l60 30c-177 60 -448 242 -636 242c-150 0 -259 -177 -291 -239l-130 88c83 153 221 310 421 310c274 0 558 -252 826 -308c11 -61 20 -98 33 -156c-48 -21 -33 -14 -131 -62c52 -180 288 -195 364 -195h6h8
c44 0 79 -36 79 -79c0 -44 -35 -77 -79 -77h-14c-253 0 -439 104 -508 280c-279 -141 -600 -281 -962 -281l-183 1c-44 0 -79 33 -79 77zM953 -151l146 -146l-148 -148l-146 146zM547 -152l146 -147l-148 -148l-146 147zM755 -457l132 -132l-133 -133l-132 132z" />
    <glyph glyph-name="uniFB89" unicode="&#x688;" horiz-adv-x="1242" arabic-form="final" 
d="M490 20c-144 0 -289 63 -394 168c33 47 59 81 91 126c105 -91 227 -134 328 -134c51 0 116 10 163 29c69 27 147 70 175 98l-313 754c55 23 93 40 144 61c20 -49 45 -110 76 -183c51 -125 130 -312 239 -576c45 -114 73 -187 250 -187c43 0 79 -34 79 -78
s-36 -78 -79 -78c-164 0 -259 64 -318 141c-45 -35 -131 -72 -195 -99h1c-72 -28 -148 -42 -247 -42zM708 1385c42 22 70 49 85 80c1 3 2 5 1 4c0 -1 0 -2 -1 -4s-2 -3 -2 -3c0 -1 1 0 2 3c11 26 11 51 -1 75c-13 23 -33 37 -61 42c-23 4 -49 0 -77 -12
c-19 -9 -42 -22 -68 -41c-51 -37 -107 -97 -168 -180c64 -7 123 -7 177 0c41 6 78 18 113 36zM820 1624c36 -25 55 -58 57 -99c1 -3 1 -3 1 -2s0 3 -1 6v5v-9c3 -28 -3 -58 -17 -89c-13 -29 -32 -54 -55 -73c-55 -46 -120 -75 -193 -88c-129 -22 -268 -5 -417 52l15 35
l15 36c33 -13 66 -24 100 -33c7 -1 13 2 18 9l7 10l6 10l32 43c4 5 7 14 8 25l2 14l1 13l4 42c2 32 2 68 0 108l-4 54l-5 54c-7 65 -15 122 -24 173l80 10c2 -25 6 -61 11 -106l6 -53l5 -52c5 -69 8 -129 8 -181c38 35 73 62 104 81c44 26 85 39 123 39c43 0 80 -11 113 -34
z" />
    <glyph glyph-name="uniFB8B" unicode="&#x698;" horiz-adv-x="871" arabic-form="final" 
d="M655 69c0 -330 -310 -615 -631 -779c-25 53 -46 89 -70 140c276 144 544 372 544 640c0 13 -1 27 -2 40c-19 144 -79 338 -111 445l150 46c101 -299 196 -425 335 -425h5c44 0 79 -36 79 -79c0 -44 -35 -77 -79 -77c-35 0 -121 0 -220 102v-53zM497 891l146 146l148 -148
l-146 -146zM91 892l146 147l148 -148l-146 -147zM314 1182l132 132l133 -133l-132 -132z" />
    <glyph glyph-name="uniFB8D" unicode="&#x691;" horiz-adv-x="822" arabic-form="final" 
d="M605 69c0 -330 -310 -615 -631 -779c-25 53 -46 89 -70 140c276 144 544 372 544 640c0 13 -1 27 -2 40c-19 144 -79 338 -111 445l150 46c101 -299 196 -425 335 -425h5c44 0 79 -36 79 -79c0 -44 -35 -77 -79 -77c-35 0 -121 0 -220 102v-53zM591 1008
c42 22 70 49 85 80c1 3 2 5 1 4c0 -1 0 -2 -1 -4s-2 -3 -2 -3c0 -1 1 0 2 3c11 26 11 51 -1 75c-13 23 -33 37 -61 42c-23 4 -49 0 -77 -12c-19 -9 -42 -22 -68 -41c-51 -37 -107 -97 -168 -180c64 -7 123 -7 177 0c41 6 78 18 113 36zM703 1247c36 -25 55 -58 57 -99
c1 -3 1 -3 1 -2s0 3 -1 6v5v-9c3 -28 -3 -58 -17 -89c-13 -29 -32 -54 -55 -73c-55 -46 -120 -75 -193 -88c-129 -22 -268 -5 -417 52l15 35l15 36c33 -13 66 -24 100 -33c7 -1 13 2 18 9l7 10l6 10l32 43c4 5 7 14 8 25l2 14l1 13l4 42c2 32 2 68 0 108l-4 54l-5 54
c-7 65 -15 122 -24 173l80 10c2 -25 6 -61 11 -106l6 -53l5 -52c5 -69 8 -129 8 -181c38 35 73 62 104 81c44 26 85 39 123 39c43 0 80 -11 113 -34z" />
    <glyph glyph-name="uniFB8F" unicode="&#x6a9;" horiz-adv-x="2321" arabic-form="final" 
d="M2320 176c44 0 78 -34 78 -78c0 -43 -34 -78 -78 -78c-215 0 -404 91 -529 266c-53 -91 -130 -139 -202 -174h1c-137 -63 -317 -92 -541 -92h-92c-71 0 -137 3 -199 9c-188 19 -388 47 -537 167c-40 31 -72 72 -103 128l2 -2c-25 52 -41 113 -41 180c0 56 10 115 37 176
c29 68 61 121 77 149l127 -94c-10 -17 -19 -32 -26 -47c-13 -25 -27 -55 -31 -68v1c-17 -45 -25 -88 -25 -128c0 -35 7 -67 22 -98c56 -108 218 -178 473 -205c80 -5 175 -9 232 -9c31 -1 59 -2 86 -2c225 0 368 39 449 69c139 53 192 129 192 220c0 217 -336 492 -495 616
l20 184l868 373l59 -145l-806 -341c237 -165 431 -378 498 -579c45 -131 98 -278 269 -358c55 -26 124 -39 207 -40h8z" />
    <glyph glyph-name="uniFB90" unicode="&#x6a9;" horiz-adv-x="936" arabic-form="initial" 
d="M-100 97c0 45 36 79 88 79h56h49c165 0 371 0 451 120c29 43 43 93 43 149c0 31 -5 66 -15 104c-28 113 -246 358 -464 536l21 182l792 339c21 -51 43 -97 63 -145l-728 -306c76 -64 167 -141 244 -228c179 -197 238 -366 238 -498c0 -85 -25 -156 -57 -215h1
c-57 -101 -153 -163 -288 -188c-27 -5 -55 -7 -83 -7l-323 1c-51 0 -88 34 -88 77z" />
    <glyph glyph-name="uniFB91" unicode="&#x6a9;" horiz-adv-x="1169" arabic-form="medial" 
d="M-78 98c0 43 36 78 79 78h9h330c114 0 239 105 252 209c12 231 -274 547 -457 690c7 68 16 132 24 199l854 368c21 -51 43 -97 63 -145l-807 -339c251 -206 345 -387 444 -571c33 -63 66 -126 105 -190c82 -136 179 -216 337 -221h43c44 0 78 -35 78 -78
c0 -44 -34 -78 -78 -78h-8c-93 0 -159 11 -227 34h1c-91 33 -177 114 -246 202c-32 -59 -62 -102 -97 -134h1c-84 -75 -191 -97 -296 -102h1h-326c-43 0 -79 34 -79 78z" />
    <glyph glyph-name="uniFB93" unicode="&#x6af;" horiz-adv-x="2309" arabic-form="final" 
d="M2320 176c44 0 78 -34 78 -78c0 -43 -34 -78 -78 -78c-215 0 -404 91 -529 266c-53 -91 -130 -139 -202 -174h1c-137 -63 -317 -92 -541 -92h-92c-71 0 -137 3 -199 9c-188 19 -388 47 -537 167c-40 31 -72 72 -103 128l2 -2c-25 52 -41 113 -41 180c0 56 10 115 37 176
c29 68 61 121 77 149l127 -94c-10 -17 -19 -32 -26 -47c-13 -25 -27 -55 -31 -68v1c-17 -45 -25 -88 -25 -128c0 -35 7 -67 22 -98c56 -108 218 -178 473 -205c80 -5 175 -9 232 -9c31 -1 59 -2 86 -2c225 0 368 39 449 69c139 53 192 129 192 220c0 217 -336 492 -495 616
l20 184l868 373l59 -145l-806 -341c237 -165 431 -378 498 -579c45 -131 98 -278 269 -358c55 -26 124 -39 207 -40h8zM2047 1794l-850 -370l7 107c271 116 533 230 804 346z" />
    <glyph glyph-name="uniFB94" unicode="&#x6af;" horiz-adv-x="987" arabic-form="initial" 
d="M-84 97c0 45 36 79 88 79h56h49c165 0 371 0 451 120c29 43 43 93 43 149c0 31 -5 66 -15 104c-28 113 -246 358 -464 536l21 182l792 339c21 -51 43 -97 63 -145l-728 -306c76 -64 167 -141 244 -228c179 -197 238 -366 238 -498c0 -85 -25 -156 -57 -215h1
c-57 -101 -153 -163 -288 -188c-27 -5 -55 -7 -83 -7l-323 1c-51 0 -88 34 -88 77zM888 1746l-781 -330l7 106l735 307z" />
    <glyph glyph-name="uniFB95" unicode="&#x6af;" horiz-adv-x="1187" arabic-form="medial" 
d="M-78 98c0 43 36 78 79 78h9h330c114 0 239 105 252 209c12 231 -274 547 -457 690c7 68 16 132 24 199l854 368c21 -51 43 -97 63 -145l-807 -339c251 -206 345 -387 444 -571c33 -63 66 -126 105 -190c82 -136 179 -216 337 -221h43c44 0 78 -35 78 -78
c0 -44 -34 -78 -78 -78h-8c-93 0 -159 11 -227 34h1c-91 33 -177 114 -246 202c-32 -59 -62 -102 -97 -134h1c-84 -75 -191 -97 -296 -102h1h-326c-43 0 -79 34 -79 78zM940 1787l-781 -330l7 106l735 307z" />
    <glyph glyph-name="uniFB9F" unicode="&#x6ba;" horiz-adv-x="1709" arabic-form="final" 
d="M1707 20c-86 0 -173 26 -261 78c0 -17 3 -68 3 -85c0 -84 -11 -172 -38 -259c-106 -292 -395 -421 -677 -421c-364 0 -581 163 -645 499v-1c-40 236 52 515 155 690c48 -35 82 -62 127 -94c-59 -95 -161 -385 -126 -574v2c-12 -137 166 -365 482 -365
c278 0 472 124 533 312c23 69 30 137 30 205c0 164 -55 316 -100 423c-27 55 -35 76 -46 95l133 84c4 -5 20 -37 59 -117c152 -288 271 -316 371 -316c44 0 79 -34 79 -78c0 -43 -35 -78 -79 -78z" />
    <glyph glyph-name="uniFBA5" unicode="&#x6c0;" horiz-adv-x="1090" arabic-form="final" 
d="M544 160c-166 0 -281 39 -344 118c-36 44 -48 99 -48 147c0 43 7 78 18 101c105 219 355 322 470 365l-15 145l157 34c4 -33 33 -317 37 -346v1c40 -348 71 -427 79 -445v1c34 -82 90 -105 192 -105c43 0 79 -34 79 -78c0 -43 -36 -78 -79 -78c-51 0 -122 4 -187 35h1
c-50 23 -94 65 -131 126c-90 -14 -166 -21 -229 -21zM634 720c-100 -44 -331 -138 -331 -281c0 -99 119 -125 235 -125c61 0 132 9 181 18c-19 92 -38 229 -59 398zM674 1548l-27 6c-17 3 -40 7 -65 7c-20 0 -41 -3 -62 -12v2c-43 -19 -71 -60 -71 -104c0 -11 3 -23 8 -36
l-1 1c19 -47 71 -82 128 -82c15 0 27 0 42 7c35 11 69 30 96 46c15 9 30 19 43 29l59 -78c-52 -39 -129 -79 -242 -142l-227 -126l-48 87l179 100c-55 23 -98 68 -121 120c-9 23 -14 47 -14 74c0 83 53 161 133 193c31 13 64 19 98 19c31 0 59 -5 82 -10l38 -9z" />
    <glyph glyph-name="uniFBA6" unicode="&#x6c1;" horiz-adv-x="983" arabic-form="isolated" 
d="M485 16c-11 0 -109 1 -204 46c-119 56 -182 152 -182 281c0 113 54 237 158 364c41 49 93 99 132 135c-77 67 -72 71 -75 68l107 114c34 -32 131 -118 214 -209c156 -179 238 -341 238 -472c0 -129 -59 -225 -168 -280c-83 -40 -172 -47 -220 -47zM473 719
c-80 -69 -232 -236 -232 -375c0 -45 27 -100 108 -139h-1c56 -27 116 -30 137 -30c26 0 96 1 150 28c57 31 95 67 95 135c0 90 -92 232 -223 376l-18 20z" />
    <glyph glyph-name="uniFBA8" unicode="&#x6c1;" horiz-adv-x="728" arabic-form="initial" 
d="M-78 98c0 44 35 78 78 78h58c15 0 30 -1 45 -1c130 0 238 21 289 131v-1c11 22 16 51 16 88c0 63 -15 141 -44 235c-22 67 -64 161 -80 198l141 74c16 -35 56 -122 88 -224c35 -108 52 -201 52 -281c0 -59 -9 -110 -28 -153c-47 -97 -128 -170 -240 -201
c-69 -20 -136 -21 -196 -21h-92h-9c-43 0 -78 34 -78 78zM496 -453c-75 8 -153 77 -156 161c3 108 61 210 168 352l79 -52c-54 -81 -124 -189 -124 -246c0 -45 31 -70 116 -101z" />
    <glyph glyph-name="uniFBA9" unicode="&#x6c1;" horiz-adv-x="1000" arabic-form="medial" 
d="M337 272c-11 -57 -14 -113 -14 -166c0 -155 55 -296 164 -421c24 129 64 262 127 349c51 72 137 120 250 136c35 5 64 6 88 6c15 0 40 -1 51 -1h5v-155c-1 0 -3 1 -4 1c-8 1 -36 1 -51 1c-64 0 -168 -13 -213 -77c-80 -117 -107 -281 -107 -396c-45 -27 -84 -47 -128 -72
c-107 68 -188 153 -245 255h1c-49 87 -79 193 -91 318c-51 -16 -126 -27 -178 -30v155c58 3 117 13 140 33l-1 -1c20 16 29 39 42 74l3 7c5 15 6 25 13 37zM880 -701c-75 8 -153 77 -156 161c3 108 61 210 168 352l79 -52c-54 -81 -124 -189 -124 -246
c0 -45 31 -70 116 -101z" />
    <glyph glyph-name="uniFBAB" unicode="&#x6be;" horiz-adv-x="1169" arabic-form="final" 
d="M734 721c-23 -17 -57 -50 -93 -97c-40 -56 -94 -152 -115 -274c-4 -28 -6 -57 -6 -88c0 -20 0 -40 4 -76l46 7l39 9c109 31 180 91 212 176c19 47 25 93 25 132c0 49 -11 90 -24 119c-19 44 -44 75 -63 91zM56 14c0 40 23 56 85 80l225 90c-3 29 -4 56 -4 79
c0 80 16 162 39 238c43 128 114 222 162 275c37 43 112 115 183 118c80 3 146 -83 171 -114c39 -55 65 -124 80 -192c5 -27 7 -53 7 -77c0 -60 -13 -124 -34 -188c-29 -76 -74 -138 -135 -185c-52 -39 -113 -69 -186 -88c-16 -5 -51 -12 -90 -19c39 -95 97 -195 177 -303
c13 75 30 134 52 177c37 79 91 144 162 195c71 52 142 76 222 76c44 0 79 -35 79 -78c0 -44 -35 -78 -79 -78h-9c-50 -2 -91 -16 -123 -42c-60 -50 -83 -91 -110 -142c-16 -35 -35 -86 -35 -146c0 -57 18 -122 71 -187l12 -11c-36 -44 -67 -80 -102 -121
c-240 199 -397 399 -466 610l-16 44c-81 -28 -180 -61 -263 -89c-43 1 -75 35 -75 78z" />
    <glyph glyph-name="uniFBAC" unicode="&#x6be;" horiz-adv-x="1444" arabic-form="initial" 
d="M-82 99c0 43 37 77 82 77h9c181 0 271 9 357 22c-116 113 -172 224 -172 325c0 142 79 322 266 383l-107 41l77 144c127 -48 213 -85 331 -128c243 -107 477 -223 557 -333c59 -81 88 -163 88 -248c0 -124 -66 -236 -199 -308l1 1c-71 -42 -214 -58 -306 -58
c-116 0 -223 14 -336 61c-137 -43 -366 -58 -557 -58h-9c-45 0 -82 35 -82 79zM938 571c0 -120 -74 -284 -189 -388c60 -12 102 -14 134 -14h48c217 0 328 104 328 225c0 107 -125 261 -348 351c28 -68 28 -126 27 -162v-12zM642 801c-9 3 -18 4 -25 3
c-173 -16 -289 -157 -268 -297c16 -104 102 -199 204 -258c149 64 220 209 220 330c0 108 -53 211 -130 222h-1z" />
    <glyph glyph-name="uniFBAD" unicode="&#x6be;" horiz-adv-x="1003" arabic-form="medial" 
d="M510 725c-113 -12 -225 -292 -225 -471c0 -19 2 -41 5 -64c20 -3 40 -4 47 -4c172 0 280 173 280 328c0 83 -28 159 -93 207zM-79 98c0 43 34 78 78 78h133c-12 230 126 694 380 718c159 0 252 -236 252 -421c0 -60 -9 -111 -28 -150c-59 -168 -225 -260 -411 -292
c34 -87 126 -272 243 -341c-20 261 217 486 437 486c44 0 79 -35 79 -78c0 -44 -35 -78 -79 -78h-9c-164 -8 -302 -171 -302 -336c0 -68 22 -132 75 -191l-104 -125c-268 167 -420 400 -489 613l-14 39h-163c-44 0 -78 34 -78 78z" />
    <glyph glyph-name="uniFBAF" unicode="&#x6d2;" horiz-adv-x="1499" arabic-form="final" 
d="M809 -452c-185 0 -391 9 -564 81c-79 35 -139 84 -166 137c-11 20 -18 47 -18 78c0 32 8 70 35 111c102 163 390 221 700 221h704c43 0 78 -35 78 -78s-35 -78 -78 -78h-5h-699c-369 0 -526 -86 -574 -150l1 1c-12 -19 -13 -30 -10 -34c69 -99 323 -131 596 -131
c198 0 514 3 580 11l43 -150c-34 -4 -418 -19 -623 -19z" />
    <glyph glyph-name="uniFBB1" unicode="&#x6d3;" horiz-adv-x="1461" arabic-form="final" 
d="M770 -452c-185 0 -391 9 -564 81c-79 35 -139 84 -166 137c-11 20 -18 47 -18 78c0 32 8 70 35 111c102 163 390 221 700 221h704c43 0 78 -35 78 -78s-35 -78 -78 -78h-5h-699c-369 0 -526 -86 -574 -150l1 1c-12 -19 -13 -30 -10 -34c69 -99 323 -131 596 -131
c198 0 514 3 580 11l43 -150c-34 -4 -418 -19 -623 -19zM529 716l-27 6c-17 3 -40 7 -65 7c-20 0 -41 -3 -62 -12v2c-43 -19 -71 -60 -71 -104c0 -11 3 -23 8 -36l-1 1c19 -47 71 -82 128 -82c15 0 27 0 42 7c35 11 69 30 96 46c15 9 30 19 43 29l59 -78
c-52 -39 -129 -79 -242 -142l-227 -126l-48 87l179 100c-55 23 -98 68 -121 120c-9 23 -14 47 -14 74c0 83 53 161 133 193c31 13 64 19 98 19c31 0 59 -5 82 -10l38 -9z" />
    <glyph glyph-name="uniFBE8" unicode="&#x649;" horiz-adv-x="708" arabic-form="initial" 
d="M-85 98c0 44 35 78 78 78h103c15 0 30 -1 45 -1c130 0 238 21 289 131v-1c11 22 16 51 16 88c0 63 -15 141 -44 235c-22 67 -64 161 -80 198l142 71c16 -37 55 -122 87 -221c35 -108 52 -201 52 -281c0 -59 -9 -110 -28 -153c-47 -97 -128 -170 -240 -201
c-69 -20 -136 -21 -196 -21h-146c-43 0 -78 34 -78 78z" />
    <glyph glyph-name="uniFBE9" unicode="&#x649;" horiz-adv-x="705" arabic-form="medial" 
d="M-74 98c0 43 34 78 78 78h17c237 0 346 84 346 256c0 71 -12 133 -39 232c56 15 96 28 149 43c31 -115 47 -206 50 -291c5 -151 25 -240 177 -240c43 0 79 -35 79 -78c0 -44 -35 -78 -78 -78c-127 0 -211 55 -272 134c-92 -89 -223 -134 -412 -134h-17
c-44 0 -78 34 -78 78z" />
    <glyph glyph-name="uniFBFD" unicode="&#x6cc;" horiz-adv-x="1686" arabic-form="final" 
d="M830 -632c-227 0 -502 33 -619 232c-62 90 -93 207 -93 351c0 16 0 31 1 48c9 177 60 380 161 627c53 -21 96 -39 145 -59c-96 -241 -149 -460 -149 -620c0 -108 22 -194 65 -259c116 -167 352 -163 489 -163c122 0 579 55 579 265c0 38 -58 106 -219 165
c-95 32 -190 56 -234 64h-3l11 158l752 -1c43 0 79 -34 79 -78s-36 -78 -79 -78h-295c120 -99 145 -179 145 -230c-4 -325 -477 -422 -736 -422z" />
    <glyph glyph-name="uniFBFE" unicode="&#x6cc;" horiz-adv-x="799" arabic-form="initial" 
d="M341 -345l-146 -146l-148 147l146 147zM696 -347l-145 -146l-148 148l146 146zM-129 98c0 44 35 78 78 78h111c149 0 383 4 439 130v-1c11 22 16 51 16 88c0 63 -21 142 -50 235c-22 67 -64 161 -80 198l142 71c16 -37 55 -122 87 -221c35 -108 52 -201 52 -281
c0 -59 -9 -110 -28 -153c-47 -97 -128 -170 -240 -201c-68 -21 -237 -21 -295 -21h-154c-43 0 -78 34 -78 78z" />
    <glyph glyph-name="uniFBFF" unicode="&#x6cc;" horiz-adv-x="860" arabic-form="medial" 
d="M-81 98c0 44 34 78 78 78h76c236 0 448 35 440 246c-3 72 -10 126 -37 227c56 15 96 28 149 43c32 -115 34 -185 47 -288c13 -111 28 -228 183 -228c44 0 80 -34 80 -78s-35 -78 -78 -78c-126 0 -215 58 -273 138c-103 -101 -322 -138 -511 -138h-76c-44 0 -78 34 -78 78
zM319 -380l-146 -146l-148 147l146 147zM674 -382l-145 -146l-148 148l146 146z" />
    <glyph glyph-name="uniFC5E" unicode="&#xfc5e;" arabic-form="isolated" 
d="M45 1104c-86 3 -128 40 -146 71c-17 27 -22 58 -22 89c0 57 20 114 33 139c24 -12 46 -20 69 -31c-12 -31 -24 -73 -24 -109c0 -19 1 -35 9 -48c12 -21 48 -34 84 -34c25 0 50 6 66 26l-1 -1c17 19 27 44 32 75s8 59 8 85c0 13 -1 20 -1 29l29 6c16 3 33 7 37 12
c27 -192 78 -217 111 -217c63 4 85 47 85 100c0 61 -31 140 -68 185c21 16 43 29 63 42c25 -39 84 -138 84 -223c0 -13 -3 -46 -8 -61c-34 -90 -103 -118 -161 -118c-35 0 -83 12 -127 69c-39 -55 -86 -86 -145 -86h-7zM192 1847l10 -5c15 -7 41 -19 78 -35
c33 61 37 122 13 183l-2 3l-1 4c-1 4 -3 8 -5 11c-4 9 -9 17 -14 24c-15 20 -34 29 -57 26c-33 0 -64 -17 -93 -51c-20 -24 -28 -46 -25 -67c4 -22 16 -41 36 -58c8 -6 18 -12 29 -19l15 -8zM350 1786l-1 -3l36 -13l-26 -72l-48 17l-1 -1c-11 -10 -22 -20 -34 -29
c-24 -19 -52 -36 -84 -53c-23 -12 -51 -25 -82 -38c-47 -21 -100 -38 -158 -52c-9 -3 -21 -6 -36 -9l-17 -4l-10 -3l-42 61v2l1 2l2 8l7 18l9 33c3 13 6 26 7 38c1 15 1 29 0 42c-3 32 -14 53 -34 62c-9 4 -19 6 -30 6c-16 0 -34 -5 -54 -15c-4 -2 -11 -6 -21 -13l-10 -8
l-5 -3l-3 -3l-46 56c41 40 88 60 140 60c29 0 55 -8 78 -24c57 -39 73 -116 48 -232l-1 -4l4 1c59 19 108 36 145 51c55 23 103 49 143 78l4 2l-4 2c-9 5 -23 11 -42 20l-34 16l-32 17c-24 14 -43 29 -57 44c-29 33 -42 71 -39 112c3 48 25 90 66 125c40 35 82 52 127 52h8
c45 -3 83 -26 113 -70c27 -39 40 -87 38 -143c-1 -39 -9 -83 -25 -133z" />
    <glyph glyph-name="uniFC5F" unicode="&#xfc5f;" arabic-form="isolated" 
d="M37 1727c-86 3 -128 40 -146 71c-17 27 -22 58 -22 89c0 57 20 114 33 139c24 -12 46 -20 69 -31c-12 -31 -24 -73 -24 -109c0 -19 1 -35 9 -48c12 -21 48 -34 84 -34c25 0 50 6 66 26l-1 -1c17 19 27 44 32 75s8 59 8 85c0 13 -1 20 -1 29l29 6c16 3 33 7 37 12
c27 -192 78 -217 111 -217c63 4 85 47 85 100c0 61 -31 140 -68 185c21 16 43 29 63 42c25 -39 84 -138 84 -223c0 -13 -3 -46 -8 -61c-34 -90 -103 -118 -161 -118c-35 0 -83 12 -127 69c-39 -55 -86 -86 -145 -86h-7zM495 1607l-616 -247v90l616 239v-82zM497 1348
l-616 -247v90l616 239v-82z" />
    <glyph glyph-name="uniFC60" unicode="&#xfc60;" arabic-form="isolated" 
d="M39 1091c-86 3 -128 40 -146 71c-17 27 -22 58 -22 89c0 57 20 114 33 139c24 -12 46 -20 69 -31c-12 -31 -24 -73 -24 -109c0 -19 1 -35 9 -48c12 -21 48 -34 84 -34c25 0 50 6 66 26l-1 -1c17 19 27 44 32 75s8 59 8 85c0 13 -1 20 -1 29l29 6c16 3 33 7 37 12
c27 -192 78 -217 111 -217c63 4 85 47 85 100c0 61 -31 140 -68 185c21 16 43 29 63 42c25 -39 84 -138 84 -223c0 -13 -3 -46 -8 -61c-34 -90 -103 -118 -161 -118c-35 0 -83 12 -127 69c-39 -55 -86 -86 -145 -86h-7zM451 1735l-616 -247v90l616 239v-82z" />
    <glyph glyph-name="uniFC61" unicode="&#xfc61;" arabic-form="isolated" 
d="M41 1093c-86 3 -128 40 -146 71c-17 27 -22 58 -22 89c0 57 20 114 33 139c24 -12 46 -20 69 -31c-12 -31 -24 -73 -24 -109c0 -19 1 -35 9 -48c12 -21 48 -34 84 -34c25 0 50 6 66 26l-1 -1c17 19 27 44 32 75s8 59 8 85c0 13 -1 20 -1 29l29 6c16 3 33 7 37 12
c27 -192 78 -217 111 -217c63 4 85 47 85 100c0 61 -31 140 -68 185c21 16 43 29 63 42c25 -39 84 -138 84 -223c0 -13 -3 -46 -8 -61c-34 -90 -103 -118 -161 -118c-35 0 -83 12 -127 69c-39 -55 -86 -86 -145 -86h-7zM128 2029c-25 -20 -40 -41 -46 -64
c-7 -27 -1 -49 20 -68c8 -8 18 -15 31 -22l18 -9l17 -9l11 -5l96 -42c17 38 25 77 22 118c-2 47 -17 85 -45 114c-12 13 -27 19 -46 19c-26 0 -52 -11 -78 -32zM343 1786l35 -15l-26 -68l-3 1l-1 1l-2 1l-3 1c-5 2 -9 4 -14 5c-14 6 -23 10 -27 11l-3 -3l-4 -4
c-5 -3 -9 -7 -12 -10l-23 -20c-47 -38 -105 -73 -175 -106l-29 -13l-51 -22c-48 -20 -76 -31 -84 -32h-2l-26 71l3 1c111 32 223 86 334 161l-2 1l-14 6l-15 5l-31 13c-23 11 -43 21 -60 31c-45 27 -75 57 -90 92c-17 39 -12 81 13 126c22 39 52 69 90 90c28 15 58 23 90 23
c13 0 27 -2 41 -5c21 -5 40 -16 58 -35c7 -7 13 -14 19 -23l12 -19c19 -36 29 -79 30 -129c0 -50 -9 -95 -28 -136z" />
    <glyph glyph-name="uniFC62" unicode="&#xfc62;" arabic-form="isolated" 
d="M32 1446c-86 3 -128 40 -146 71c-17 27 -22 58 -22 89c0 57 20 114 33 139c24 -12 46 -20 69 -31c-12 -31 -24 -73 -24 -109c0 -19 1 -35 9 -48c12 -21 48 -34 84 -34c25 0 50 6 66 26l-1 -1c17 19 27 44 32 75s8 59 8 85c0 13 -1 20 -1 29l29 6c16 3 33 7 37 12
c27 -192 78 -217 111 -217c63 4 85 47 85 100c0 61 -31 140 -68 185c21 16 43 29 63 42c25 -39 84 -138 84 -223c0 -13 -3 -46 -8 -61c-34 -90 -103 -118 -161 -118c-35 0 -83 12 -127 69c-39 -55 -86 -86 -145 -86h-7zM472 1332l-616 -247v90l616 239v-82z" />
    <glyph glyph-name="uniFC63" unicode="&#xfc63;" arabic-form="isolated" 
d="M43 1088c-86 3 -128 40 -146 71c-17 27 -22 58 -22 89c0 57 20 114 33 139c24 -12 46 -20 69 -31c-12 -31 -24 -73 -24 -109c0 -19 1 -35 9 -48c12 -21 48 -34 84 -34c25 0 50 6 66 26l-1 -1c17 19 27 44 32 75s8 59 8 85c0 13 -1 20 -1 29l29 6c16 3 33 7 37 12
c27 -192 78 -217 111 -217c63 4 85 47 85 100c0 61 -31 140 -68 185c21 16 43 29 63 42c25 -39 84 -138 84 -223c0 -13 -3 -46 -8 -61c-34 -90 -103 -118 -161 -118c-35 0 -83 12 -127 69c-39 -55 -86 -86 -145 -86h-7zM145 1525c11 53 17 117 17 173c0 59 -9 157 -19 211
c24 8 60 13 81 21c11 -52 19 -148 19 -214c0 -64 -4 -130 -19 -211z" />
    <glyph glyph-name="uniFE70" unicode="&#xfe70;" arabic-form="isolated" 
d="M485 1581l-616 -247v90l616 239v-82zM487 1322l-616 -247v90l616 239v-82z" />
    <glyph glyph-name="uniFE72" unicode="&#xfe72;" arabic-form="isolated" 
d="M245 1423l10 -5c15 -7 41 -19 78 -35c33 61 37 122 13 183l-2 3l-1 4c-1 4 -3 8 -5 11c-4 9 -9 17 -14 24c-15 20 -34 29 -57 26c-33 0 -64 -17 -93 -51c-20 -24 -28 -46 -25 -67c4 -22 16 -41 36 -58c8 -6 18 -12 29 -19l15 -8zM403 1362l-1 -3l36 -13l-26 -72l-48 17
l-1 -1c-11 -10 -22 -20 -34 -29c-24 -19 -52 -36 -84 -53c-23 -12 -51 -25 -82 -38c-47 -21 -100 -38 -158 -52c-9 -3 -21 -6 -36 -9l-17 -4l-10 -3l-42 61v2l1 2l2 8l7 18l9 33c3 13 6 26 7 38c1 15 1 29 0 42c-3 32 -14 53 -34 62c-9 4 -19 6 -30 6c-16 0 -34 -5 -54 -15
c-4 -2 -11 -6 -21 -13l-10 -8l-5 -3l-3 -3l-46 56c41 40 88 60 140 60c29 0 55 -8 78 -24c57 -39 73 -116 48 -232l-1 -4l4 1c59 19 108 36 145 51c55 23 103 49 143 78l4 2l-4 2c-9 5 -23 11 -42 20l-34 16l-32 17c-24 14 -43 29 -57 44c-29 33 -42 71 -39 112
c3 48 25 90 66 125c40 35 82 52 127 52h8c45 -3 83 -26 113 -70c27 -39 40 -87 38 -143c-1 -39 -9 -83 -25 -133z" />
    <glyph glyph-name="uniFE74" unicode="&#xfe74;" arabic-form="isolated" 
d="M505 -168l-616 -247v90l616 239v-82zM507 -427l-616 -247v90l616 239v-82z" />
    <glyph glyph-name="uniFE76" unicode="&#xfe76;" arabic-form="isolated" 
d="M477 1356l-616 -247v90l616 239v-82z" />
    <glyph glyph-name="uniFE78" unicode="&#xfe78;" arabic-form="isolated" 
d="M121 1614c-25 -20 -40 -41 -46 -64c-7 -27 -1 -49 20 -68c8 -8 18 -15 31 -22l18 -9l17 -9l11 -5l96 -42c17 38 25 77 22 118c-2 47 -17 85 -45 114c-12 13 -27 19 -46 19c-26 0 -52 -11 -78 -32zM336 1371l35 -15l-26 -68l-3 1l-1 1l-2 1l-3 1c-5 2 -9 4 -14 5
c-14 6 -23 10 -27 11l-3 -3l-4 -4c-5 -3 -9 -7 -12 -10l-23 -20c-47 -38 -105 -73 -175 -106l-29 -13l-51 -22c-48 -20 -76 -31 -84 -32h-2l-26 71l3 1c111 32 223 86 334 161l-2 1l-14 6l-15 5l-31 13c-23 11 -43 21 -60 31c-45 27 -75 57 -90 92c-17 39 -12 81 13 126
c22 39 52 69 90 90c28 15 58 23 90 23c13 0 27 -2 41 -5c21 -5 40 -16 58 -35c7 -7 13 -14 19 -23l12 -19c19 -36 29 -79 30 -129c0 -50 -9 -95 -28 -136z" />
    <glyph glyph-name="uniFE7A" unicode="&#xfe7a;" arabic-form="isolated" 
d="M501 -215l-616 -247v90l616 239v-82z" />
    <glyph glyph-name="uniFE7C" unicode="&#xfe7c;" arabic-form="isolated" 
d="M53 1088c-86 3 -128 40 -146 71c-17 27 -22 58 -22 89c0 57 20 114 33 139c24 -12 46 -20 69 -31c-12 -31 -24 -73 -24 -109c0 -19 1 -35 9 -48c12 -21 48 -34 84 -34c25 0 50 6 66 26l-1 -1c17 19 27 44 32 75s8 59 8 85c0 13 -1 20 -1 29l29 6c16 3 33 7 37 12
c27 -192 78 -217 111 -217c63 4 85 47 85 100c0 61 -31 140 -68 185c21 16 43 29 63 42c25 -39 84 -138 84 -223c0 -13 -3 -46 -8 -61c-34 -90 -103 -118 -161 -118c-35 0 -83 12 -127 69c-39 -55 -86 -86 -145 -86h-7z" />
    <glyph glyph-name="uniFE7E" unicode="&#xfe7e;" arabic-form="isolated" 
d="M183 1179c71 0 141 74 136 158c-3 70 -47 157 -136 157c-82 0 -137 -90 -137 -157c0 -74 65 -158 137 -158zM183 1579c130 0 216 -131 221 -242c3 -123 -97 -243 -221 -243c-134 -3 -221 125 -221 243c0 111 87 242 221 242z" />
    <glyph glyph-name="uniFE82" unicode="&#x622;" horiz-adv-x="569" arabic-form="final" 
d="M562 20c-141 0 -239 32 -307 100c-83 83 -81 198 -81 260c1 40 4 145 4 285c0 122 -1 266 -7 412c-4 149 -12 268 -26 355l156 28c16 -94 24 -221 28 -378c6 -153 6 -307 6 -437c0 -103 -1 -183 -2 -267c-1 -64 0 -112 36 -147c33 -33 95 -54 184 -55h9
c43 0 79 -35 79 -78c0 -44 -36 -78 -79 -78zM-137 1553c7 19 21 62 40 93h-1c40 64 96 104 155 115c13 3 30 3 41 3c56 0 102 -17 142 -34c39 -15 72 -28 115 -29c64 -3 124 65 145 92c37 -23 62 -41 98 -64c-13 -23 -111 -153 -248 -148c-53 1 -98 18 -137 31h1l-16 6
c-44 17 -80 31 -123 24h1c-50 -5 -88 -86 -101 -124z" />
    <glyph glyph-name="uniFE84" unicode="&#x623;" horiz-adv-x="569" arabic-form="final" 
d="M562 20c-141 0 -239 32 -307 100c-83 83 -81 198 -81 260c1 40 4 145 4 285c0 122 -1 266 -7 412c-4 149 -12 268 -26 355l156 28c16 -94 24 -221 28 -378c6 -153 6 -307 6 -437c0 -103 -1 -183 -2 -267c-1 -64 0 -112 36 -147c33 -33 95 -54 184 -55h9
c43 0 79 -35 79 -78c0 -44 -36 -78 -79 -78zM376 1990c-10 1 -21 3 -32 5c-20 4 -42 6 -63 6c-24 0 -48 -3 -73 -15h1c-52 -20 -87 -71 -87 -123c0 -12 2 -29 10 -45c21 -53 85 -97 152 -97c16 0 31 1 51 9l-1 -1c63 18 131 64 149 79l53 -69c-56 -39 -140 -84 -260 -151
l-244 -135c-16 29 -26 49 -42 77l210 117c-71 31 -126 82 -151 137c-9 24 -14 50 -14 79c0 88 57 171 141 205c34 13 69 20 105 20c52 0 101 -11 121 -18z" />
    <glyph glyph-name="uniFE86" unicode="&#x624;" horiz-adv-x="1058" arabic-form="final" 
d="M102 -525c406 88 651 329 683 545h-77c-49 0 -105 1 -157 5c-138 9 -240 54 -306 135v-1c-43 55 -61 124 -61 200c0 122 53 260 117 348c61 76 141 120 218 120c89 0 171 -41 246 -122v1c109 -122 179 -322 184 -530h94c44 0 80 -34 80 -79c0 -43 -36 -77 -80 -77h-107
c-77 -389 -425 -635 -797 -699zM519 670c-98 0 -202 -181 -202 -308c0 -44 15 -81 35 -106v1c45 -58 157 -73 209 -76c75 -4 162 -5 230 2c-8 186 -73 337 -144 416c-29 32 -76 71 -128 71zM562 1374l-27 6c-17 3 -40 7 -65 7c-20 0 -41 -3 -62 -12v2
c-43 -19 -71 -60 -71 -104c0 -11 3 -23 8 -36l-1 1c19 -47 71 -82 128 -82c15 0 27 0 42 7c35 11 69 30 96 46c15 9 30 19 43 29l59 -78c-52 -39 -129 -79 -242 -142l-227 -126l-48 87l179 100c-55 23 -98 68 -121 120c-9 23 -14 47 -14 74c0 83 53 161 133 193
c31 13 64 19 98 19c31 0 59 -5 82 -10l38 -9z" />
    <glyph glyph-name="uniFE88" unicode="&#x625;" horiz-adv-x="569" arabic-form="final" 
d="M562 20c-141 0 -239 32 -307 100c-83 83 -81 198 -81 260c1 40 4 145 4 285c0 122 -1 266 -7 412c-4 149 -12 268 -26 355l156 28c16 -94 24 -221 28 -378c6 -153 6 -307 6 -437c0 -103 -1 -183 -2 -267c-1 -64 0 -112 36 -147c33 -33 95 -54 184 -55h9
c43 0 79 -35 79 -78c0 -44 -36 -78 -79 -78zM490 -195c-10 1 -21 3 -32 5c-20 4 -42 6 -63 6c-24 0 -48 -3 -73 -15h1c-52 -20 -87 -71 -87 -123c0 -12 2 -29 10 -45c21 -53 85 -97 152 -97c16 0 31 1 51 9l-1 -1c63 18 131 64 149 79l53 -69c-56 -39 -140 -84 -260 -151
l-244 -135c-16 29 -26 49 -42 77l210 117c-71 31 -126 82 -151 137c-9 24 -14 50 -14 79c0 88 57 171 141 205c34 13 69 20 105 20c52 0 101 -11 121 -18z" />
    <glyph glyph-name="uniFE8A" unicode="&#x626;" horiz-adv-x="1683" arabic-form="final" 
d="M830 -632c-227 0 -502 33 -619 232c-62 90 -93 207 -93 351c0 16 0 31 1 48c9 177 60 380 161 627c53 -21 96 -39 145 -59c-96 -241 -149 -460 -149 -620c0 -108 22 -194 65 -259c116 -167 352 -163 489 -163c122 0 579 55 579 265c0 38 -58 106 -219 165
c-95 32 -190 56 -234 64h-3l11 158l752 -1c43 0 79 -34 79 -78s-36 -78 -79 -78h-295c120 -99 145 -179 145 -230c-4 -325 -477 -422 -736 -422zM908 606l-27 6c-17 3 -40 7 -65 7c-20 0 -41 -3 -62 -12v2c-43 -19 -71 -60 -71 -104c0 -11 3 -23 8 -36l-1 1
c19 -47 71 -82 128 -82c15 0 27 0 42 7c35 11 69 30 96 46c15 9 30 19 43 29l59 -78c-52 -39 -129 -79 -242 -142l-227 -126l-48 87l179 100c-55 23 -98 68 -121 120c-9 23 -14 47 -14 74c0 83 53 161 133 193c31 13 64 19 98 19c31 0 59 -5 82 -10l38 -9z" />
    <glyph glyph-name="uniFE8B" unicode="&#x626;" horiz-adv-x="711" arabic-form="initial" 
d="M-85 98c0 44 35 78 78 78h103c15 0 30 -1 45 -1c130 0 238 21 289 131v-1c11 22 16 51 16 88c0 63 -15 141 -44 235c-22 67 -64 161 -80 198l142 71c16 -37 55 -122 87 -221c35 -108 52 -201 52 -281c0 -59 -9 -110 -28 -153c-47 -97 -128 -170 -240 -201
c-69 -20 -136 -21 -196 -21h-146c-43 0 -78 34 -78 78zM487 1425l-27 6c-17 3 -40 7 -65 7c-20 0 -41 -3 -62 -12v2c-43 -19 -71 -60 -71 -104c0 -11 3 -23 8 -36l-1 1c19 -47 71 -82 128 -82c15 0 27 0 42 7c35 11 69 30 96 46c15 9 30 19 43 29l59 -78
c-52 -39 -129 -79 -242 -142l-227 -126l-48 87l179 100c-55 23 -98 68 -121 120c-9 23 -14 47 -14 74c0 83 53 161 133 193c31 13 64 19 98 19c31 0 59 -5 82 -10l38 -9z" />
    <glyph glyph-name="uniFE8C" unicode="&#x626;" horiz-adv-x="715" arabic-form="medial" 
d="M-74 98c0 43 34 78 78 78h17c237 0 346 84 346 256c0 71 -12 133 -39 232c56 15 96 28 149 43c31 -115 47 -206 50 -291c5 -151 25 -240 177 -240c43 0 79 -35 79 -78c0 -44 -35 -78 -78 -78c-127 0 -211 55 -272 134c-92 -89 -223 -134 -412 -134h-17
c-44 0 -78 34 -78 78zM475 1308l-27 6c-17 3 -40 7 -65 7c-20 0 -41 -3 -62 -12v2c-43 -19 -71 -60 -71 -104c0 -11 3 -23 8 -36l-1 1c19 -47 71 -82 128 -82c15 0 27 0 42 7c35 11 69 30 96 46c15 9 30 19 43 29l59 -78c-52 -39 -129 -79 -242 -142l-227 -126l-48 87
l179 100c-55 23 -98 68 -121 120c-9 23 -14 47 -14 74c0 83 53 161 133 193c31 13 64 19 98 19c31 0 59 -5 82 -10l38 -9z" />
    <glyph glyph-name="uniFE8E" unicode="&#x627;" horiz-adv-x="591" arabic-form="final" 
d="M581 20c-141 0 -239 32 -307 100c-83 83 -81 198 -81 260v18c1 23 4 127 4 267c0 49 -1 117 -2 173c0 211 -10 496 -31 624l156 28c24 -140 32 -398 32 -628c1 -77 2 -150 2 -217c0 -103 -1 -183 -2 -223v-26v-18c-1 -64 0 -112 36 -147c33 -33 95 -54 184 -55h9
c43 0 79 -35 79 -78c0 -44 -36 -78 -79 -78z" />
    <glyph glyph-name="uniFE90" unicode="&#x628;" horiz-adv-x="2245" arabic-form="final" 
d="M1858 177c-25 30 -48 74 -69 133c-187 -195 -468 -293 -841 -293c-399 3 -660 89 -776 285c-47 77 -64 162 -64 243c0 51 7 100 18 143c23 93 51 160 66 191c51 -28 90 -51 139 -78c-16 -40 -69 -139 -69 -244c0 -55 13 -114 42 -165c85 -138 316 -216 644 -216
c297 0 507 51 647 166l-1 -1c121 97 173 228 207 345l152 -42c-7 -27 -11 -44 -19 -80c-8 -39 -12 -74 -11 -105c3 -60 15 -131 60 -186l-1 1c52 -65 137 -98 254 -98c44 0 79 -34 79 -78s-35 -78 -79 -78h-8c-167 2 -290 54 -369 156zM1138 -362l-147 -147l-148 148
l147 147z" />
    <glyph glyph-name="uniFE91" unicode="&#x628;" horiz-adv-x="664" arabic-form="initial" 
d="M-85 98c0 44 35 78 78 78h103c15 0 30 -1 45 -1c130 0 238 21 289 131v-1c11 22 16 51 16 88c0 63 -15 141 -44 235c-22 67 -64 161 -80 198l142 71c16 -37 55 -122 87 -221c35 -108 52 -201 52 -281c0 -59 -9 -110 -28 -153c-47 -97 -128 -170 -240 -201
c-69 -20 -136 -21 -196 -21h-146c-43 0 -78 34 -78 78zM441 -376l-147 -147l-148 148l147 147z" />
    <glyph glyph-name="uniFE92" unicode="&#x628;" horiz-adv-x="718" arabic-form="medial" 
d="M-74 98c0 43 34 78 78 78h17c237 0 346 84 346 256c0 71 -12 133 -39 232c56 15 96 28 149 43c31 -115 47 -206 50 -291c5 -151 25 -240 177 -240c43 0 79 -35 79 -78c0 -44 -35 -78 -78 -78c-127 0 -211 55 -272 134c-92 -89 -223 -134 -412 -134h-17
c-44 0 -78 34 -78 78zM536 -361l-147 -147l-148 148l147 147z" />
    <glyph glyph-name="uniFE94" unicode="&#x629;" horiz-adv-x="1126" arabic-form="final" 
d="M581 160c-166 0 -281 39 -344 118c-36 44 -48 99 -48 147c0 43 7 78 18 101c105 219 355 322 470 365l-15 145l157 34c4 -33 33 -317 37 -346v1c40 -348 71 -427 79 -445v1c34 -82 90 -105 192 -105c43 0 79 -34 79 -78c0 -43 -36 -78 -79 -78c-51 0 -122 4 -187 35h1
c-50 23 -94 65 -131 126c-90 -14 -166 -21 -229 -21zM671 720c-100 -44 -331 -138 -331 -281c0 -99 119 -125 235 -125c61 0 132 9 181 18c-19 92 -38 229 -59 398zM594 1426l-146 -146l-148 147l146 147zM949 1424l-145 -146l-148 148l146 146z" />
    <glyph glyph-name="uniFE96" unicode="&#x62a;" horiz-adv-x="2253" arabic-form="final" 
d="M1858 177c-25 30 -48 74 -69 133c-187 -195 -468 -293 -841 -293c-399 3 -660 89 -776 285c-47 77 -64 162 -64 243c0 51 7 100 18 143c23 93 51 160 66 191c51 -28 90 -51 139 -78c-16 -40 -69 -139 -69 -244c0 -55 13 -114 42 -165c85 -138 316 -216 644 -216
c297 0 507 51 647 166l-1 -1c121 97 173 228 207 345l152 -42c-7 -27 -11 -44 -19 -80c-8 -39 -12 -74 -11 -105c3 -60 15 -131 60 -186l-1 1c52 -65 137 -98 254 -98c44 0 79 -34 79 -78s-35 -78 -79 -78h-8c-167 2 -290 54 -369 156zM993 984l-146 -146l-148 147l146 147z
M1348 982l-145 -146l-148 148l146 146z" />
    <glyph glyph-name="uniFE97" unicode="&#x62a;" horiz-adv-x="788" arabic-form="initial" 
d="M389 1246l-146 -146l-148 147l146 147zM744 1244l-145 -146l-148 148l146 146zM-115 98c0 44 35 78 78 78h111c149 0 383 4 439 130v-1c11 22 16 51 16 88c0 63 -21 142 -50 235c-22 67 -64 161 -80 198l142 71c16 -37 55 -122 87 -221c35 -108 52 -201 52 -281
c0 -59 -9 -110 -28 -153c-47 -97 -128 -170 -240 -201c-68 -21 -237 -21 -295 -21h-154c-43 0 -78 34 -78 78z" />
    <glyph glyph-name="uniFE98" unicode="&#x62a;" horiz-adv-x="870" arabic-form="medial" 
d="M-81 98c0 44 34 78 78 78h76c236 0 448 35 440 246c-3 72 -10 126 -37 227c56 15 96 28 149 43c32 -115 34 -185 47 -288c13 -111 28 -228 183 -228c44 0 80 -34 80 -78s-35 -78 -78 -78c-126 0 -215 58 -273 138c-103 -101 -322 -138 -511 -138h-76c-44 0 -78 34 -78 78
zM410 1022l-146 -146l-148 147l146 147zM765 1020l-145 -146l-148 148l146 146z" />
    <glyph glyph-name="uniFE9A" unicode="&#x62b;" horiz-adv-x="2233" arabic-form="final" 
d="M1858 177c-25 30 -48 74 -69 133c-187 -195 -468 -293 -841 -293c-399 3 -660 89 -776 285c-47 77 -64 162 -64 243c0 51 7 100 18 143c23 93 51 160 66 191c51 -28 90 -51 139 -78c-16 -40 -69 -139 -69 -244c0 -55 13 -114 42 -165c85 -138 316 -216 644 -216
c297 0 507 51 647 166l-1 -1c121 97 173 228 207 345l152 -42c-7 -27 -11 -44 -19 -80c-8 -39 -12 -74 -11 -105c3 -60 15 -131 60 -186l-1 1c52 -65 137 -98 254 -98c44 0 79 -34 79 -78s-35 -78 -79 -78h-8c-167 2 -290 54 -369 156zM1106 968l146 146l148 -148l-146 -146
zM700 969l146 147l148 -148l-146 -147zM923 1259l132 132l133 -133l-132 -132z" />
    <glyph glyph-name="uniFE9B" unicode="&#x62b;" horiz-adv-x="799" arabic-form="initial" 
d="M510 1242l146 146l148 -148l-146 -146zM104 1243l146 147l148 -148l-146 -147zM327 1533l132 132l133 -133l-132 -132zM-78 98c0 44 35 78 78 78h111c149 0 383 4 439 130v-1c11 22 16 51 16 88c0 63 -21 142 -50 235c-22 67 -64 161 -80 198l142 71
c16 -37 55 -122 87 -221c35 -108 52 -201 52 -281c0 -59 -9 -110 -28 -153c-47 -97 -128 -170 -240 -201c-68 -21 -237 -21 -295 -21h-154c-43 0 -78 34 -78 78z" />
    <glyph glyph-name="uniFE9C" unicode="&#x62b;" horiz-adv-x="864" arabic-form="medial" 
d="M-81 98c0 44 34 78 78 78h76c236 0 448 35 440 246c-3 72 -10 126 -37 227c56 15 96 28 149 43c32 -115 34 -185 47 -288c13 -111 28 -228 183 -228c44 0 80 -34 80 -78s-35 -78 -78 -78c-126 0 -215 58 -273 138c-103 -101 -322 -138 -511 -138h-76c-44 0 -78 34 -78 78
zM466 1007l146 146l148 -148l-146 -146zM60 1008l146 147l148 -148l-146 -147zM283 1298l132 132l133 -133l-132 -132z" />
    <glyph glyph-name="uniFE9E" unicode="&#x62c;" horiz-adv-x="1609" arabic-form="final" 
d="M853 -608c188 0 352 51 515 164l90 -129c-189 -127 -402 -199 -643 -199c-400 0 -725 222 -725 607c0 15 0 27 1 43c24 409 471 727 1107 715c-146 77 -359 312 -577 312c-143 0 -255 -132 -325 -229c-32 22 -44 28 -70 46c-19 13 -38 25 -59 38c91 145 245 303 438 303
c337 0 544 -282 814 -439l-51 -159l-154 -10c-1 -11 -1 -21 -1 -29c0 -42 9 -102 46 -150c69 -83 167 -100 343 -100c43 0 79 -36 79 -80c0 -43 -36 -76 -79 -76c-233 0 -380 57 -468 161c-43 60 -73 139 -77 224c-1 9 -1 22 1 38c-444 -43 -791 -282 -815 -582
c-4 -320 299 -469 610 -469zM970 -122l-147 -147l-148 148l147 147z" />
    <glyph glyph-name="uniFE9F" unicode="&#x62c;" horiz-adv-x="1548" arabic-form="initial" 
d="M-81 98c0 44 36 78 80 78h198c360 0 741 158 1068 323l-298 124c-126 59 -245 116 -333 116c-152 0 -258 -182 -291 -240l-134 80c15 31 39 75 90 136c99 120 214 181 335 181c125 0 259 -63 400 -130c155 -72 240 -127 406 -188c11 -59 21 -101 32 -157
c-92 -38 -102 -45 -197 -93c-289 -142 -687 -308 -1078 -308h-198c-44 0 -80 35 -80 78zM912 -365l-147 -147l-148 148l147 147z" />
    <glyph glyph-name="uniFEA0" unicode="&#x62c;" horiz-adv-x="1663" arabic-form="medial" 
d="M-79 97c0 43 35 79 79 79h183c362 0 665 146 954 290l60 30c-177 60 -448 242 -636 242c-150 0 -259 -177 -291 -239l-130 88c83 153 221 310 421 310c274 0 558 -252 826 -308c11 -61 20 -98 33 -156c-48 -21 -33 -14 -131 -62c52 -180 288 -195 364 -195h6h8
c44 0 79 -36 79 -79c0 -44 -35 -77 -79 -77h-14c-253 0 -439 104 -508 280c-279 -141 -600 -281 -962 -281l-183 1c-44 0 -79 33 -79 77zM936 -363l-147 -147l-148 148l147 147z" />
    <glyph glyph-name="uniFEA2" unicode="&#x62d;" horiz-adv-x="1600" arabic-form="final" 
d="M853 -608c188 0 352 51 515 164l90 -129c-189 -127 -402 -199 -643 -199c-400 0 -725 222 -725 607c0 15 0 27 1 43c24 409 471 727 1107 715c-146 77 -359 312 -577 312c-143 0 -255 -132 -325 -229c-32 22 -44 28 -70 46c-19 13 -38 25 -59 38c91 145 245 303 438 303
c337 0 544 -282 814 -439l-51 -159l-154 -10c-1 -11 -1 -21 -1 -29c0 -42 9 -102 46 -150c69 -83 167 -100 343 -100c43 0 79 -36 79 -80c0 -43 -36 -76 -79 -76c-233 0 -380 57 -468 161c-43 60 -73 139 -77 224c-1 9 -1 22 1 38c-444 -43 -791 -282 -815 -582
c-4 -320 299 -469 610 -469z" />
    <glyph glyph-name="uniFEA3" unicode="&#x62d;" horiz-adv-x="1548" arabic-form="initial" 
d="M-81 98c0 44 36 78 80 78h198c360 0 741 158 1068 323l-298 124c-126 59 -245 116 -333 116c-152 0 -258 -182 -291 -240l-134 80c15 31 39 75 90 136c99 120 214 181 335 181c125 0 259 -63 400 -130c155 -72 240 -127 406 -188c11 -59 21 -101 32 -157
c-92 -38 -102 -45 -197 -93c-289 -142 -687 -308 -1078 -308h-198c-44 0 -80 35 -80 78z" />
    <glyph glyph-name="uniFEA4" unicode="&#x62d;" horiz-adv-x="1667" arabic-form="medial" 
d="M-79 97c0 43 35 79 79 79h183c362 0 665 146 954 290l60 30c-177 60 -448 242 -636 242c-150 0 -259 -177 -291 -239l-130 88c83 153 221 310 421 310c274 0 558 -252 826 -308c11 -61 20 -98 33 -156c-48 -21 -33 -14 -131 -62c52 -180 288 -195 364 -195h6h8
c44 0 79 -36 79 -79c0 -44 -35 -77 -79 -77h-14c-253 0 -439 104 -508 280c-279 -141 -600 -281 -962 -281l-183 1c-44 0 -79 33 -79 77z" />
    <glyph glyph-name="uniFEA6" unicode="&#x62e;" horiz-adv-x="1603" arabic-form="final" 
d="M853 -608c188 0 352 51 515 164l90 -129c-189 -127 -402 -199 -643 -199c-400 0 -725 222 -725 607c0 15 0 27 1 43c24 409 471 727 1107 715c-146 77 -359 312 -577 312c-143 0 -255 -132 -325 -229c-32 22 -44 28 -70 46c-19 13 -38 25 -59 38c91 145 245 303 438 303
c337 0 544 -282 814 -439l-51 -159l-154 -10c-1 -11 -1 -21 -1 -29c0 -42 9 -102 46 -150c69 -83 167 -100 343 -100c43 0 79 -36 79 -80c0 -43 -36 -76 -79 -76c-233 0 -380 57 -468 161c-43 60 -73 139 -77 224c-1 9 -1 22 1 38c-444 -43 -791 -282 -815 -582
c-4 -320 299 -469 610 -469zM759 1384l-147 -147l-148 148l147 147z" />
    <glyph glyph-name="uniFEA7" unicode="&#x62e;" horiz-adv-x="1548" arabic-form="initial" 
d="M-81 98c0 44 36 78 80 78h198c360 0 741 158 1068 323l-298 124c-126 59 -245 116 -333 116c-152 0 -258 -182 -291 -240l-134 80c15 31 39 75 90 136c99 120 214 181 335 181c125 0 259 -63 400 -130c155 -72 240 -127 406 -188c11 -59 21 -101 32 -157
c-92 -38 -102 -45 -197 -93c-289 -142 -687 -308 -1078 -308h-198c-44 0 -80 35 -80 78zM739 1285l-147 -147l-148 148l147 147z" />
    <glyph glyph-name="uniFEA8" unicode="&#x62e;" horiz-adv-x="1669" arabic-form="medial" 
d="M-79 97c0 43 35 79 79 79h183c362 0 665 146 954 290l60 30c-177 60 -448 242 -636 242c-150 0 -259 -177 -291 -239l-130 88c83 153 221 310 421 310c274 0 558 -252 826 -308c11 -61 20 -98 33 -156c-48 -21 -33 -14 -131 -62c52 -180 288 -195 364 -195h6h8
c44 0 79 -36 79 -79c0 -44 -35 -77 -79 -77h-14c-253 0 -439 104 -508 280c-279 -141 -600 -281 -962 -281l-183 1c-44 0 -79 33 -79 77zM687 1224l-147 -147l-148 148l147 147z" />
    <glyph glyph-name="uniFEAA" unicode="&#x62f;" horiz-adv-x="1253" arabic-form="final" 
d="M490 20c-144 0 -289 63 -394 168c33 47 59 81 91 126c105 -91 227 -134 328 -134c51 0 116 10 163 29c69 27 147 70 175 98l-313 754c55 23 93 40 144 61c20 -49 45 -110 76 -183c51 -125 130 -312 239 -576c45 -114 73 -187 250 -187c43 0 79 -34 79 -78
s-36 -78 -79 -78c-164 0 -259 64 -318 141c-45 -35 -131 -72 -195 -99h1c-72 -28 -148 -42 -247 -42z" />
    <glyph glyph-name="uniFEAC" unicode="&#x630;" horiz-adv-x="1247" arabic-form="final" 
d="M490 20c-144 0 -289 63 -394 168c33 47 59 81 91 126c105 -91 227 -134 328 -134c51 0 116 10 163 29c69 27 147 70 175 98l-313 754c55 23 93 40 144 61c20 -49 45 -110 76 -183c51 -125 130 -312 239 -576c45 -114 73 -187 250 -187c43 0 79 -34 79 -78
s-36 -78 -79 -78c-164 0 -259 64 -318 141c-45 -35 -131 -72 -195 -99h1c-72 -28 -148 -42 -247 -42zM774 1468l-147 -147l-148 148l147 147z" />
    <glyph glyph-name="uniFEAE" unicode="&#x631;" horiz-adv-x="816" arabic-form="final" 
d="M605 69c0 -330 -310 -615 -631 -779c-25 53 -46 89 -70 140c276 144 544 372 544 640c0 13 -1 27 -2 40c-19 144 -79 338 -111 445l150 46c101 -299 196 -425 335 -425h5c44 0 79 -36 79 -79c0 -44 -35 -77 -79 -77c-35 0 -121 0 -220 102v-53z" />
    <glyph glyph-name="uniFEB0" unicode="&#x632;" horiz-adv-x="819" arabic-form="final" 
d="M605 69c0 -330 -310 -615 -631 -779c-25 53 -46 89 -70 140c276 144 544 372 544 640c0 13 -1 27 -2 40c-19 144 -79 338 -111 445l150 46c101 -299 196 -425 335 -425h5c44 0 79 -36 79 -79c0 -44 -35 -77 -79 -77c-35 0 -121 0 -220 102v-53zM538 994l-147 -147
l-148 148l147 147z" />
    <glyph glyph-name="uniFEB2" unicode="&#x633;" horiz-adv-x="2889" arabic-form="final" 
d="M2891 176c43 0 79 -35 79 -79c0 -43 -36 -77 -79 -77h-9h-11c-105 0 -193 42 -264 125c-19 19 -43 56 -72 107c-29 -67 -55 -109 -78 -136c-56 -60 -128 -97 -216 -97c-69 0 -166 53 -230 146c-87 -100 -195 -139 -299 -146c-63 -3 -117 13 -156 29c-23 9 -44 20 -63 32
l2 -52c28 -421 -338 -687 -753 -671c-167 0 -313 53 -421 145c-93 88 -165 217 -184 355c-6 40 -9 79 -9 117c0 121 25 232 50 312c35 120 81 210 114 261c45 -33 86 -64 127 -95c-48 -74 -132 -285 -132 -485c0 -31 2 -60 6 -88c16 -110 93 -363 480 -363
c292 13 471 119 535 312c27 83 37 168 37 255c0 149 -32 293 -107 464c48 32 87 43 132 72c1 -1 4 -7 8 -17c7 -17 21 -50 46 -115c56 -156 111 -309 282 -309c214 0 221 231 229 434v15l164 -11l-7 -152c0 -124 21 -291 153 -291c45 0 67 18 94 49v-1c48 52 85 156 92 293
c3 63 -5 121 -10 189l164 11c5 -81 13 -155 40 -274c56 -171 141 -264 246 -264h20z" />
    <glyph glyph-name="uniFEB3" unicode="&#x633;" horiz-adv-x="1609" arabic-form="initial" 
d="M-72 97c0 40 32 75 72 79c237 8 336 290 376 488l157 -31c-21 -72 -64 -205 -64 -304c0 -81 26 -162 128 -162c213 0 291 350 319 527c56 -11 100 -20 152 -29v3v-4c-11 -56 -37 -198 -37 -286c0 -111 33 -214 167 -214c117 0 169 85 169 196c0 146 -82 352 -130 448
l139 74c35 -73 150 -313 150 -519c0 -216 -120 -358 -366 -355c-95 0 -203 72 -264 165c-88 -101 -192 -165 -299 -165c-92 0 -209 57 -257 166c-88 -94 -187 -152 -340 -155h1c-40 3 -73 35 -73 78z" />
    <glyph glyph-name="uniFEB4" unicode="&#x633;" horiz-adv-x="1851" arabic-form="medial" 
d="M-81 98c0 41 39 75 80 78h8c122 0 218 138 279 253c57 108 91 221 104 265v2c51 -13 101 -27 152 -42c-1 -3 -2 -5 -2 -6l1 1c-9 -35 -24 -99 -33 -167c-11 -82 -21 -188 25 -266v1c13 -23 32 -36 59 -39c36 -11 78 3 109 26c64 47 125 151 172 296v-1
c23 67 38 130 53 207l155 -29c-13 -71 -18 -126 -21 -182c-1 -15 -1 -31 -1 -46c0 -104 19 -183 54 -226c17 -23 44 -44 101 -44c41 0 74 14 99 43v-1c48 52 78 156 86 292c1 27 2 54 2 77c0 37 -3 73 -6 112l159 14c5 -79 15 -166 51 -282c56 -171 135 -258 240 -258h8
c44 0 78 -34 78 -78c0 -43 -34 -78 -78 -78h-8c-101 0 -192 44 -263 125c-21 23 -46 59 -73 104c-27 -60 -53 -105 -78 -132c-56 -64 -130 -97 -217 -97c-92 0 -170 35 -223 103c-19 23 -37 56 -60 111c-49 -74 -95 -127 -138 -158c-55 -37 -116 -59 -177 -59
c-142 0 -207 83 -263 220c-34 -46 -63 -80 -87 -102c-79 -77 -165 -115 -259 -115h-9c-43 0 -79 35 -79 78zM1081 677v1v-1z" />
    <glyph glyph-name="uniFEB6" unicode="&#x634;" horiz-adv-x="2889" arabic-form="final" 
d="M2891 176c43 0 79 -35 79 -79c0 -43 -36 -77 -79 -77h-9h-11c-105 0 -193 42 -264 125c-19 19 -43 56 -72 107c-29 -67 -55 -109 -78 -136c-56 -60 -128 -97 -216 -97c-69 0 -166 53 -230 146c-87 -100 -195 -139 -299 -146c-63 -3 -117 13 -156 29c-23 9 -44 20 -63 32
l2 -52c28 -421 -338 -687 -753 -671c-167 0 -313 53 -421 145c-93 88 -165 217 -184 355c-6 40 -9 79 -9 117c0 121 25 232 50 312c35 120 81 210 114 261c45 -33 86 -64 127 -95c-48 -74 -132 -285 -132 -485c0 -31 2 -60 6 -88c16 -110 93 -363 480 -363
c292 13 471 119 535 312c27 83 37 168 37 255c0 149 -32 293 -107 464c48 32 87 43 132 72c1 -1 4 -7 8 -17c7 -17 21 -50 46 -115c56 -156 111 -309 282 -309c214 0 221 231 229 434v15l164 -11l-7 -152c0 -124 21 -291 153 -291c45 0 67 18 94 49v-1c48 52 85 156 92 293
c3 63 -5 121 -10 189l164 11c5 -81 13 -155 40 -274c56 -171 141 -264 246 -264h20zM2050 1050l146 146l148 -148l-146 -146zM1644 1051l146 147l148 -148l-146 -147zM1867 1341l132 132l133 -133l-132 -132z" />
    <glyph glyph-name="uniFEB7" unicode="&#x634;" horiz-adv-x="1609" arabic-form="initial" 
d="M-72 97c0 40 32 75 72 79c237 8 336 290 376 488l157 -31c-21 -72 -64 -205 -64 -304c0 -81 26 -162 128 -162c213 0 291 350 319 527c56 -11 100 -20 152 -29v3v-4c-11 -56 -37 -198 -37 -286c0 -111 33 -214 167 -214c117 0 169 85 169 196c0 146 -82 352 -130 448
l139 74c35 -73 150 -313 150 -519c0 -216 -120 -358 -366 -355c-95 0 -203 72 -264 165c-88 -101 -192 -165 -299 -165c-92 0 -209 57 -257 166c-88 -94 -187 -152 -340 -155h1c-40 3 -73 35 -73 78zM987 1156l146 146l148 -148l-146 -146zM581 1157l146 147l148 -148
l-146 -147zM804 1447l132 132l133 -133l-132 -132z" />
    <glyph glyph-name="uniFEB8" unicode="&#x634;" horiz-adv-x="1876" arabic-form="medial" 
d="M-74 98c0 41 39 75 80 78h8c122 0 218 138 279 253c57 108 91 221 104 265v2c51 -13 101 -27 152 -42c-1 -3 -2 -5 -2 -6l1 1c-9 -35 -24 -99 -33 -167c-11 -82 -21 -188 25 -266v1c13 -23 32 -36 59 -39c36 -11 78 3 109 26c64 47 125 151 172 296v-1
c23 67 38 130 53 207l155 -29c-13 -71 -18 -126 -21 -182c-1 -15 -1 -31 -1 -46c0 -104 19 -183 54 -226c17 -23 44 -44 101 -44c41 0 74 14 99 43v-1c48 52 78 156 86 292c1 27 2 54 2 77c0 37 -3 73 -6 112l159 14c5 -79 15 -166 51 -282c56 -171 135 -258 240 -258h8
c44 0 78 -34 78 -78c0 -43 -34 -78 -78 -78h-8c-101 0 -192 44 -263 125c-21 23 -46 59 -73 104c-27 -60 -53 -105 -78 -132c-56 -64 -130 -97 -217 -97c-92 0 -170 35 -223 103c-19 23 -37 56 -60 111c-49 -74 -95 -127 -138 -158c-55 -37 -116 -59 -177 -59
c-142 0 -207 83 -263 220c-34 -46 -63 -80 -87 -102c-79 -77 -165 -115 -259 -115h-9c-43 0 -79 35 -79 78zM1088 677v1v-1zM1055 1125l146 146l148 -148l-146 -146zM649 1126l146 147l148 -148l-146 -147zM872 1416l132 132l133 -133l-132 -132z" />
    <glyph glyph-name="uniFEBA" unicode="&#x635;" horiz-adv-x="2868" arabic-form="final" 
d="M1730 200c108 -40 222 -58 343 -58c134 0 288 31 391 95c121 65 169 261 76 362c-77 80 -173 89 -267 73c-111 -18 -216 -92 -309 -180c-104 -99 -193 -219 -234 -292zM2868 20c-122 0 -237 47 -290 100c-167 -106 -346 -131 -470 -134c-16 -1 -31 -1 -47 -1
c-135 0 -267 22 -371 61c-65 24 -136 63 -216 120c3 -30 7 -102 7 -131c0 -19 1 -35 -2 -54c-7 -91 -28 -175 -60 -248c-39 -81 -93 -157 -157 -213c-117 -96 -276 -150 -461 -150c-31 0 -65 1 -98 4c-128 13 -236 42 -320 94c-80 47 -140 112 -180 193
c-38 77 -56 168 -55 271c1 83 14 170 37 261c35 139 88 259 117 309l135 -87c-34 -68 -132 -290 -132 -491c0 -69 11 -135 40 -194c59 -120 178 -182 370 -199c27 -2 54 -3 81 -3c152 0 273 37 364 112c120 104 153 246 161 353c1 17 2 34 2 53c0 218 -97 474 -121 538
l147 58c51 -117 102 -202 149 -271c19 -28 46 -61 97 -98c50 95 146 226 262 334c116 113 249 194 388 221h-1c148 30 308 -7 407 -119c116 -135 126 -321 35 -474c18 -25 109 -59 174 -59h8c44 0 79 -35 79 -79c0 -43 -35 -77 -79 -77z" />
    <glyph glyph-name="uniFEBB" unicode="&#x635;" horiz-adv-x="1871" arabic-form="initial" 
d="M739 169c264 -52 670 10 799 127c113 102 120 236 37 327c-189 161 -394 39 -562 -109v1c-125 -117 -239 -276 -274 -346zM-79 98c0 44 36 78 79 78c171 0 234 60 266 103c49 68 68 158 89 262c11 51 20 98 32 141l151 -45c-5 -12 -32 -147 -27 -182
c0 -69 17 -155 82 -238c37 85 157 265 311 411c216 204 555 338 785 104c131 -165 133 -409 -51 -558c-176 -144 -446 -186 -656 -186c-280 0 -410 8 -578 216c-91 -125 -219 -183 -395 -184h-9c-43 0 -79 34 -79 78z" />
    <glyph glyph-name="uniFEBC" unicode="&#x635;" horiz-adv-x="1933" arabic-form="medial" 
d="M-79 97c0 44 35 79 78 79h9c81 2 138 11 170 26c35 17 61 41 88 76c48 64 73 153 100 274c11 44 19 87 31 130l149 -46c-15 -55 -33 -112 -33 -189c0 -68 3 -174 89 -233c40 86 156 265 305 412c113 105 265 191 403 218h-1c150 29 303 -2 405 -112
c73 -73 92 -170 88 -262c-8 -101 -60 -206 -148 -294h279c44 0 80 -35 80 -79s-36 -77 -80 -77l-252 -1c-144 0 -226 7 -281 32c-143 -39 -289 -62 -414 -62c-106 0 -491 18 -571 223c-53 -71 -111 -120 -173 -147c-62 -30 -143 -45 -243 -45c-43 0 -78 33 -78 77zM756 170
c111 -13 151 -17 221 -17c204 0 439 37 572 144h-1c61 49 94 111 98 184c4 67 -19 119 -43 142c-84 81 -170 79 -264 66c-111 -17 -228 -87 -323 -178v1c-125 -117 -225 -272 -260 -342z" />
    <glyph glyph-name="uniFEBE" unicode="&#x636;" horiz-adv-x="2867" arabic-form="final" 
d="M1730 200c108 -40 222 -58 343 -58c134 0 288 31 391 95c121 65 169 261 76 362c-77 80 -173 89 -267 73c-111 -18 -216 -92 -309 -180c-104 -99 -193 -219 -234 -292zM2868 20c-122 0 -237 47 -290 100c-167 -106 -346 -131 -470 -134c-16 -1 -31 -1 -47 -1
c-135 0 -267 22 -371 61c-65 24 -136 63 -216 120c3 -30 7 -102 7 -131c0 -19 1 -35 -2 -54c-7 -91 -28 -175 -60 -248c-39 -81 -93 -157 -157 -213c-117 -96 -276 -150 -461 -150c-31 0 -65 1 -98 4c-128 13 -236 42 -320 94c-80 47 -140 112 -180 193
c-38 77 -56 168 -55 271c1 83 14 170 37 261c35 139 88 259 117 309l135 -87c-34 -68 -132 -290 -132 -491c0 -69 11 -135 40 -194c59 -120 178 -182 370 -199c27 -2 54 -3 81 -3c152 0 273 37 364 112c120 104 153 246 161 353c1 17 2 34 2 53c0 218 -97 474 -121 538
l147 58c51 -117 102 -202 149 -271c19 -28 46 -61 97 -98c50 95 146 226 262 334c116 113 249 194 388 221h-1c148 30 308 -7 407 -119c116 -135 126 -321 35 -474c18 -25 109 -59 174 -59h8c44 0 79 -35 79 -79c0 -43 -35 -77 -79 -77zM2443 1201l-147 -147l-148 148
l147 147z" />
    <glyph glyph-name="uniFEBF" unicode="&#x636;" horiz-adv-x="1894" arabic-form="initial" 
d="M739 169c264 -52 670 10 799 127c113 102 120 236 37 327c-189 161 -394 39 -562 -109v1c-125 -117 -239 -276 -274 -346zM-79 98c0 44 36 78 79 78c171 0 234 60 266 103c49 68 68 158 89 262c11 51 20 98 32 141l151 -45c-5 -12 -32 -147 -27 -182
c0 -69 17 -155 82 -238c37 85 157 265 311 411c216 204 555 338 785 104c131 -165 133 -409 -51 -558c-176 -144 -446 -186 -656 -186c-280 0 -410 8 -578 216c-91 -125 -219 -183 -395 -184h-9c-43 0 -79 34 -79 78zM1446 1250l-147 -147l-148 148l147 147z" />
    <glyph glyph-name="uniFEC0" unicode="&#x636;" horiz-adv-x="1931" arabic-form="medial" 
d="M-79 97c0 44 35 79 78 79h9c81 2 138 11 170 26c35 17 61 41 88 76c48 64 73 153 100 274c11 44 19 87 31 130l149 -46c-15 -55 -33 -112 -33 -189c0 -68 3 -174 89 -233c40 86 156 265 305 412c113 105 265 191 403 218h-1c150 29 303 -2 405 -112
c73 -73 92 -170 88 -262c-8 -101 -60 -206 -148 -294h279c44 0 80 -35 80 -79s-36 -77 -80 -77l-252 -1c-144 0 -226 7 -281 32c-143 -39 -289 -62 -414 -62c-106 0 -491 18 -571 223c-53 -71 -111 -120 -173 -147c-62 -30 -143 -45 -243 -45c-43 0 -78 33 -78 77zM756 170
c111 -13 151 -17 221 -17c204 0 439 37 572 144h-1c61 49 94 111 98 184c4 67 -19 119 -43 142c-84 81 -170 79 -264 66c-111 -17 -228 -87 -323 -178v1c-125 -117 -225 -272 -260 -342zM1501 1228l-147 -147l-148 148l147 147z" />
    <glyph glyph-name="uniFEC2" unicode="&#x637;" horiz-adv-x="1867" arabic-form="final" 
d="M948 20c-28 -1 -54 -1 -81 -1c-31 0 -59 0 -126 4h-4c-195 11 -399 53 -608 132c21 55 36 96 56 147c79 -31 163 -56 256 -79c28 41 79 113 134 181l25 36c19 129 9 196 9 293c0 83 -5 173 -14 294c-19 243 -43 435 -51 491l155 35c8 -60 36 -338 52 -494l4 -47
c11 -127 8 -126 11 -225l4 -167c179 171 340 266 483 287c23 4 45 7 68 7c174 0 364 -116 375 -304c8 -137 -87 -349 -239 -432l403 -2h8c44 0 78 -34 78 -78c0 -43 -34 -78 -78 -78h-920zM930 178c165 8 349 44 522 201c49 54 96 144 88 226c-13 106 -123 149 -217 149
c-17 0 -32 -1 -46 -3c-140 -23 -307 -138 -490 -341l-175 -222z" />
    <glyph glyph-name="uniFEC3" unicode="&#x637;" horiz-adv-x="1509" arabic-form="initial" 
d="M340 177c21 -1 79 -1 191 -1c192 0 424 8 647 191c67 59 124 140 108 236c-22 122 -170 164 -279 145c-141 -31 -305 -142 -489 -343v1c-23 -26 -45 -53 -178 -229zM-82 98c0 43 36 78 79 78h9h153c4 7 17 27 24 40l-1 -1c23 40 61 108 133 197c15 89 23 215 24 386
c1 160 -8 334 -23 483l-21 215l163 29c29 -229 44 -462 44 -714c0 -48 -3 -147 -3 -197c181 168 344 263 484 290c125 21 254 0 351 -92c52 -56 87 -121 94 -204c11 -143 -71 -281 -141 -356c-232 -205 -493 -233 -689 -233l-592 1h-9c-43 0 -79 33 -79 78z" />
    <glyph glyph-name="uniFEC4" unicode="&#x637;" horiz-adv-x="1583" arabic-form="medial" 
d="M484 175c31 0 59 -1 90 -1c222 0 415 20 612 193c53 53 97 152 94 233c-21 125 -158 159 -262 148c-138 -24 -424 -179 -670 -572zM-86 98c0 44 34 78 78 78h8h156c63 100 108 158 161 222l4 7c19 24 27 123 27 254c0 261 -28 658 -52 830l155 28
c37 -248 58 -504 58 -797v-108c183 171 345 268 484 289c196 29 424 -73 445 -294c11 -141 -70 -277 -137 -349l-50 -49l-35 -33h373c44 0 78 -33 78 -77c0 -43 -34 -78 -78 -78c-53 0 -100 -2 -248 -2c-115 0 -256 4 -382 44c-133 -39 -250 -43 -354 -43h-613
c-44 0 -78 34 -78 78z" />
    <glyph glyph-name="uniFEC6" unicode="&#x638;" horiz-adv-x="1868" arabic-form="final" 
d="M948 20c-28 -1 -54 -1 -81 -1c-31 0 -59 0 -126 4h-4c-195 11 -399 53 -608 132c21 55 36 96 56 147c79 -31 163 -56 256 -79c28 41 79 113 134 181l25 36c19 129 9 196 9 293c0 83 -5 173 -14 294c-19 243 -43 435 -51 491l155 35c8 -60 36 -338 52 -494l4 -47
c11 -127 8 -126 11 -225l4 -167c179 171 340 266 483 287c23 4 45 7 68 7c174 0 364 -116 375 -304c8 -137 -87 -349 -239 -432l403 -2h8c44 0 78 -34 78 -78c0 -43 -34 -78 -78 -78h-920zM930 178c165 8 349 44 522 201c49 54 96 144 88 226c-13 106 -123 149 -217 149
c-17 0 -32 -1 -46 -3c-140 -23 -307 -138 -490 -341l-175 -222zM1430 1355l-147 -147l-148 148l147 147z" />
    <glyph glyph-name="uniFEC7" unicode="&#x638;" horiz-adv-x="1520" arabic-form="initial" 
d="M340 177c21 -1 79 -1 191 -1c192 0 424 8 647 191c67 59 124 140 108 236c-22 122 -170 164 -279 145c-141 -31 -305 -142 -489 -343v1c-23 -26 -45 -53 -178 -229zM-82 98c0 43 36 78 79 78h9h153c4 7 17 27 24 40l-1 -1c23 40 61 108 133 197c15 89 23 215 24 386
c1 160 -8 334 -23 483l-21 215l163 29c29 -229 44 -462 44 -714c0 -48 -3 -147 -3 -197c181 168 344 263 484 290c125 21 254 0 351 -92c52 -56 87 -121 94 -204c11 -143 -71 -281 -141 -356c-232 -205 -493 -233 -689 -233l-592 1h-9c-43 0 -79 33 -79 78zM1195 1343
l-147 -147l-148 148l147 147z" />
    <glyph glyph-name="uniFEC8" unicode="&#x638;" horiz-adv-x="1570" arabic-form="medial" 
d="M484 175c31 0 59 -1 90 -1c222 0 415 20 612 193c53 53 97 152 94 233c-21 125 -158 159 -262 148c-138 -24 -424 -179 -670 -572zM-86 98c0 44 34 78 78 78h8h156c63 100 108 158 161 222l4 7c19 24 27 123 27 254c0 261 -28 658 -52 830l155 28
c37 -248 58 -504 58 -797v-108c183 171 345 268 484 289c196 29 424 -73 445 -294c11 -141 -70 -277 -137 -349l-50 -49l-35 -33h373c44 0 78 -33 78 -77c0 -43 -34 -78 -78 -78c-53 0 -100 -2 -248 -2c-115 0 -256 4 -382 44c-133 -39 -250 -43 -354 -43h-613
c-44 0 -78 34 -78 78zM1204 1354l-147 -147l-148 148l147 147z" />
    <glyph glyph-name="uniFECA" unicode="&#x639;" horiz-adv-x="1355" arabic-form="final" 
d="M666 -607c192 -24 409 0 583 110c31 -49 53 -89 81 -136c-346 -215 -907 -209 -1156 169c-82 138 -76 368 1 507h-1c80 144 250 262 422 332c-120 108 -202 198 -281 283c-4 36 -7 74 -10 109c82 119 248 175 339 196l-1 -1c72 16 142 24 209 24c72 0 139 -9 195 -28
c132 -40 203 -122 199 -230c-3 -107 -59 -203 -148 -278c-49 -39 -119 -80 -195 -115c151 -92 303 -159 452 -159c43 -1 77 -36 77 -79c0 -44 -34 -77 -77 -78c-216 0 -415 100 -623 244c-215 -85 -461 -219 -461 -469c0 -213 247 -377 395 -401zM473 719
c96 -101 174 -184 283 -274c215 89 327 163 332 286c0 40 -47 65 -86 78c-45 15 -96 20 -149 20c-127 0 -282 -44 -380 -110z" />
    <glyph glyph-name="uniFECB" unicode="&#x639;" horiz-adv-x="1072" arabic-form="initial" 
d="M875 634c-29 23 -59 44 -91 62c-56 31 -126 63 -201 63c-168 0 -255 -124 -255 -256c0 -179 170 -302 359 -289c127 8 243 31 284 39l19 -152c-149 -37 -368 -79 -772 -79l-218 -2c-44 0 -80 34 -80 78s36 78 80 78l335 4c-120 109 -163 211 -163 323
c0 223 175 412 411 412c204 0 349 -125 389 -162z" />
    <glyph glyph-name="uniFECC" unicode="&#x639;" horiz-adv-x="1138" arabic-form="medial" 
d="M1146 176c43 0 79 -36 79 -80c0 -43 -36 -77 -79 -77c-209 0 -392 38 -543 126c-173 -83 -409 -126 -602 -126c-43 0 -79 34 -79 77c0 44 36 80 79 80c138 0 335 28 452 76c-100 92 -180 187 -263 286l-79 93l10 123c128 112 288 148 396 161c31 3 62 5 89 5
c100 0 197 -19 277 -52c128 -59 156 -142 156 -186c13 -118 -145 -327 -292 -440c115 -44 260 -66 399 -66zM605 331c117 60 276 279 276 353c-80 52 -181 79 -285 79c-100 0 -211 -28 -315 -88c123 -147 215 -256 324 -344z" />
    <glyph glyph-name="uniFECE" unicode="&#x63a;" horiz-adv-x="1351" arabic-form="final" 
d="M659 -607c192 -24 409 0 583 110c31 -49 53 -89 81 -136c-346 -215 -907 -209 -1156 169c-82 138 -76 368 1 507h-1c80 144 250 262 422 332c-120 108 -202 198 -281 283c-4 36 -7 74 -10 109c82 119 248 175 339 196l-1 -1c72 16 142 24 209 24c72 0 139 -9 195 -28
c132 -40 203 -122 199 -230c-3 -107 -59 -203 -148 -278c-49 -39 -119 -80 -195 -115c151 -92 303 -159 452 -159c43 -1 77 -36 77 -79c0 -44 -34 -77 -77 -78c-216 0 -415 100 -623 244c-215 -85 -461 -219 -461 -469c0 -213 247 -377 395 -401zM466 719
c96 -101 174 -184 283 -274c215 89 327 163 332 286c0 40 -47 65 -86 78c-45 15 -96 20 -149 20c-127 0 -282 -44 -380 -110zM900 1341l-147 -147l-148 148l147 147z" />
    <glyph glyph-name="uniFECF" unicode="&#x63a;" horiz-adv-x="1089" arabic-form="initial" 
d="M875 634c-29 23 -59 44 -91 62c-56 31 -126 63 -201 63c-168 0 -255 -124 -255 -256c0 -179 170 -302 359 -289c127 8 243 31 284 39l19 -152c-149 -37 -368 -79 -772 -79l-218 -2c-44 0 -80 34 -80 78s36 78 80 78l335 4c-120 109 -163 211 -163 323
c0 223 175 412 411 412c204 0 349 -125 389 -162zM650 1331l-147 -147l-148 148l147 147z" />
    <glyph glyph-name="uniFED0" unicode="&#x63a;" horiz-adv-x="1144" arabic-form="medial" 
d="M1138 176c43 0 79 -36 79 -80c0 -43 -36 -77 -79 -77c-209 0 -392 38 -543 126c-173 -83 -409 -126 -602 -126c-43 0 -79 34 -79 77c0 44 36 80 79 80c138 0 335 28 452 76c-100 92 -180 187 -263 286l-79 93l10 123c128 112 288 148 396 161c31 3 62 5 89 5
c100 0 197 -19 277 -52c128 -59 156 -142 156 -186c13 -118 -145 -327 -292 -440c115 -44 260 -66 399 -66zM597 331c117 60 276 279 276 353c-80 52 -181 79 -285 79c-100 0 -211 -28 -315 -88c123 -147 215 -256 324 -344zM745 1318l-147 -147l-148 148l147 147z" />
    <glyph glyph-name="uniFED2" unicode="&#x641;" horiz-adv-x="2101" arabic-form="final" 
d="M1947 536c0 -126 -39 -209 -101 -297c-3 -3 -5 -7 -30 -32c104 -19 201 -31 292 -31c43 0 79 -34 79 -78c0 -43 -36 -78 -79 -78c-169 0 -330 25 -470 73l-67 -22c-128 -48 -375 -73 -610 -73c-400 1 -666 98 -782 295c-48 80 -64 164 -64 244c0 146 50 257 72 303
c47 -25 92 -51 139 -76c-21 -44 -54 -126 -54 -228c0 -55 14 -113 43 -164c86 -137 260 -210 590 -218c39 -1 74 -2 107 -2c183 0 304 20 415 41c-109 87 -159 213 -159 308c0 193 151 417 355 417c84 0 161 -30 218 -93c47 -47 106 -138 106 -289zM1629 263
c133 76 188 165 188 265c0 211 -158 231 -194 231c-84 0 -207 -86 -207 -263c0 -69 80 -193 213 -233zM1731 1335l-147 -147l-148 148l147 147z" />
    <glyph glyph-name="uniFED3" unicode="&#x641;" horiz-adv-x="903" arabic-form="initial" 
d="M428 947c-45 0 -151 -72 -175 -220v1c-8 -42 -6 -98 22 -129h-1c29 -37 115 -66 192 -71c35 -3 67 -2 96 -2c28 0 65 0 109 4c-11 145 -63 281 -135 358v-1c-24 27 -64 60 -108 60zM-81 98c0 44 36 78 80 78c374 0 559 47 661 192h-154c-136 0 -263 47 -330 127
c-48 40 -65 169 -52 254c17 97 54 181 103 245c56 73 126 111 201 111c82 0 157 -37 225 -111c104 -115 167 -299 167 -483c0 -397 -376 -495 -806 -491h-17c-43 0 -78 35 -78 78zM544 1470l-147 -147l-148 148l147 147z" />
    <glyph glyph-name="uniFED4" unicode="&#x641;" horiz-adv-x="1019" arabic-form="medial" 
d="M508 761c-81 0 -212 -89 -212 -266c0 -72 82 -180 223 -244c114 50 176 162 176 255c0 129 -101 255 -187 255zM-78 98c0 45 34 78 78 78c95 0 216 8 309 21c-104 91 -155 203 -155 295c0 201 148 418 355 426c212 -13 332 -198 332 -388c0 -108 -43 -223 -135 -323
c103 -21 220 -31 312 -31c45 0 79 -33 79 -78c0 -44 -34 -78 -79 -78h-9c-79 0 -182 5 -258 18c-81 13 -156 30 -228 54c-125 -48 -314 -72 -515 -72h-8c-44 0 -78 34 -78 78zM603 1346l-147 -147l-148 148l147 147z" />
    <glyph glyph-name="uniFED6" unicode="&#x642;" horiz-adv-x="1565" arabic-form="final" 
d="M1022 668c-30 0 -61 -20 -94 -61l1 1c-41 -51 -77 -122 -92 -203c-3 -19 -4 -35 -4 -52c0 -40 9 -75 29 -99c45 -56 150 -69 201 -74c64 -3 122 -4 169 -4h62c-8 190 -73 340 -144 422c-28 31 -75 70 -128 70zM1232 17c-51 0 -110 2 -178 6c-136 11 -242 59 -306 135
c-39 53 -64 123 -64 196c0 23 3 50 8 81c17 107 56 200 112 269c64 81 137 122 218 122c89 0 171 -41 245 -122c112 -123 176 -317 184 -526c27 -1 79 -2 120 -2c43 0 79 -34 79 -78c0 -43 -36 -78 -79 -78h-9h-122c-13 -72 -38 -183 -89 -282c-53 -102 -123 -183 -208 -244
h1c-108 -74 -237 -111 -387 -111c-128 0 -239 24 -339 75c-101 51 -177 121 -233 213c-56 95 -86 207 -86 332c0 17 1 39 2 58c13 139 62 305 142 462l140 -74c-84 -163 -126 -314 -126 -447c0 -95 21 -177 63 -248c84 -137 234 -212 437 -212c205 0 358 96 451 263
c36 67 60 149 73 212h-49zM979 1135l-146 -146l-148 147l146 147zM1334 1133l-145 -146l-148 148l146 146z" />
    <glyph glyph-name="uniFED7" unicode="&#x642;" horiz-adv-x="908" arabic-form="initial" 
d="M428 947c-45 0 -151 -72 -175 -220v1c-8 -42 -6 -98 22 -129h-1c29 -37 115 -66 192 -71c35 -3 67 -2 96 -2c28 0 65 0 109 4c-11 145 -63 281 -135 358v-1c-24 27 -64 60 -108 60zM-81 98c0 44 36 78 80 78c374 0 559 47 661 192h-154c-136 0 -263 47 -330 127
c-48 40 -65 169 -52 254c17 97 54 181 103 245c56 73 126 111 201 111c82 0 157 -37 225 -111c104 -115 167 -299 167 -483c0 -397 -376 -495 -806 -491h-17c-43 0 -78 35 -78 78zM373 1481l-146 -146l-148 147l146 147zM728 1479l-145 -146l-148 148l146 146z" />
    <glyph glyph-name="uniFED8" unicode="&#x642;" horiz-adv-x="1037" arabic-form="medial" 
d="M522 761c-81 0 -212 -89 -212 -266c0 -72 82 -180 223 -244c114 50 176 162 176 255c0 129 -101 255 -187 255zM-64 98c0 45 34 78 78 78c95 0 216 8 309 21c-104 91 -155 203 -155 295c0 201 148 418 355 426c212 -13 332 -198 332 -388c0 -108 -43 -223 -135 -323
c103 -21 220 -31 312 -31c45 0 79 -33 79 -78c0 -44 -34 -78 -79 -78h-9c-79 0 -182 5 -258 18c-81 13 -156 30 -228 54c-125 -48 -314 -72 -515 -72h-8c-44 0 -78 34 -78 78zM494 1329l-146 -146l-148 147l146 147zM849 1327l-145 -146l-148 148l146 146z" />
    <glyph glyph-name="uniFEDA" unicode="&#x643;" horiz-adv-x="2060" arabic-form="final" 
d="M1891 275c26 -58 68 -96 169 -99c43 0 78 -35 78 -78s-35 -78 -78 -78c-67 2 -126 17 -177 45v-1c-55 31 -102 85 -141 162c-64 -64 -142 -115 -223 -148c-145 -53 -338 -86 -566 -86c-232 3 -427 32 -568 83c-129 51 -224 124 -269 219c-27 51 -40 107 -40 169
c0 59 14 125 38 189c27 68 58 121 75 148l126 -94c-20 -35 -39 -67 -56 -114c-17 -45 -25 -88 -25 -128c0 -35 9 -70 22 -98c74 -132 328 -215 697 -215c217 0 383 23 507 72c195 79 241 121 197 709c-8 241 -25 456 -33 525l156 16c3 -41 23 -248 36 -536
c3 -53 6 -105 10 -149c3 -37 6 -70 11 -232c7 -132 23 -221 54 -281zM1125 901c-10 1 -21 3 -32 5c-20 4 -42 6 -63 6c-24 0 -48 -3 -73 -15h1c-52 -20 -87 -71 -87 -123c0 -12 2 -29 10 -45c21 -53 85 -97 152 -97c16 0 31 1 51 9l-1 -1c63 18 131 64 149 79l53 -69
c-56 -39 -140 -84 -260 -151l-244 -135c-16 29 -26 49 -42 77l210 117c-71 31 -126 82 -151 137c-9 24 -14 50 -14 79c0 88 57 171 141 205c34 13 69 20 105 20c52 0 101 -11 121 -18z" />
    <glyph glyph-name="uniFEDB" unicode="&#x643;" horiz-adv-x="942" arabic-form="initial" 
d="M-88 97c0 45 36 79 88 79h56h49c165 0 371 0 451 120c29 43 43 93 43 149c0 31 -5 66 -15 104c-28 113 -246 358 -464 536l21 182l792 339c21 -51 43 -97 63 -145l-728 -306c76 -64 167 -141 244 -228c179 -197 238 -366 238 -498c0 -85 -25 -156 -57 -215h1
c-57 -101 -153 -163 -288 -188c-27 -5 -55 -7 -83 -7l-323 1c-51 0 -88 34 -88 77z" />
    <glyph glyph-name="uniFEDC" unicode="&#x643;" horiz-adv-x="1188" arabic-form="medial" 
d="M-89 98c0 43 36 78 79 78h9h330c114 0 239 105 252 209c12 231 -274 547 -457 690c7 68 16 132 24 199l854 368c21 -51 43 -97 63 -145l-807 -339c251 -206 345 -387 444 -571c33 -63 66 -126 105 -190c82 -136 179 -216 337 -221h43c44 0 78 -35 78 -78
c0 -44 -34 -78 -78 -78h-8c-93 0 -159 11 -227 34h1c-91 33 -177 114 -246 202c-32 -59 -62 -102 -97 -134h1c-84 -75 -191 -97 -296 -102h1h-326c-43 0 -79 34 -79 78z" />
    <glyph glyph-name="uniFEDE" unicode="&#x644;" horiz-adv-x="1490" arabic-form="final" 
d="M317 332c-18 -35 -34 -73 -48 -116c-24 -73 -48 -175 -48 -298c0 -279 261 -397 389 -397c193 0 507 69 507 425c0 388 -47 1399 -52 1555c59 1 100 5 156 8l15 -360c8 -211 20 -485 28 -733c3 -45 14 -85 31 -120c29 -61 85 -120 193 -120c44 0 79 -36 79 -79
c0 -44 -35 -77 -79 -77c-91 0 -152 22 -217 59c0 -36 2 -104 2 -133c0 -488 -395 -581 -663 -581c-261 0 -545 165 -545 553c0 307 86 456 113 496z" />
    <glyph glyph-name="uniFEDF" unicode="&#x644;" horiz-adv-x="547" arabic-form="initial" 
d="M-78 98c0 44 35 78 78 78h9h47c81 0 139 18 175 54c40 40 58 112 57 220l-17 491c-8 241 -25 456 -33 525l156 16c3 -41 23 -248 36 -536l7 -211c5 -152 6 -217 9 -286c3 -96 -10 -237 -101 -330c-66 -66 -162 -99 -289 -99h-47h-9c-43 0 -78 35 -78 78z" />
    <glyph glyph-name="uniFEE0" unicode="&#x644;" horiz-adv-x="661" arabic-form="medial" 
d="M-78 98c0 43 35 78 78 78h9h86c82 3 117 9 140 30c44 36 56 114 61 186c0 77 6 329 6 586c0 202 -3 406 -14 523c56 7 103 14 155 21c13 -129 19 -358 19 -567c0 -211 -4 -409 -7 -566c0 -33 4 -84 34 -133c30 -46 72 -80 173 -80c44 0 80 -35 80 -78
c0 -44 -36 -78 -80 -78c-126 -3 -220 50 -278 113c-21 -23 -38 -39 -51 -50c-69 -56 -152 -63 -215 -63h-109h-9c-43 0 -78 34 -78 78z" />
    <glyph glyph-name="uniFEE2" unicode="&#x645;" horiz-adv-x="1225" arabic-form="final" 
d="M839 192c4 -1 8 -2 12 -2c26 0 48 20 67 59c18 37 27 78 28 123v12v1l-1 14c-7 64 -25 119 -56 165c-36 54 -81 81 -135 81h-8c-47 -3 -93 -38 -136 -106c-19 -30 -38 -65 -55 -106c-13 -31 -25 -64 -36 -99l-5 -15l15 -7v-1h2l5 -3l20 -9c23 -11 47 -21 71 -31
c78 -33 149 -58 212 -76zM1138 220c25 -28 50 -42 76 -42c22 0 41 -8 56 -23s23 -34 23 -56s-8 -41 -23 -56s-34 -23 -56 -23c-74 0 -134 28 -180 83l-15 18l-14 -19c-17 -21 -35 -39 -54 -52c-25 -17 -52 -26 -81 -26c-19 0 -38 3 -57 10c-73 25 -182 65 -329 119l-140 52
c-15 5 -30 11 -43 16c-5 1 -9 3 -12 4l-3 2h-2l-26 10l35 -959l-36 -3l-45 -2c-37 -3 -64 -4 -80 -4c-1 6 -1 13 -1 20c-1 9 -1 18 -1 27l-3 73l-9 206l-23 542c-3 93 16 161 58 205c30 31 70 47 119 47c23 0 48 -3 74 -10l16 -5l6 16c44 117 93 209 148 278
c71 91 149 137 233 137c85 0 159 -35 221 -106c59 -67 97 -152 112 -253c4 -29 5 -60 3 -93v-1l1 -2c6 -54 23 -97 52 -130z" />
    <glyph glyph-name="uniFEE3" unicode="&#x645;" horiz-adv-x="1138" arabic-form="initial" 
d="M-77 98c0 43 35 75 78 78h-1c235 0 315 165 400 336c35 72 66 138 109 189c57 69 125 103 203 103c95 0 173 -38 236 -114c98 -119 125 -333 66 -481c-36 -88 -98 -150 -174 -170c-23 -6 -49 -9 -76 -9c-50 0 -105 12 -165 36c-65 26 -135 67 -212 123l-19 -18
c-99 -101 -221 -151 -367 -151c-44 0 -78 35 -78 78zM478 319c114 -85 244 -133 314 -133c13 0 26 1 39 5h-1c118 45 112 435 -118 455c-66 5 -103 -64 -172 -203z" />
    <glyph glyph-name="uniFEE4" unicode="&#x645;" horiz-adv-x="1150" arabic-form="medial" 
d="M751 182c35 0 62 10 83 31c29 29 43 75 42 139v1c-1 12 -1 23 -1 34l-1 2v10c-7 63 -28 119 -64 168c-39 52 -83 78 -132 78c-34 0 -69 -26 -104 -79c-14 -21 -29 -47 -45 -78l-21 -43l-20 -43c-5 -9 -11 -21 -20 -35l-10 -15l-9 -15l-8 -15l14 -9l1 -1l2 -1
c1 -1 3 -3 6 -4c6 -5 13 -9 20 -13c22 -14 44 -27 65 -39c68 -39 123 -62 165 -70c13 -2 26 -3 37 -3zM1064 224c25 -31 51 -46 79 -46c22 0 41 -8 56 -23s23 -34 23 -56s-8 -41 -23 -56s-34 -23 -56 -23c-73 0 -133 31 -180 92l-15 19l-14 -19c-19 -25 -40 -45 -63 -60
c-31 -19 -64 -29 -100 -29c-9 0 -19 1 -28 2c-80 11 -167 40 -261 86c-29 15 -58 30 -85 47c-9 5 -17 9 -24 14l-7 5l-1 1h-1l-16 11l-10 -16h-1l-1 -2l-3 -5l-15 -17c-17 -19 -37 -37 -60 -53c-31 -21 -65 -38 -102 -51c-49 -17 -101 -25 -157 -25c-22 0 -41 8 -56 23
s-23 34 -23 56s8 41 23 56s34 23 56 23c91 0 173 42 244 126c26 31 51 68 76 111c9 16 19 34 28 54l13 25l5 12l6 12l18 38l2 3l23 46l25 44c19 31 39 57 58 78c49 52 109 78 181 78c85 0 159 -35 221 -106c59 -67 97 -152 112 -253c4 -30 5 -61 3 -94v-1l1 -2
c3 -29 10 -55 20 -78c8 -17 18 -33 29 -47z" />
    <glyph glyph-name="uniFEE6" unicode="&#x646;" horiz-adv-x="1714" arabic-form="final" 
d="M1707 20c-86 0 -173 26 -261 78c0 -17 3 -68 3 -85c0 -84 -11 -172 -38 -259c-106 -292 -395 -421 -677 -421c-364 0 -581 163 -645 499v-1c-40 236 52 515 155 690c48 -35 82 -62 127 -94c-59 -95 -161 -385 -126 -574v2c-12 -137 166 -365 482 -365
c278 0 472 124 533 312c23 69 30 137 30 205c0 164 -55 316 -100 423c-27 55 -35 76 -46 95l133 84c4 -5 20 -37 59 -117c152 -288 271 -316 371 -316c44 0 79 -34 79 -78c0 -43 -35 -78 -79 -78zM917 574l-147 -147l-148 148l147 147z" />
    <glyph glyph-name="uniFEE7" unicode="&#x646;" horiz-adv-x="706" arabic-form="initial" 
d="M-85 98c0 44 35 78 78 78h103c15 0 30 -1 45 -1c130 0 238 21 289 131v-1c11 22 16 51 16 88c0 63 -15 141 -44 235c-22 67 -64 161 -80 198l142 71c16 -37 55 -122 87 -221c35 -108 52 -201 52 -281c0 -59 -9 -110 -28 -153c-47 -97 -128 -170 -240 -201
c-69 -20 -136 -21 -196 -21h-146c-43 0 -78 34 -78 78zM477 1248l-147 -147l-148 148l147 147z" />
    <glyph glyph-name="uniFEE8" unicode="&#x646;" horiz-adv-x="705" arabic-form="medial" 
d="M-74 98c0 43 34 78 78 78h17c237 0 346 84 346 256c0 71 -12 133 -39 232c56 15 96 28 149 43c31 -115 47 -206 50 -291c5 -151 25 -240 177 -240c43 0 79 -35 79 -78c0 -44 -35 -78 -78 -78c-127 0 -211 55 -272 134c-92 -89 -223 -134 -412 -134h-17
c-44 0 -78 34 -78 78zM541 1126l-147 -147l-148 148l147 147z" />
    <glyph glyph-name="uniFEEA" unicode="&#x647;" horiz-adv-x="1090" arabic-form="final" 
d="M544 160c-166 0 -281 39 -344 118c-36 44 -48 99 -48 147c0 43 7 78 18 101c105 219 355 322 470 365l-15 145l157 34c4 -33 33 -317 37 -346v1c40 -348 71 -427 79 -445v1c34 -82 90 -105 192 -105c43 0 79 -34 79 -78c0 -43 -36 -78 -79 -78c-51 0 -122 4 -187 35h1
c-50 23 -94 65 -131 126c-90 -14 -166 -21 -229 -21zM634 720c-100 -44 -331 -138 -331 -281c0 -99 119 -125 235 -125c61 0 132 9 181 18c-19 92 -38 229 -59 398z" />
    <glyph glyph-name="uniFEEB" unicode="&#x647;" horiz-adv-x="1473" arabic-form="initial" 
d="M-82 99c0 43 37 77 82 77h9c181 0 271 9 357 22c-116 113 -172 224 -172 325c0 142 79 322 266 383l-107 41l77 144c127 -48 213 -85 331 -128c243 -107 477 -223 557 -333c59 -81 88 -163 88 -248c0 -124 -66 -236 -199 -308l1 1c-71 -42 -214 -58 -306 -58
c-116 0 -223 14 -336 61c-137 -43 -366 -58 -557 -58h-9c-45 0 -82 35 -82 79zM938 571c0 -120 -74 -284 -189 -388c60 -12 102 -14 134 -14h48c217 0 328 104 328 225c0 107 -125 261 -348 351c28 -68 28 -126 27 -162v-12zM642 801c-9 3 -18 4 -25 3
c-173 -16 -289 -157 -268 -297c16 -104 102 -199 204 -258c149 64 220 209 220 330c0 108 -53 211 -130 222h-1z" />
    <glyph glyph-name="uniFEEC" unicode="&#x647;" horiz-adv-x="1005" arabic-form="medial" 
d="M510 725c-113 -12 -225 -292 -225 -471c0 -19 2 -41 5 -64c20 -3 40 -4 47 -4c172 0 280 173 280 328c0 83 -28 159 -93 207zM-79 98c0 43 34 78 78 78h133c-12 230 126 694 380 718c159 0 252 -236 252 -421c0 -60 -9 -111 -28 -150c-59 -168 -225 -260 -411 -292
c34 -87 126 -272 243 -341c-20 261 217 486 437 486c44 0 79 -35 79 -78c0 -44 -35 -78 -79 -78h-9c-164 -8 -302 -171 -302 -336c0 -68 22 -132 75 -191l-104 -125c-268 167 -420 400 -489 613l-14 39h-163c-44 0 -78 34 -78 78z" />
    <glyph glyph-name="uniFEEE" unicode="&#x648;" horiz-adv-x="1043" arabic-form="final" 
d="M102 -525c406 88 651 329 683 545h-77c-49 0 -105 1 -157 5c-138 9 -240 54 -306 135v-1c-43 55 -61 124 -61 200c0 122 53 260 117 348c61 76 141 120 218 120c89 0 171 -41 246 -122v1c109 -122 179 -322 184 -530h94c44 0 80 -34 80 -79c0 -43 -36 -77 -80 -77h-107
c-77 -389 -425 -635 -797 -699zM519 670c-98 0 -202 -181 -202 -308c0 -44 15 -81 35 -106v1c45 -58 157 -73 209 -76c75 -4 162 -5 230 2c-8 186 -73 337 -144 416c-29 32 -76 71 -128 71z" />
    <glyph glyph-name="uniFEF0" unicode="&#x649;" horiz-adv-x="1715" arabic-form="final" 
d="M830 -632c-227 0 -502 33 -619 232c-62 90 -93 207 -93 351c0 16 0 31 1 48c9 177 60 380 161 627c53 -21 96 -39 145 -59c-96 -241 -149 -460 -149 -620c0 -108 22 -194 65 -259c116 -167 352 -163 489 -163c122 0 579 55 579 265c0 38 -58 106 -219 165
c-95 32 -190 56 -234 64h-3l11 158l752 -1c43 0 79 -34 79 -78s-36 -78 -79 -78h-295c120 -99 145 -179 145 -230c-4 -325 -477 -422 -736 -422z" />
    <glyph glyph-name="uniFEF2" unicode="&#x64a;" horiz-adv-x="1687" arabic-form="final" 
d="M830 -632c-227 0 -502 33 -619 232c-62 90 -93 207 -93 351c0 16 0 31 1 48c9 177 60 380 161 627c53 -21 96 -39 145 -59c-96 -241 -149 -460 -149 -620c0 -108 22 -194 65 -259c116 -167 352 -163 489 -163c122 0 579 55 579 265c0 38 -58 106 -219 165
c-95 32 -190 56 -234 64h-3l11 158l752 -1c43 0 79 -34 79 -78s-36 -78 -79 -78h-295c120 -99 145 -179 145 -230c-4 -325 -477 -422 -736 -422zM754 -929l-146 -146l-148 147l146 147zM1109 -931l-145 -146l-148 148l146 146z" />
    <glyph glyph-name="uniFEF3" unicode="&#x64a;" horiz-adv-x="804" arabic-form="initial" 
d="M336 -346l-146 -146l-148 147l146 147zM691 -348l-145 -146l-148 148l146 146zM-129 98c0 44 35 78 78 78h111c149 0 383 4 439 130v-1c11 22 16 51 16 88c0 63 -21 142 -50 235c-22 67 -64 161 -80 198l142 71c16 -37 55 -122 87 -221c35 -108 52 -201 52 -281
c0 -59 -9 -110 -28 -153c-47 -97 -128 -170 -240 -201c-68 -21 -237 -21 -295 -21h-154c-43 0 -78 34 -78 78z" />
    <glyph glyph-name="uniFEF4" unicode="&#x64a;" horiz-adv-x="854" arabic-form="medial" 
d="M-81 98c0 44 34 78 78 78h76c236 0 448 35 440 246c-3 72 -10 126 -37 227c56 15 96 28 149 43c32 -115 34 -185 47 -288c13 -111 28 -228 183 -228c44 0 80 -34 80 -78s-35 -78 -78 -78c-126 0 -215 58 -273 138c-103 -101 -322 -138 -511 -138h-76c-44 0 -78 34 -78 78
zM311 -380l-146 -146l-148 147l146 147zM666 -382l-145 -146l-148 148l146 146z" />
    <glyph glyph-name=".notdef" horiz-adv-x="1229" 
d="M102 -362v1806h1024v-1806h-1024zM217 -248h795v1577h-795v-1577z" />
    <glyph glyph-name="space" unicode=" " horiz-adv-x="650" 
 />
    <glyph glyph-name="space" unicode="&#xa0;" horiz-adv-x="650" 
 />
    <glyph glyph-name="exclam" unicode="!" horiz-adv-x="579" 
d="M223 461l-33 872v304h183v-304l-23 -872h-127zM435 155l-149 -149l-141 141l148 150z" />
    <glyph glyph-name="quotedbl" unicode="&#x22;" horiz-adv-x="712" 
d="M281 1178h-120l4 572h141v-182zM567 1178h-122l5 572h142v-182z" />
    <glyph glyph-name="numbersign" unicode="#" horiz-adv-x="1442" 
d="M542 363c-10 -55 -25 -138 -46 -248l-24 -126l-23 -122h-145l93 496h-306v137h330l24 128l25 126l48 256h-335v140h362c41 214 73 382 95 504h144l-95 -504h357l96 504h145l-96 -504h275v-140h-300l-24 -129l-25 -126l-48 -255h306v-137h-332c-10 -55 -25 -138 -46 -248
l-24 -126l-23 -122h-146l93 496h-355zM922 500l24 128l25 126l48 256h-356l-24 -129l-24 -126l-48 -255h355z" />
    <glyph glyph-name="dollar" unicode="$" horiz-adv-x="1374" 
d="M995 524c-58 57 -159 111 -303 160v-1c-184 58 -313 127 -388 207c-76 81 -114 185 -114 314c0 136 42 246 125 329s192 131 325 142v246h148v-246c144 -14 254 -70 331 -168c77 -97 116 -229 116 -396h-169c0 132 -32 234 -96 305c-63 73 -150 109 -259 109
c-112 0 -199 -29 -261 -87c-61 -57 -92 -134 -92 -231c0 -88 28 -161 85 -219c64 -55 162 -105 295 -152c141 -47 245 -93 313 -139c131 -92 197 -219 197 -381c0 -135 -43 -245 -128 -328c-83 -81 -196 -129 -337 -142v-231h-146v230c-159 12 -283 64 -373 155
c-91 95 -137 227 -137 397h170c0 -131 35 -231 106 -300s171 -103 299 -103c111 0 202 30 271 90c71 59 106 136 106 230c0 85 -28 155 -84 210z" />
    <glyph glyph-name="percent" unicode="%" horiz-adv-x="1832" 
d="M120 1303c0 107 33 196 100 268c69 72 154 108 257 108c101 0 186 -36 255 -108c68 -73 102 -165 102 -276v-86c0 -106 -33 -195 -100 -267c-67 -71 -152 -107 -255 -107s-189 35 -256 106c-69 71 -103 163 -103 277v85zM261 1209c0 -72 20 -131 60 -178v2
c40 -46 93 -69 158 -69s116 22 154 67c39 47 59 108 59 183v89c0 71 -20 130 -60 176c-41 47 -92 70 -155 70s-115 -23 -155 -69c-41 -46 -61 -108 -61 -185v-86zM1007 311c0 107 34 197 101 269c67 71 152 106 255 106s188 -35 255 -106c69 -71 103 -164 103 -277v-86
c0 -107 -34 -196 -101 -269c-67 -71 -152 -107 -255 -107c-102 0 -187 36 -256 107c-68 70 -102 162 -102 275v88zM1148 217c0 -73 20 -132 59 -179v1c40 -46 93 -69 158 -69c66 0 118 23 155 68c40 47 60 108 60 185v88c0 73 -20 133 -61 178c-40 45 -92 68 -156 68
c-65 0 -117 -23 -156 -68c-39 -46 -59 -107 -59 -183v-89zM419 80l873 1397l110 -70l-873 -1397z" />
    <glyph glyph-name="ampersand" unicode="&#x26;" horiz-adv-x="1525" 
d="M276 1265c0 127 38 228 114 301c77 75 178 112 304 112c115 0 208 -34 280 -102c72 -67 108 -152 108 -255c0 -121 -69 -238 -206 -353l-182 -141l232 -271l115 -135l117 -137c67 112 100 244 100 395h158c0 -205 -50 -378 -151 -518l253 -294h-208l-148 171
c-133 -130 -295 -195 -484 -195c-172 0 -308 44 -408 132c-101 89 -151 206 -151 353c0 85 26 168 77 248c55 81 150 173 286 274c-137 146 -206 284 -206 415zM1060 156l-121 141l-122 142l-252 291l-46 -36c-155 -130 -232 -252 -232 -366c0 -103 35 -185 105 -247
c70 -61 165 -92 286 -92c142 0 269 56 382 167zM598 938c16 13 41 32 75 57s59 44 75 57c115 81 172 171 172 269c0 59 -21 109 -62 149s-97 60 -166 60c-75 0 -135 -24 -180 -73c-45 -48 -67 -110 -67 -187c0 -95 51 -205 153 -332z" />
    <glyph glyph-name="quotesingle" unicode="'" horiz-adv-x="421" 
d="M265 1186h-133c4 265 6 453 6 564h148v-184z" />
    <glyph glyph-name="parenleft" unicode="(" horiz-adv-x="841" 
d="M272 1295c101 236 240 423 416 561l76 -104c-320 -288 -482 -682 -485 -1182c-2 -237 48 -471 151 -702c95 -214 207 -367 335 -460l-65 -97c-188 135 -334 325 -438 568c-97 227 -143 464 -140 712c4 246 54 481 150 704z" />
    <glyph glyph-name="parenright" unicode=")" horiz-adv-x="807" 
d="M620 -121c-104 -243 -250 -433 -438 -568l-66 97c129 93 241 246 336 460c102 231 152 465 151 702c-4 500 -166 894 -486 1182l77 104c176 -138 315 -325 416 -561c95 -223 145 -458 149 -704c4 -248 -42 -485 -139 -712z" />
    <glyph glyph-name="asterisk" unicode="*" horiz-adv-x="1052" 
d="M19 1212l46 146l399 -147l-5 443h150l-10 -447c25 9 57 22 96 38l98 39c78 31 143 56 194 75l47 -145l-398 -138l267 -352l-122 -91l-257 366l-243 -363l-124 88l261 359z" />
    <glyph glyph-name="plus" unicode="+" horiz-adv-x="1399" 
d="M1311 787v-160h-536v-583h-171v583h-525v160h525v564h171v-564h536z" />
    <glyph glyph-name="comma" unicode="," horiz-adv-x="475" 
d="M56 -390c77 101 116 204 118 309v200h166v-164c0 -171 -60 -312 -180 -421z" />
    <glyph glyph-name="hyphen" unicode="-" horiz-adv-x="709" 
d="M47 583v147h604v-147h-604z" />
    <glyph glyph-name="period" unicode="." horiz-adv-x="592" 
d="M194 47c21 22 49 33 84 33s64 -11 85 -33c21 -21 32 -48 32 -81s-11 -59 -32 -78c-21 -21 -50 -31 -85 -31s-63 10 -84 31c-21 19 -31 45 -31 78s10 60 31 81z" />
    <glyph glyph-name="slash" unicode="/" horiz-adv-x="984" 
d="M19 -284l745 1938h156l-743 -1938h-158z" />
    <glyph glyph-name="zero" unicode="0" horiz-adv-x="1374" 
d="M1241 614c0 -253 -47 -445 -140 -576c-93 -130 -231 -195 -412 -195c-179 0 -315 64 -410 192s-143 315 -146 561v316c0 251 47 442 141 572c94 129 231 194 412 194c179 0 316 -63 409 -188c94 -125 143 -310 146 -553v-323zM1071 930c0 400 -128 600 -385 600
c-253 0 -381 -195 -385 -586v-346c0 -197 33 -348 100 -452c66 -105 162 -157 288 -157c125 0 220 51 285 153c64 102 96 252 97 449v339z" />
    <glyph glyph-name="one" unicode="1" horiz-adv-x="1374" 
d="M683 -133v1583l-480 -178v160l613 228h36v-1793h-169z" />
    <glyph glyph-name="two" unicode="2" horiz-adv-x="1374" 
d="M154 -133v128l607 689h-1c101 115 170 209 207 283c38 75 57 146 57 213c0 109 -31 194 -94 256c-63 63 -151 94 -262 94c-113 0 -206 -37 -279 -110c-71 -77 -106 -176 -106 -299h-168c-3 157 48 289 153 397c107 109 240 163 400 160c163 0 292 -44 386 -131
s141 -206 141 -355c0 -84 -26 -176 -79 -276c-50 -95 -141 -217 -272 -368l-474 -535h912v-146h-1128z" />
    <glyph glyph-name="three" unicode="3" horiz-adv-x="1374" 
d="M638 851c121 0 218 31 291 93c71 61 106 140 106 237c0 111 -31 196 -92 257c-63 61 -151 92 -266 92c-111 0 -201 -32 -270 -97s-104 -153 -104 -266h-170c-3 144 49 266 156 366s236 148 388 145c163 0 291 -45 386 -135c94 -89 141 -211 141 -366
c0 -87 -28 -167 -83 -242c-53 -67 -118 -117 -193 -151c95 -37 170 -92 225 -167c56 -77 84 -163 84 -260c0 -154 -50 -278 -151 -373c-101 -94 -235 -141 -403 -141c-107 0 -205 21 -294 64c-91 43 -161 103 -210 180c-48 77 -72 171 -72 282h169c0 -115 38 -207 114 -278
c81 -68 178 -102 293 -102c123 0 217 31 283 93c68 63 102 153 102 270c0 115 -37 202 -110 261c-74 60 -182 90 -325 90h-157v148h162z" />
    <glyph glyph-name="four" unicode="4" horiz-adv-x="1374" 
d="M1342 459v-147h-274v-445h-170v445h-829v98l822 1244h177v-1195h274zM898 459v948l-42 -71l-575 -877h617z" />
    <glyph glyph-name="five" unicode="5" horiz-adv-x="1374" 
d="M339 1654h904v-159h-758l-58 -559c97 56 203 84 317 84c162 0 292 -53 389 -158s145 -246 145 -421c0 -187 -47 -334 -141 -441c-94 -105 -226 -157 -397 -157c-157 0 -284 44 -382 132c-97 87 -153 214 -168 380h163c29 -244 158 -366 387 -366c121 0 212 39 275 117
c63 77 94 187 94 332c0 125 -35 228 -105 308c-70 79 -165 118 -285 118c-75 0 -135 -9 -180 -26c-43 -17 -95 -52 -156 -103l-132 37z" />
    <glyph glyph-name="six" unicode="6" horiz-adv-x="1374" 
d="M1033 1516h-29c-208 0 -371 -61 -490 -183c-109 -112 -174 -268 -193 -467c103 121 244 182 421 182c160 0 286 -55 379 -166v2c93 -109 140 -251 140 -428c3 -176 -45 -323 -146 -440c-101 -119 -230 -176 -387 -173c-174 0 -315 62 -422 186
c-107 125 -161 286 -161 483v145c0 319 73 565 218 740c147 176 354 266 621 270h49v-151zM468 820c-75 -54 -126 -121 -153 -201v-120c0 -151 38 -273 115 -368c77 -94 176 -141 298 -141c109 0 196 43 263 130c69 87 103 197 103 332c0 137 -34 245 -103 326
c-67 81 -157 121 -272 121c-87 0 -170 -26 -251 -79z" />
    <glyph glyph-name="seven" unicode="7" horiz-adv-x="1374" 
d="M506 -133h-177l748 1639h-996v148h1183v-98z" />
    <glyph glyph-name="eight" unicode="8" horiz-adv-x="1374" 
d="M1134 935c-46 -63 -109 -114 -189 -152c93 -37 167 -90 223 -161c63 -80 95 -172 95 -276c0 -155 -53 -277 -158 -368c-105 -90 -243 -135 -415 -135c-174 0 -313 45 -418 134c-104 91 -156 214 -156 369c0 103 30 195 91 275c54 71 127 125 220 162
c-79 37 -141 88 -186 152c-53 75 -80 159 -80 253c0 149 48 268 144 357c97 89 225 133 383 133s285 -45 382 -135c98 -89 147 -207 147 -355c0 -93 -28 -178 -83 -253zM979 606c-75 69 -172 103 -291 103c-120 0 -217 -33 -291 -100c-75 -67 -113 -155 -113 -264
s36 -196 109 -260s172 -96 297 -96c121 0 219 32 293 97c73 64 110 150 110 259c0 107 -38 194 -114 261zM945 1432c-66 65 -152 98 -257 98c-107 0 -193 -31 -259 -94c-66 -62 -99 -144 -99 -247c0 -100 33 -180 99 -241s153 -91 260 -91s193 30 258 91
c67 62 100 142 100 241c0 98 -34 179 -102 243z" />
    <glyph glyph-name="nine" unicode="9" horiz-adv-x="1374" 
d="M416 4c194 8 345 66 454 173c113 111 175 271 186 478c-111 -141 -253 -211 -428 -211c-100 0 -190 27 -270 81c-78 53 -139 125 -184 218c-43 93 -64 195 -64 304c0 119 23 226 68 322c47 97 111 173 192 226c89 55 184 83 285 83c182 0 323 -64 422 -191
c100 -126 150 -304 150 -534v-131c0 -645 -279 -968 -836 -968h-39l1 150h63zM899 677c74 55 127 126 160 215v84c0 177 -37 314 -110 409c-72 96 -169 144 -292 144c-110 0 -201 -45 -272 -134c-72 -90 -108 -204 -108 -342c0 -127 34 -237 103 -330
c71 -87 160 -130 266 -130c95 0 180 28 253 84z" />
    <glyph glyph-name="colon" unicode=":" horiz-adv-x="521" 
d="M172 197c21 22 50 33 85 33s63 -11 85 -33c21 -21 31 -48 31 -81s-10 -59 -31 -78c-21 -21 -50 -31 -85 -31s-64 10 -85 31c-20 19 -30 45 -30 78s10 60 30 81zM175 1074c21 22 49 33 84 33s64 -11 85 -33c21 -21 31 -48 31 -81c0 -32 -10 -58 -31 -78
c-21 -21 -50 -31 -85 -31s-63 10 -84 31c-21 20 -31 46 -31 78c0 33 10 60 31 81z" />
    <glyph glyph-name="semicolon" unicode=";" horiz-adv-x="483" 
d="M56 -260c77 101 116 204 118 309v200h166v-164c0 -171 -60 -312 -180 -421zM175 1074c21 22 49 33 84 33s64 -11 85 -33c21 -21 31 -48 31 -81c0 -32 -10 -58 -31 -78c-21 -21 -50 -31 -85 -31s-63 10 -84 31c-21 20 -31 46 -31 78c0 33 10 60 31 81z" />
    <glyph glyph-name="less" unicode="&#x3c;" horiz-adv-x="1267" 
d="M1106 316v-178l-1025 470v132l1025 468v-178l-824 -358z" />
    <glyph glyph-name="equal" unicode="=" horiz-adv-x="1372" 
d="M168 870v153h1034v-153h-1034zM168 373v152h1034v-152h-1034z" />
    <glyph glyph-name="greater" unicode="&#x3e;" horiz-adv-x="1284" 
d="M138 1036v175l1047 -469v-132l-1047 -470v176l843 361z" />
    <glyph glyph-name="question" unicode="?" horiz-adv-x="1126" 
d="M443 368c1 96 15 174 40 235c23 58 76 127 159 208c77 77 128 132 152 166c47 65 70 144 70 235c0 97 -26 174 -77 229s-123 83 -216 83c-94 0 -169 -27 -226 -80s-86 -129 -87 -227h-168c1 141 47 254 138 337c97 83 211 124 343 124c142 0 254 -42 337 -126
c83 -83 125 -196 125 -338c0 -92 -20 -176 -61 -252c-39 -75 -116 -165 -229 -270c-88 -74 -132 -186 -132 -336h-156zM453 42c21 21 48 32 82 32s61 -11 82 -32s31 -47 31 -78s-10 -57 -31 -76c-21 -21 -48 -31 -82 -31s-61 10 -82 31c-19 19 -29 45 -29 76s10 57 29 78z
" />
    <glyph glyph-name="at" unicode="@" horiz-adv-x="2264" 
d="M2069 165c-42 -103 -98 -182 -168 -238c-75 -56 -158 -84 -250 -84c-154 0 -252 71 -294 214c-89 -143 -208 -214 -356 -214c-118 0 -206 51 -264 152c-45 79 -68 180 -68 303c0 21 2 54 5 99c15 199 75 364 179 496c103 132 223 197 359 194c65 0 121 -9 168 -28h-1
c46 -16 103 -53 172 -110l-62 -696c-1 -21 -2 -38 -2 -52c0 -153 60 -230 179 -230c93 0 170 46 231 139c61 98 95 228 102 390c1 37 2 68 2 92c0 291 -69 511 -207 660c-137 147 -338 221 -604 221c-168 0 -320 -42 -455 -127c-129 -79 -236 -198 -319 -355
c-77 -156 -121 -334 -132 -533c-1 -33 -2 -59 -2 -80c0 -161 27 -312 81 -452c66 -154 160 -271 282 -352c125 -81 275 -122 452 -122c75 0 147 9 216 26c72 19 135 44 189 75l46 -118c-53 -35 -121 -64 -204 -85c-84 -21 -168 -32 -252 -32c-204 0 -380 46 -527 138
s-258 225 -331 399c-64 150 -96 324 -96 523c0 35 0 62 1 80c11 230 61 430 149 601c89 173 213 308 372 407c160 96 338 144 535 144c298 3 530 -85 696 -266c165 -179 247 -430 247 -752c0 -19 -1 -50 -3 -92c-3 -119 -25 -230 -66 -335zM1027 -16c143 0 250 100 319 300
l-1 -2l54 617c-49 36 -109 54 -179 54c-83 0 -157 -36 -222 -109c-63 -70 -111 -165 -143 -285c-22 -92 -33 -175 -33 -248c0 -32 2 -60 5 -85c19 -161 85 -242 200 -242z" />
    <glyph glyph-name="A" unicode="A" horiz-adv-x="1548" 
d="M383 361l-183 -494h-181l676 1787h158l676 -1787h-179l-184 494h-783zM1110 512l-336 914l-337 -914h673z" />
    <glyph glyph-name="B" unicode="B" horiz-adv-x="1519" 
d="M211 1654h532c393 0 589 -158 589 -474c0 -87 -22 -163 -67 -230c-44 -66 -105 -116 -184 -150c87 -26 160 -75 217 -146c65 -81 97 -174 97 -279c0 -159 -52 -284 -155 -375c-103 -89 -245 -133 -428 -133h-601v1787zM384 17h434c124 0 222 31 294 94
c73 63 109 151 109 262c0 103 -35 186 -104 248s-165 93 -287 93h-446v-697zM778 863c122 3 215 31 280 85c66 55 99 134 99 236c0 212 -138 318 -414 318h-359v-639h394z" />
    <glyph glyph-name="C" unicode="C" horiz-adv-x="1610" 
d="M1484 427c-21 -189 -88 -333 -203 -434c-114 -100 -267 -150 -458 -150c-199 -4 -362 69 -489 220c-126 150 -188 343 -187 579v228c-3 239 59 435 187 586c129 151 295 225 500 222c187 0 339 -53 455 -158c111 -103 177 -251 196 -443h-174c-38 299 -197 449 -477 449
c-155 0 -280 -58 -373 -174c-93 -117 -139 -279 -139 -488v-215c0 -199 45 -359 135 -480c95 -117 217 -176 366 -176c150 0 265 37 344 112c77 72 125 184 144 336h161z" />
    <glyph glyph-name="D" unicode="D" horiz-adv-x="1623" 
d="M211 1654h504c149 0 280 -34 395 -101c115 -66 206 -162 272 -287c65 -123 98 -265 98 -425v-162c3 -239 -68 -436 -214 -589s-333 -227 -561 -223h-494v1787zM384 17h322c172 0 318 60 438 180c110 123 165 287 165 492v155c0 198 -54 357 -163 478
c-107 119 -249 179 -428 180h-334v-1485z" />
    <glyph glyph-name="E" unicode="E" horiz-adv-x="1410" 
d="M384 712v-695h948v-150h-1121v1787h1115v-152h-942v-640h824v-150h-824z" />
    <glyph glyph-name="F" unicode="F" horiz-adv-x="1395" 
d="M384 690v-823h-173v1787h1116v-152h-943v-661h822v-151h-822z" />
    <glyph glyph-name="G" unicode="G" horiz-adv-x="1695" 
d="M1505 81c-53 -75 -137 -133 -250 -175c-110 -42 -234 -63 -373 -63c-210 -4 -383 70 -518 223c-135 152 -202 347 -201 585v223c0 248 63 444 188 587c126 145 295 217 507 217c186 0 335 -47 446 -142c114 -94 182 -228 203 -403h-173c-22 129 -74 226 -155 293
s-188 100 -320 100c-161 0 -288 -57 -381 -170c-94 -117 -141 -279 -141 -488v-208c-3 -197 46 -358 149 -483c102 -125 234 -187 396 -184c120 0 229 20 326 59c59 28 101 57 126 87v438h-473v151h646v-640z" />
    <glyph glyph-name="H" unicode="H" horiz-adv-x="1754" 
d="M1367 -133v845h-983v-845h-173v1787h173v-792h983v792h174v-1787h-174z" />
    <glyph glyph-name="I" unicode="I" horiz-adv-x="660" 
d="M243 -133v1787h173v-1787h-173z" />
    <glyph glyph-name="J" unicode="J" horiz-adv-x="1364" 
d="M1163 1654v-1251c0 -170 -50 -306 -149 -408c-98 -101 -230 -152 -395 -152c-175 0 -309 46 -404 138c-94 92 -141 224 -141 395h173c0 -126 32 -222 97 -287c63 -64 155 -96 275 -96c107 0 196 36 265 107s104 169 105 295v1259h174z" />
    <glyph glyph-name="K" unicode="K" horiz-adv-x="1564" 
d="M384 505v-638h-173v1787h173v-933l886 933h220l-750 -797l199 -246l102 -124l101 -126c161 -199 296 -363 403 -494h-213l-713 869z" />
    <glyph glyph-name="L" unicode="L" horiz-adv-x="1306" 
d="M1255 17v-150h-1044v1787h174v-1637h870z" />
    <glyph glyph-name="M" unicode="M" horiz-adv-x="2145" 
d="M1070 117l161 384l162 385l162 384c59 143 113 271 160 384h218v-1787h-173v779l12 727l-318 -753l-160 -377l-159 -376h-129l-634 1502l12 -718v-784h-173v1787h216z" />
    <glyph glyph-name="N" unicode="N" horiz-adv-x="1760" 
d="M1380 -133l-995 1480v-1480h-174v1787h168l996 -1482v1482h172v-1787h-167z" />
    <glyph glyph-name="O" unicode="O" horiz-adv-x="1678" 
d="M1537 665c3 -247 -60 -447 -190 -599c-129 -152 -298 -226 -507 -223c-209 0 -378 75 -508 224c-129 150 -193 352 -193 605v181c0 163 29 307 86 431c61 128 144 225 247 291c108 69 230 103 366 103c207 2 375 -71 504 -220s194 -344 195 -583v-210zM1364 856
c0 209 -47 372 -141 491c-94 117 -222 176 -385 176c-159 0 -287 -59 -383 -177c-95 -117 -143 -282 -143 -497v-184c0 -207 48 -370 143 -491c93 -119 222 -178 385 -178c164 0 292 59 385 176c93 118 139 284 139 497v187z" />
    <glyph glyph-name="P" unicode="P" horiz-adv-x="1526" 
d="M384 -133h-173v1787h612c187 0 334 -48 442 -144v1c109 -96 163 -228 163 -396c0 -169 -52 -300 -156 -392c-105 -92 -256 -138 -452 -138h-436v-718zM823 735c139 0 247 33 322 99c73 65 110 158 110 278s-37 214 -110 283c-72 70 -176 106 -312 107h-449v-767h439z" />
    <glyph glyph-name="Q" unicode="Q" horiz-adv-x="1678" 
d="M1533 665c0 -169 -28 -315 -85 -439c-57 -125 -140 -220 -248 -285l78 -69l81 -69c65 -57 117 -103 158 -138l-121 -110l-363 314c-69 -17 -135 -26 -199 -26c-205 -3 -374 71 -505 223c-131 153 -196 349 -195 590v197c0 163 29 307 86 431c61 128 144 225 247 291
c108 69 230 103 365 103c137 0 260 -35 367 -104c106 -68 188 -164 246 -287c59 -126 88 -270 88 -432v-190zM1359 856c0 209 -47 372 -141 491c-94 117 -223 176 -386 176c-159 0 -286 -59 -382 -177c-95 -117 -143 -282 -143 -497v-184c0 -203 47 -366 142 -491
c103 -119 231 -178 385 -178c163 0 291 59 385 176c93 117 140 282 140 496v188z" />
    <glyph glyph-name="R" unicode="R" horiz-adv-x="1574" 
d="M381 600v-733h-174v1787h585c192 0 342 -47 449 -140c108 -93 162 -224 162 -392c0 -117 -34 -219 -102 -306c-68 -88 -153 -148 -256 -179l433 -739v-31h-178l-426 733h-493zM826 752c121 0 219 34 293 103c73 69 110 158 110 267c0 121 -39 214 -116 281
c-77 66 -185 99 -324 99h-408v-750h445z" />
    <glyph glyph-name="S" unicode="S" horiz-adv-x="1468" 
d="M1110 534c-68 56 -192 109 -373 160c-179 50 -313 107 -403 170c-123 91 -184 207 -184 347c0 139 57 251 171 337c114 87 258 130 433 130c178 3 326 -50 445 -157c118 -107 176 -238 173 -394h-175c0 125 -40 223 -120 293c-79 71 -187 106 -323 106
c-133 0 -238 -29 -315 -88c-77 -57 -115 -132 -115 -225c0 -85 34 -154 103 -209c68 -55 182 -104 342 -148c161 -43 281 -89 362 -136c167 -95 251 -230 251 -405c0 -144 -57 -259 -171 -344s-263 -128 -446 -128c-128 0 -244 22 -347 67c-105 46 -186 109 -241 190
c-55 83 -83 182 -83 295h174c0 -129 45 -228 134 -297c92 -70 213 -105 363 -105c135 0 242 29 323 88c80 58 120 135 120 231c0 93 -33 167 -98 222z" />
    <glyph glyph-name="T" unicode="T" horiz-adv-x="1480" 
d="M827 1502v-1635h-173v1635h-603v152h1380v-152h-604z" />
    <glyph glyph-name="U" unicode="U" horiz-adv-x="1629" 
d="M1449 438c1 -180 -57 -325 -176 -435c-117 -109 -270 -162 -457 -160c-188 0 -340 52 -455 155c-115 104 -174 247 -177 429v1227h172v-1205c0 -145 41 -258 123 -338c83 -79 195 -118 337 -118c143 0 254 40 335 120c83 79 124 191 124 335v1206h174v-1216z" />
    <glyph glyph-name="V" unicode="V" horiz-adv-x="1529" 
d="M207 1654l557 -1550l558 1550h188l-666 -1787h-158l-665 1787h186z" />
    <glyph glyph-name="W" unicode="W" horiz-adv-x="2223" 
d="M604 138l438 1516h154l432 -1521l368 1521h178l-457 -1787h-163l-434 1514l-2 -8l-3 -10l-10 -35l-52 -184c-70 -240 -195 -666 -376 -1277h-163l-456 1787h178z" />
    <glyph glyph-name="X" unicode="X" horiz-adv-x="1517" 
d="M1249 1654h207l-592 -882l305 -452c137 -203 239 -354 305 -453h-208l-507 760l-510 -760h-205l611 905l-593 882h207l490 -735z" />
    <glyph glyph-name="Y" unicode="Y" horiz-adv-x="1484" 
d="M1271 1654h201l-646 -1115v-672h-174v672l-645 1115h206l527 -948z" />
    <glyph glyph-name="Z" unicode="Z" horiz-adv-x="1483" 
d="M1390 17v-150h-1293v128l1035 1507h-1004v152h1223v-123l-1039 -1514h1078z" />
    <glyph glyph-name="bracketleft" unicode="[" horiz-adv-x="594" 
d="M355 1758v-2121h254v-148h-424v2416h424v-147h-254z" />
    <glyph glyph-name="backslash" unicode="\" horiz-adv-x="977" 
d="M208 1654l745 -1938h-167l-745 1938h167z" />
    <glyph glyph-name="bracketright" unicode="]" horiz-adv-x="594" 
d="M413 1905v-2416h-425v148h255v2121h-255v147h425z" />
    <glyph glyph-name="asciicircum" unicode="^" horiz-adv-x="1031" 
d="M242 749h-167l372 905h126l370 -905h-167l-266 670z" />
    <glyph glyph-name="underscore" unicode="_" horiz-adv-x="1070" 
d="M-11 -255v146h1091v-146h-1091z" />
    <glyph glyph-name="grave" unicode="`" horiz-adv-x="708" 
d="M392 1374l-293 362h206l248 -362h-161z" />
    <glyph glyph-name="a" unicode="a" horiz-adv-x="1328" 
d="M1016 -133c-21 39 -34 94 -39 163c-53 -59 -117 -105 -194 -138c-76 -33 -156 -49 -239 -49c-128 0 -233 36 -315 109c-80 73 -120 164 -120 274c0 132 54 236 163 313c111 75 261 113 452 113h250v137c0 91 -28 162 -83 213c-57 51 -138 77 -243 77
c-99 0 -181 -25 -244 -75s-94 -113 -94 -189l-170 1c0 115 50 213 151 292c99 78 220 117 364 117c150 0 268 -38 353 -114v1c87 -73 132 -178 135 -314v-620c0 -115 13 -219 40 -311h-167zM813 64c73 45 127 104 161 178v275h-246c-144 -1 -255 -27 -333 -78
c-78 -48 -117 -115 -117 -201c0 -70 26 -128 78 -174s120 -69 204 -69c94 0 178 23 253 69z" />
    <glyph glyph-name="b" unicode="b" horiz-adv-x="1374" 
d="M1255 521c0 -209 -46 -373 -138 -494c-93 -123 -217 -184 -374 -184c-177 0 -311 59 -402 178c0 -17 -1 -43 -3 -78l-1 -39l-2 -37h-159v1883h168v-714c99 126 231 189 397 189c156 0 281 -61 376 -183c92 -121 138 -288 138 -500v-21zM989 937c-65 92 -157 138 -275 138
c-179 0 -303 -86 -370 -258v-588c70 -157 194 -236 373 -236c117 0 208 46 271 138c65 95 98 234 98 415c0 169 -32 299 -97 391z" />
    <glyph glyph-name="c" unicode="c" horiz-adv-x="1277" 
d="M919 71c65 54 101 129 108 224h162c-3 -125 -56 -233 -160 -323c-103 -89 -221 -132 -356 -129c-177 0 -316 61 -419 184c-101 121 -152 284 -152 489v43c-2 199 49 360 154 483c105 125 244 186 416 183c147 0 268 -44 363 -132c97 -89 148 -209 154 -358h-162
c-6 106 -42 190 -109 252c-63 60 -145 90 -246 90c-125 0 -223 -45 -296 -136c-70 -98 -105 -228 -105 -390v-43c0 -158 35 -286 105 -383c73 -91 172 -136 297 -136c98 0 180 27 246 82z" />
    <glyph glyph-name="d" unicode="d" horiz-adv-x="1378" 
d="M119 546c0 207 46 372 138 493c93 124 219 186 380 186c171 0 302 -61 392 -183v708h168v-1883h-160l-6 151c-89 -117 -221 -175 -397 -175c-155 0 -280 62 -375 186c-93 125 -140 292 -140 500v17zM387 132c65 -93 156 -139 274 -139c173 0 295 75 368 226v610
c-72 164 -194 246 -366 246c-119 0 -210 -47 -275 -141c-66 -95 -99 -233 -99 -413c0 -165 33 -294 98 -389z" />
    <glyph glyph-name="e" unicode="e" horiz-adv-x="1281" 
d="M267 27c-117 127 -173 284 -169 469v52c0 129 25 244 74 345c51 105 121 185 209 242h-1c90 60 187 90 290 90c163 0 292 -56 388 -167c95 -110 143 -261 143 -453v-93h-935v-16c0 -145 42 -267 125 -364v1c84 -96 188 -144 312 -144c149 0 270 61 364 183l111 -84
c-114 -163 -274 -245 -481 -245c-171 -4 -314 57 -430 184zM403 961c-72 -83 -116 -183 -131 -301h760v3c-3 123 -38 223 -105 299c-67 77 -152 115 -257 115c-98 0 -187 -39 -267 -116z" />
    <glyph glyph-name="f" unicode="f" horiz-adv-x="821" 
d="M281 1058h-217v143h217v146c0 137 35 243 106 318c69 74 167 111 293 111c55 0 111 -8 167 -23l-13 -147c-49 13 -97 19 -143 19c-77 0 -136 -24 -177 -71c-43 -48 -64 -116 -64 -203v-150h313v-143h-313v-1191h-169v1191z" />
    <glyph glyph-name="g" unicode="g" horiz-adv-x="1375" 
d="M119 546c0 208 46 373 138 494c93 123 219 185 380 185c171 0 303 -63 397 -190l1 41l1 43l3 82h159v-1295c0 -173 -48 -309 -145 -410s-228 -151 -392 -151c-91 0 -180 21 -266 63c-86 43 -155 101 -206 174l97 104c105 -129 227 -194 365 -194c113 0 203 36 270 108
c65 70 101 165 107 284v128c-98 -113 -229 -169 -394 -169c-156 0 -281 62 -375 186c-93 124 -140 290 -140 498v19zM387 132c65 -93 156 -139 274 -139c173 0 296 77 367 230v604c-67 165 -188 248 -365 248c-119 0 -210 -47 -275 -141c-66 -95 -99 -233 -99 -413
c0 -165 33 -294 98 -389z" />
    <glyph glyph-name="h" unicode="h" horiz-adv-x="1361" 
d="M345 1007c49 69 110 123 181 161c72 38 150 57 233 57c285 0 429 -162 430 -487v-871h-169v873c0 113 -24 197 -71 252c-48 55 -123 83 -225 83c-89 0 -166 -27 -231 -82c-67 -53 -116 -126 -148 -217v-909h-168v1883h168v-743z" />
    <glyph glyph-name="i" unicode="i" horiz-adv-x="556" 
d="M194 -133v1334h169v-1334h-169zM198 1646c21 21 48 32 82 32c33 0 61 -11 82 -32c20 -21 30 -47 30 -78c0 -32 -10 -58 -30 -78c-21 -21 -49 -31 -82 -31c-34 0 -61 10 -82 31c-20 20 -30 46 -30 78c0 31 10 57 30 78z" />
    <glyph glyph-name="j" unicode="j" horiz-adv-x="565" 
d="M357 -277c0 -125 -30 -221 -90 -286c-60 -66 -149 -99 -266 -99c-47 0 -93 9 -139 26l2 146c44 -14 84 -21 121 -21c136 0 204 79 204 236v1476h168v-1478zM274 1678c34 0 61 -11 82 -32c20 -21 30 -47 30 -78c0 -32 -10 -58 -30 -78c-21 -21 -48 -31 -82 -31h1
c-35 -3 -62 7 -83 31c-18 21 -27 47 -27 78s9 56 27 77c21 23 48 34 83 33h-1z" />
    <glyph glyph-name="k" unicode="k" horiz-adv-x="1214" 
d="M346 374v-507h-169v1883h169v-1170c35 38 242 245 621 621h217l-569 -565l614 -769h-205l-525 654z" />
    <glyph glyph-name="l" unicode="l" horiz-adv-x="556" 
d="M194 -133v1883h169v-1883h-169z" />
    <glyph glyph-name="m" unicode="m" horiz-adv-x="2197" 
d="M338 1017c94 139 231 208 411 208c203 0 335 -79 396 -237c96 158 244 237 444 237c289 0 436 -157 442 -472v-886h-169v875c-1 114 -25 198 -73 251c-49 55 -127 82 -233 82c-103 -1 -188 -34 -256 -98c-67 -63 -106 -140 -116 -233v-877h-170v886
c-1 215 -103 322 -307 322c-84 0 -159 -27 -224 -82c-63 -53 -111 -126 -144 -219v-907h-170v1334h164z" />
    <glyph glyph-name="n" unicode="n" horiz-adv-x="1362" 
d="M344 1007c98 145 236 218 415 218c285 0 429 -162 430 -487v-871h-169v873c0 113 -24 197 -71 252c-48 55 -123 83 -225 83c-89 0 -166 -27 -231 -82c-67 -53 -116 -126 -148 -217v-909h-168v1334h162z" />
    <glyph glyph-name="o" unicode="o" horiz-adv-x="1388" 
d="M97 553c-3 193 52 354 166 483s257 192 429 189c179 0 323 -63 434 -188c109 -124 164 -288 164 -493v-31c0 -129 -25 -244 -75 -347c-51 -104 -121 -184 -210 -240c-90 -55 -193 -83 -310 -83c-178 0 -323 62 -434 186c-109 125 -164 290 -164 495v29zM266 513
c0 -155 40 -282 119 -379s182 -145 310 -145c126 0 228 48 307 145c80 99 120 230 120 391v28c0 98 -18 188 -54 270c-37 82 -88 145 -153 188c-65 44 -139 66 -223 66c-125 0 -227 -49 -306 -147c-80 -99 -120 -229 -120 -390v-27z" />
    <glyph glyph-name="p" unicode="p" horiz-adv-x="1374" 
d="M1254 521c0 -209 -46 -373 -138 -494c-93 -123 -217 -184 -373 -184c-169 0 -302 55 -399 165v-645h-168v1838h158l6 -161c96 123 229 185 400 185c157 0 282 -61 377 -183c91 -125 137 -292 137 -501v-20zM984 935c-67 93 -159 140 -277 140c-175 0 -296 -80 -363 -241
v-623c68 -148 190 -222 365 -222c119 0 212 48 277 143c66 97 99 235 99 414c0 166 -34 296 -101 389z" />
    <glyph glyph-name="q" unicode="q" horiz-adv-x="1382" 
d="M119 546c0 208 46 373 138 494c93 123 220 185 382 185c171 0 302 -60 394 -179l1 39l1 39c1 35 1 60 2 77h160v-1838h-169v644c-95 -109 -225 -164 -391 -164c-158 0 -284 62 -378 186c-93 124 -140 290 -140 498v19zM389 128c67 -93 158 -139 274 -139
c169 0 290 73 365 218v636c-73 156 -194 234 -362 234c-119 0 -212 -47 -277 -141c-67 -97 -100 -235 -100 -415c0 -168 33 -299 100 -393z" />
    <glyph glyph-name="r" unicode="r" horiz-adv-x="834" 
d="M792 1053c-29 6 -61 9 -96 9c-85 0 -159 -25 -220 -76c-61 -49 -104 -120 -131 -211v-908h-168v1334h166l2 -173c79 131 198 197 357 197c43 0 79 -7 108 -21l-4 -139z" />
    <glyph glyph-name="s" unicode="s" horiz-adv-x="1255" 
d="M877 377c-54 41 -139 74 -254 98c-121 26 -212 54 -274 85c-130 65 -195 164 -195 296c0 106 45 194 134 265c93 69 206 104 339 104c146 0 265 -37 358 -111c92 -78 138 -179 138 -304h-169c0 80 -31 145 -92 194s-140 73 -235 73c-91 0 -166 -20 -223 -61
c-54 -42 -81 -94 -81 -155s22 -108 67 -143c47 -34 133 -66 258 -96c132 -32 228 -64 289 -97c129 -69 194 -171 194 -306c0 -113 -47 -204 -140 -275c-93 -67 -212 -101 -355 -101c-154 0 -280 38 -379 113c-98 76 -147 177 -147 302h168c6 -89 40 -156 103 -201
s148 -68 255 -68c99 0 178 21 237 64s88 96 88 159c0 67 -28 122 -84 165z" />
    <glyph glyph-name="t" unicode="t" horiz-adv-x="797" 
d="M426 1201h271v-143h-271v-861c0 -69 12 -120 37 -153s66 -50 122 -50c21 0 64 5 129 14l6 -140c-46 -17 -102 -25 -167 -25c-197 0 -296 118 -296 353v862h-241v143h241v335h169v-335z" />
    <glyph glyph-name="u" unicode="u" horiz-adv-x="1362" 
d="M1041 38c-88 -130 -230 -195 -427 -195c-291 0 -439 165 -442 494v864h168v-846c0 -241 97 -362 291 -362c200 0 329 84 386 252v956h169v-1334h-164l-3 178z" />
    <glyph glyph-name="v" unicode="v" horiz-adv-x="1192" 
d="M988 1201h173l-499 -1334h-133l-500 1334h173l395 -1087z" />
    <glyph glyph-name="w" unicode="w" horiz-adv-x="1869" 
d="M525 123l333 1078h143l334 -1088l288 1088h177l-389 -1334h-142l-343 1068v-2l-1 -4l-6 -17l-37 -120c-54 -172 -151 -480 -292 -925h-143l-388 1334h176z" />
    <glyph glyph-name="x" unicode="x" horiz-adv-x="1206" 
d="M948 1201h201l-453 -655l472 -679h-200l-366 545l-367 -545h-200l471 679l-226 327l-115 166l-112 162h200l347 -521z" />
    <glyph glyph-name="y" unicode="y" horiz-adv-x="1178" 
d="M978 1201h182l-566 -1550l-29 -67c-73 -164 -187 -246 -343 -246c-33 0 -75 6 -124 19l-1 143l88 -8c67 1 121 18 164 53c44 35 80 93 109 172l63 172c-37 95 -78 204 -125 326l-125 330l-249 656h183l399 -1081z" />
    <glyph glyph-name="z" unicode="z" horiz-adv-x="1206" 
d="M1148 13v-146h-1055v122l782 1063h-758v149h977v-124l-785 -1064h839z" />
    <glyph glyph-name="braceleft" unicode="{" horiz-adv-x="818" 
d="M767 -622c-278 83 -417 273 -417 572v268c0 204 -93 306 -280 306v150c187 0 280 101 280 304v277c1 296 145 487 430 573l38 -120c-199 -64 -299 -219 -299 -465v-258c0 -191 -68 -320 -204 -386c136 -67 204 -196 204 -385v-276c4 -229 105 -377 302 -444l-39 -108z
" />
    <glyph glyph-name="bar" unicode="|" horiz-adv-x="547" 
d="M203 -460v2114h147v-2114h-147z" />
    <glyph glyph-name="braceright" unicode="}" horiz-adv-x="818" 
d="M7 -502c190 64 287 211 291 440v271c0 197 72 327 215 389c-143 61 -215 190 -215 386v258c0 249 -100 405 -299 466l39 120c286 -85 429 -279 429 -580v-270c0 -203 93 -304 280 -304v-150c-187 0 -280 -102 -280 -306v-268c0 -299 -143 -491 -428 -576l-39 109z" />
    <glyph glyph-name="asciitilde" unicode="~" horiz-adv-x="1697" 
d="M1530 804c0 -125 -35 -226 -104 -305c-69 -80 -157 -120 -266 -120c-61 0 -118 11 -169 34c-53 25 -115 69 -188 132c-73 65 -127 106 -160 121c-33 16 -70 24 -109 24c-69 0 -122 -24 -159 -72c-38 -48 -57 -117 -57 -206l-155 -2c0 132 34 237 101 315
c68 79 158 119 270 119c61 0 119 -13 174 -39c60 -28 125 -74 196 -139c55 -51 100 -86 137 -106c37 -19 77 -29 119 -29c67 0 121 26 160 77c40 51 60 121 60 208h138z" />
    <glyph glyph-name="exclamdown" unicode="&#xa1;" horiz-adv-x="547" 
d="M211 714h134l8 -1270h-150zM369 1116c0 -55 -38 -97 -99 -97s-101 42 -101 97s40 97 101 97s99 -42 99 -97z" />
    <glyph glyph-name="cent" unicode="&#xa2;" horiz-adv-x="1350" 
d="M703 -23c99 0 183 28 251 84c69 56 107 130 114 222h139c-7 -112 -51 -207 -134 -286s-184 -126 -303 -139v-276h-145v278c-149 18 -267 85 -353 200c-85 116 -128 268 -128 456v43c0 179 42 328 127 445s203 185 354 204v266h145v-265c125 -13 228 -61 309 -146
s123 -190 128 -316h-139c-7 103 -44 185 -111 248s-152 94 -255 94c-131 0 -232 -47 -305 -142c-72 -94 -108 -226 -108 -396v-43c0 -167 36 -297 108 -391c73 -93 175 -140 306 -140z" />
    <glyph glyph-name="sterling" unicode="&#xa3;" horiz-adv-x="1416" 
d="M489 660l11 -336c1 -140 -25 -246 -78 -319h902v-126h-1207v126h119c41 11 72 54 93 129c16 60 23 123 22 189l-11 337h-227v126h222l-11 351c0 161 45 290 134 385c89 96 209 144 358 144c147 0 263 -43 348 -128s128 -199 128 -342h-149c0 109 -30 193 -91 253
s-143 90 -247 90c-101 0 -181 -36 -241 -108c-59 -71 -89 -169 -89 -294l10 -351h417v-126h-413z" />
    <glyph glyph-name="currency" unicode="&#xa4;" horiz-adv-x="1793" 
d="M1369 40c-125 -116 -290 -185 -473 -185s-341 61 -474 184l-187 -192l-103 105l192 194c-100 136 -150 292 -150 469c0 183 54 344 161 482l-203 207l103 105l202 -206c133 113 286 170 459 170s326 -57 459 -172l205 209l104 -106l-207 -212c105 -137 158 -296 158 -477
c0 -173 -49 -328 -148 -465l197 -198l-104 -106zM311 615c0 -111 26 -216 78 -313s124 -173 215 -229s189 -84 292 -84c104 0 201 28 291 85c91 57 162 133 213 229c52 97 78 201 78 312c0 112 -27 216 -80 313s-124 172 -213 227s-186 82 -289 82s-200 -27 -291 -82
c-90 -55 -162 -130 -215 -227s-79 -201 -79 -313z" />
    <glyph glyph-name="yen" unicode="&#xa5;" horiz-adv-x="1480" 
d="M735 767l509 874h174l-549 -909h444v-107h-506v-247h506v-107h-506v-392h-148v392h-502v107h502v247h-502v107h443l-547 909h173z" />
    <glyph glyph-name="brokenbar" unicode="&#xa6;" horiz-adv-x="537" 
d="M192 -448v933h146v-933h-146zM338 724h-146v917h146v-917z" />
    <glyph glyph-name="section" unicode="&#xa7;" horiz-adv-x="1500" 
d="M1355 401c0 -161 -105 -277 -281 -330c147 -77 227 -183 227 -360c0 -133 -51 -238 -153 -315c-101 -77 -239 -116 -414 -116c-176 0 -339 45 -448 137s-163 220 -163 384l146 3c0 -126 42 -224 125 -295s197 -106 340 -106c129 0 231 28 307 84s114 130 114 221
c0 62 -14 112 -42 150s-74 73 -139 105c-64 31 -168 66 -311 105s-249 79 -320 120c-70 42 -123 92 -159 149c-35 58 -53 128 -53 209c0 161 98 279 270 332c-139 76 -216 182 -216 357c0 130 52 234 156 313c105 79 243 118 414 118c181 0 322 -46 422 -137
c101 -91 151 -220 151 -385h-145c0 118 -39 214 -117 287c-77 74 -181 111 -311 111c-133 0 -237 -28 -312 -83s-113 -129 -113 -222c0 -63 13 -114 38 -152s69 -72 130 -103s156 -64 284 -101c158 -41 275 -82 351 -124c77 -41 133 -91 168 -148c36 -57 54 -127 54 -208z
M550 812c-175 -20 -274 -120 -274 -264c0 -67 14 -119 43 -158s75 -73 140 -104s180 -69 344 -114l111 -34c91 11 162 39 215 85c53 47 80 105 80 174c0 79 -27 143 -81 190c-54 48 -151 94 -290 139z" />
    <glyph glyph-name="dieresis" unicode="&#xa8;" horiz-adv-x="1066" 
d="M173 1569c0 55 36 98 99 98c61 0 101 -43 101 -98c0 -53 -40 -96 -101 -96c-63 0 -99 43 -99 96zM702 1568c0 55 38 98 99 98c64 0 101 -43 101 -98c0 -53 -37 -96 -101 -96c-61 0 -99 43 -99 96z" />
    <glyph glyph-name="copyright" unicode="&#xa9;" horiz-adv-x="1982" 
d="M1369 614c0 -126 -34 -223 -102 -291c-68 -67 -165 -101 -290 -101c-126 0 -227 44 -303 131c-75 87 -112 206 -112 356v109c0 144 38 260 113 348c77 89 177 133 302 133s221 -35 290 -104s103 -169 103 -299h-144c0 181 -83 271 -249 271c-81 0 -146 -31 -196 -93
c-50 -63 -75 -151 -75 -262v-110c0 -105 25 -189 74 -254c49 -62 114 -93 197 -93c165 0 248 90 248 271h132zM341 368c67 -123 158 -220 273 -291c118 -71 243 -107 375 -107c130 0 254 35 372 106c115 71 205 167 271 288c67 125 100 257 100 397s-33 271 -99 394
c-65 121 -156 216 -272 287c-118 71 -242 106 -372 106c-138 0 -264 -36 -379 -107c-116 -74 -206 -171 -270 -291c-63 -123 -95 -252 -95 -389c0 -133 32 -264 96 -393zM231 1221c74 137 180 249 319 335c137 81 283 122 439 122s302 -41 438 -122
c138 -87 244 -199 317 -335c77 -139 115 -292 115 -460c0 -162 -37 -313 -110 -452c-74 -141 -179 -254 -315 -338c-136 -87 -284 -130 -445 -130c-158 0 -306 43 -445 129c-137 86 -242 198 -315 336c-75 139 -112 291 -112 455c0 167 38 321 114 460z" />
    <glyph glyph-name="ordfeminine" unicode="&#xaa;" horiz-adv-x="1097" 
d="M786 732c-13 35 -21 73 -26 114c-70 -87 -160 -131 -269 -131c-94 0 -168 24 -221 71s-80 111 -80 192c0 177 137 281 398 281h169v74c0 137 -64 216 -195 216c-145 0 -234 -56 -234 -173l-129 8c0 82 33 149 100 202s154 80 263 80c100 0 179 -29 238 -87
c59 -57 89 -140 89 -249v-381c0 -74 10 -146 31 -217h-134zM516 830c43 0 87 12 133 36c47 25 83 55 108 90v204h-157c-185 0 -278 -59 -278 -177c0 -102 65 -153 194 -153z" />
    <glyph glyph-name="guillemotleft" unicode="&#xab;" horiz-adv-x="1129" 
d="M299 528l334 -470h-127l-357 459v23l357 459h127zM673 528l334 -470h-127l-357 459v23l357 459h127z" />
    <glyph glyph-name="uni00AD" unicode="&#xad;" horiz-adv-x="709" 
d="M639 596h-580v122h580v-122z" />
    <glyph glyph-name="registered" unicode="&#xae;" horiz-adv-x="1988" 
d="M225 1221c74 137 180 249 319 335c137 81 283 122 439 122s302 -41 438 -122c138 -85 244 -196 319 -335c77 -139 115 -292 115 -460c0 -164 -37 -316 -112 -455c-75 -140 -180 -252 -316 -336c-137 -86 -285 -129 -444 -129c-158 0 -307 43 -446 129
c-137 86 -241 198 -314 336c-75 139 -112 291 -112 455c0 167 38 321 114 460zM338 364c68 -124 159 -220 272 -289c116 -70 240 -105 373 -105c132 0 256 35 373 105c115 71 206 167 271 289c66 125 99 258 99 397s-32 270 -97 391c-63 120 -153 216 -270 289
c-117 71 -242 107 -376 107c-132 0 -257 -35 -374 -106s-207 -167 -271 -287c-67 -123 -100 -254 -100 -394c0 -135 33 -267 100 -397zM799 255h-143v1040h325c254 0 381 -104 381 -312c0 -104 -51 -183 -154 -237c92 -41 138 -127 138 -257c0 -63 2 -107 5 -132
c4 -29 9 -52 16 -69v-33h-144c-14 37 -21 114 -21 233c0 67 -14 115 -42 143c-29 28 -77 42 -146 42h-215v-418zM1006 807c63 0 115 16 154 49c39 32 59 74 59 125c0 64 -17 110 -50 137s-91 42 -172 44h-198v-355h207z" />
    <glyph glyph-name="overscore" unicode="&#xaf;" horiz-adv-x="1058" 
d="M939 1524h-811v117h811v-117z" />
    <glyph glyph-name="plusminus" unicode="&#xb1;" horiz-adv-x="1313" 
d="M737 882h474v-123h-474v-530h-134v530h-501v123h501v531h134v-531zM1166 -121h-1011v122h1011v-122z" />
    <glyph glyph-name="acute" unicode="&#xb4;" horiz-adv-x="697" 
d="M381 1724h176l-280 -338h-127z" />
    <glyph glyph-name="middot" unicode="&#xb7;" horiz-adv-x="609" 
d="M197 747c0 56 38 100 102 100s104 -44 104 -100s-40 -99 -104 -99s-102 43 -102 99z" />
    <glyph glyph-name="guillemotright" unicode="&#xbb;" horiz-adv-x="1123" 
d="M268 1022l357 -465v-23l-357 -459h-129l334 470l-334 477h129zM654 1022l357 -465v-23l-357 -459h-129l334 470l-334 477h129z" />
    <glyph glyph-name="multiply" unicode="&#xd7;" horiz-adv-x="1298" 
d="M113 96l433 441l-415 424l95 97l414 -424l416 424l95 -97l-415 -424l433 -441l-95 -96l-434 441l-432 -441z" />
    <glyph glyph-name="divide" unicode="&#xf7;" horiz-adv-x="1409" 
d="M1295 659h-1208v140h1208v-140zM599 1196c0 56 37 100 101 100c65 0 105 -44 105 -100s-40 -99 -105 -99c-64 0 -101 43 -101 99zM599 231c0 57 37 101 101 101c65 0 105 -44 105 -101c0 -56 -40 -98 -105 -98c-64 0 -101 42 -101 98z" />
    <glyph glyph-name="uni02BC" unicode="&#x2bc;" horiz-adv-x="441" 
d="M161 1209l-86 63c73 98 110 201 113 308v158h142v-122c0 -169 -56 -304 -169 -407z" />
    <glyph glyph-name="circumflex" unicode="&#x2c6;" horiz-adv-x="1065" 
d="M866 1414v-12h-135l-203 221l-202 -221h-132v16l288 308h92z" />
    <glyph glyph-name="caron" unicode="&#x2c7;" horiz-adv-x="1012" 
d="M505 1484l208 235h128v-15l-285 -316h-104l-285 318v13h130z" />
    <glyph glyph-name="uni02C9" unicode="&#x2c9;" horiz-adv-x="1059" 
d="M939 1524h-811v117h811v-117z" />
    <glyph glyph-name="dotaccent" unicode="&#x2d9;" horiz-adv-x="556" 
d="M179 1552c0 55 38 98 99 98c64 0 101 -43 101 -98c0 -53 -37 -96 -101 -96c-61 0 -99 43 -99 96z" />
    <glyph glyph-name="ring" unicode="&#x2da;" horiz-adv-x="769" 
d="M142 1568c0 64 23 118 68 163s100 67 165 67c64 0 119 -22 165 -67s69 -99 69 -163s-22 -118 -67 -162c-44 -43 -100 -65 -167 -65s-122 22 -167 65c-44 44 -66 98 -66 162zM235 1568c0 -41 13 -74 40 -101s60 -40 100 -40s74 13 101 39c27 27 41 61 41 102
c0 43 -14 77 -43 104c-28 27 -61 40 -99 40c-39 0 -73 -14 -100 -42c-27 -27 -40 -61 -40 -102z" />
    <glyph glyph-name="tilde" unicode="&#x2dc;" horiz-adv-x="1079" 
d="M943 1677c0 -78 -23 -141 -69 -188c-45 -47 -101 -70 -167 -70c-61 0 -121 22 -180 66c-59 45 -111 67 -157 67c-75 0 -133 -52 -133 -143l-109 4c0 74 22 135 66 183c44 49 101 73 170 73c156 0 204 -133 337 -133c75 0 134 57 134 148z" />
    <glyph glyph-name="hungarumlaut" unicode="&#x2dd;" horiz-adv-x="936" 
d="M766 1737h175l-338 -367h-147zM391 1737h166l-280 -367h-132z" />
    <glyph glyph-name="uni02F3" unicode="&#x2f3;" horiz-adv-x="753" 
d="M190 -399c0 49 18 90 54 123c37 33 81 50 132 50s95 -17 130 -50c35 -34 53 -75 53 -123s-18 -88 -53 -120c-35 -33 -79 -49 -130 -49s-94 16 -131 48s-55 72 -55 121zM278 -399c0 -51 43 -86 98 -86c56 0 97 35 97 86s-41 89 -97 89c-55 0 -98 -38 -98 -89z" />
    <glyph glyph-name="gravecomb" unicode="&#x300;" 
d="M-563 1386h-132l-273 338h175z" />
    <glyph glyph-name="acutecomb" unicode="&#x301;" 
d="M-513 1724h175l-281 -338h-125z" />
    <glyph glyph-name="tildecomb" unicode="&#x303;" 
d="M-219 1677c0 -78 -23 -141 -68 -188c-46 -47 -102 -70 -168 -70c-61 0 -121 22 -180 66c-59 45 -111 67 -157 67c-76 0 -133 -52 -133 -143l-109 4c0 74 22 135 66 183c44 49 101 73 170 73c156 0 204 -133 337 -133c37 0 68 13 95 40c26 27 39 63 39 108z" />
    <glyph glyph-name="uni030F" unicode="&#x30f;" 
d="M-671 1395h-146l-366 322h186zM-376 1395h-132l-303 322h171z" />
    <glyph glyph-name="dotbelowcomb" unicode="&#x323;" 
d="M-813 -401c0 55 38 98 99 98c63 0 100 -43 100 -98c0 -53 -37 -95 -100 -95c-61 0 -99 42 -99 95z" />
    <glyph glyph-name="uni060C" unicode="&#x60c;" horiz-adv-x="570" 
d="M486 149c0 -27 -12 -55 -37 -84h1c-32 -36 -74 -54 -125 -54c-57 0 -103 22 -136 65c-31 39 -46 90 -46 152c0 153 73 280 228 392c23 -17 45 -36 74 -59c-113 -88 -182 -193 -182 -301c23 19 59 29 95 30c76 -12 121 -58 128 -142v1z" />
    <glyph glyph-name="uni0615" unicode="&#x615;" 
d="M346 961c42 22 70 49 85 80c1 3 2 5 1 4c0 -1 0 -2 -1 -4s-2 -3 -2 -3c0 -1 1 0 2 3c11 26 11 51 -1 75c-13 23 -33 37 -61 42c-23 4 -49 0 -77 -12c-19 -9 -42 -22 -68 -41c-51 -37 -107 -97 -168 -180c64 -7 123 -7 177 0c41 6 78 18 113 36zM458 1200
c36 -25 55 -58 57 -99c1 -3 1 -3 1 -2s0 3 -1 6v5v-9c3 -28 -3 -58 -17 -89c-13 -29 -32 -54 -55 -73c-55 -46 -120 -75 -193 -88c-129 -22 -268 -5 -417 52l15 35l15 36c33 -13 66 -24 100 -33c7 -1 13 2 18 9l7 10l6 10l32 43c4 5 7 14 8 25l2 14l1 13l4 42
c2 32 2 68 0 108l-4 54l-5 54c-7 65 -15 122 -24 173l80 10c2 -25 6 -61 11 -106l6 -53l5 -52c5 -69 8 -129 8 -181c38 35 73 62 104 81c44 26 85 39 123 39c43 0 80 -11 113 -34z" />
    <glyph glyph-name="uni061B" unicode="&#x61b;" horiz-adv-x="512" 
d="M364 125c0 -30 -12 -57 -35 -80c-23 -22 -50 -33 -80 -33c-31 0 -58 11 -81 33c-23 23 -34 49 -34 80s11 58 34 81s50 34 81 34s57 -11 80 -34s35 -50 35 -81zM417 570c0 -27 -12 -55 -37 -84h1c-32 -36 -74 -54 -125 -54c-57 0 -103 22 -136 65c-31 39 -46 90 -46 152
c0 151 58 265 174 342c23 -17 45 -36 74 -59c-85 -59 -128 -141 -128 -245c40 12 72 18 96 18c85 0 127 -45 127 -135z" />
    <glyph glyph-name="uni061F" unicode="&#x61f;" horiz-adv-x="1024" 
d="M540 900c63 -70 95 -171 95 -302v-123h-146v123c0 97 -38 179 -113 246l-51 42c-48 40 -97 82 -146 121l3 -2c-66 70 -99 158 -99 265c0 104 45 194 136 269v-1c88 72 185 109 294 109c125 0 229 -46 302 -123c64 -76 104 -186 109 -306h-146c-6 188 -94 282 -265 282
c-60 0 -128 -26 -179 -62c-53 -47 -89 -106 -89 -167c0 -96 34 -170 110 -230c63 -49 124 -97 188 -144zM713 155l-149 -149l-141 141l148 150z" />
    <glyph glyph-name="uni0640" unicode="&#x640;" horiz-adv-x="907" 
d="M-91 98c0 44 39 78 83 78h8h908h6c43 0 79 -35 79 -78c0 -44 -36 -78 -79 -78h-6h-917c-43 0 -82 34 -82 78z" />
    <glyph glyph-name="uni064B" unicode="&#x64b;" 
d="M485 1581l-616 -247v90l616 239v-82zM487 1322l-616 -247v90l616 239v-82z" />
    <glyph glyph-name="uni064C" unicode="&#x64c;" 
d="M245 1423l10 -5c15 -7 41 -19 78 -35c33 61 37 122 13 183l-2 3l-1 4c-1 4 -3 8 -5 11c-4 9 -9 17 -14 24c-15 20 -34 29 -57 26c-33 0 -64 -17 -93 -51c-20 -24 -28 -46 -25 -67c4 -22 16 -41 36 -58c8 -6 18 -12 29 -19l15 -8zM403 1362l-1 -3l36 -13l-26 -72l-48 17
l-1 -1c-11 -10 -22 -20 -34 -29c-24 -19 -52 -36 -84 -53c-23 -12 -51 -25 -82 -38c-47 -21 -100 -38 -158 -52c-9 -3 -21 -6 -36 -9l-17 -4l-10 -3l-42 61v2l1 2l2 8l7 18l9 33c3 13 6 26 7 38c1 15 1 29 0 42c-3 32 -14 53 -34 62c-9 4 -19 6 -30 6c-16 0 -34 -5 -54 -15
c-4 -2 -11 -6 -21 -13l-10 -8l-5 -3l-3 -3l-46 56c41 40 88 60 140 60c29 0 55 -8 78 -24c57 -39 73 -116 48 -232l-1 -4l4 1c59 19 108 36 145 51c55 23 103 49 143 78l4 2l-4 2c-9 5 -23 11 -42 20l-34 16l-32 17c-24 14 -43 29 -57 44c-29 33 -42 71 -39 112
c3 48 25 90 66 125c40 35 82 52 127 52h8c45 -3 83 -26 113 -70c27 -39 40 -87 38 -143c-1 -39 -9 -83 -25 -133z" />
    <glyph glyph-name="uni064D" unicode="&#x64d;" 
d="M505 -168l-616 -247v90l616 239v-82zM507 -427l-616 -247v90l616 239v-82z" />
    <glyph glyph-name="uni064E" unicode="&#x64e;" 
d="M477 1356l-616 -247v90l616 239v-82z" />
    <glyph glyph-name="uni064F" unicode="&#x64f;" 
d="M121 1614c-25 -20 -40 -41 -46 -64c-7 -27 -1 -49 20 -68c8 -8 18 -15 31 -22l18 -9l17 -9l11 -5l96 -42c17 38 25 77 22 118c-2 47 -17 85 -45 114c-12 13 -27 19 -46 19c-26 0 -52 -11 -78 -32zM336 1371l35 -15l-26 -68l-3 1l-1 1l-2 1l-3 1c-5 2 -9 4 -14 5
c-14 6 -23 10 -27 11l-3 -3l-4 -4c-5 -3 -9 -7 -12 -10l-23 -20c-47 -38 -105 -73 -175 -106l-29 -13l-51 -22c-48 -20 -76 -31 -84 -32h-2l-26 71l3 1c111 32 223 86 334 161l-2 1l-14 6l-15 5l-31 13c-23 11 -43 21 -60 31c-45 27 -75 57 -90 92c-17 39 -12 81 13 126
c22 39 52 69 90 90c28 15 58 23 90 23c13 0 27 -2 41 -5c21 -5 40 -16 58 -35c7 -7 13 -14 19 -23l12 -19c19 -36 29 -79 30 -129c0 -50 -9 -95 -28 -136z" />
    <glyph glyph-name="uni0650" unicode="&#x650;" 
d="M501 -215l-616 -247v90l616 239v-82z" />
    <glyph glyph-name="uni0651" unicode="&#x651;" 
d="M53 1088c-86 3 -128 40 -146 71c-17 27 -22 58 -22 89c0 57 20 114 33 139c24 -12 46 -20 69 -31c-12 -31 -24 -73 -24 -109c0 -19 1 -35 9 -48c12 -21 48 -34 84 -34c25 0 50 6 66 26l-1 -1c17 19 27 44 32 75s8 59 8 85c0 13 -1 20 -1 29l29 6c16 3 33 7 37 12
c27 -192 78 -217 111 -217c63 4 85 47 85 100c0 61 -31 140 -68 185c21 16 43 29 63 42c25 -39 84 -138 84 -223c0 -13 -3 -46 -8 -61c-34 -90 -103 -118 -161 -118c-35 0 -83 12 -127 69c-39 -55 -86 -86 -145 -86h-7z" />
    <glyph glyph-name="uni0652" unicode="&#x652;" 
d="M183 1179c71 0 141 74 136 158c-3 70 -47 157 -136 157c-82 0 -137 -90 -137 -157c0 -74 65 -158 137 -158zM183 1579c130 0 216 -131 221 -242c3 -123 -97 -243 -221 -243c-134 -3 -221 125 -221 243c0 111 87 242 221 242z" />
    <glyph glyph-name="uni0653" unicode="&#x653;" 
d="M-185 1309c7 19 21 62 40 93h-1c40 64 96 104 155 115c13 3 30 3 41 3c56 0 102 -17 142 -34c39 -15 72 -28 115 -29c64 -3 124 65 145 92c37 -23 62 -41 98 -64c-13 -23 -111 -153 -248 -148c-53 1 -98 18 -137 31h1l-16 6c-44 17 -80 31 -123 24h1
c-50 -5 -88 -86 -101 -124z" />
    <glyph glyph-name="uni0654" unicode="&#x654;" 
d="M370 1826c-10 1 -21 3 -32 5c-20 4 -42 6 -63 6c-24 0 -48 -3 -73 -15h1c-52 -20 -87 -71 -87 -123c0 -12 2 -29 10 -45c21 -53 85 -97 152 -97c16 0 31 1 51 9l-1 -1c63 18 131 64 149 79l53 -69c-56 -39 -140 -84 -260 -151l-244 -135c-16 29 -26 49 -42 77l210 117
c-71 31 -126 82 -151 137c-9 24 -14 50 -14 79c0 88 57 171 141 205c34 13 69 20 105 20c52 0 101 -11 121 -18z" />
    <glyph glyph-name="uni0655" unicode="&#x655;" 
d="M452 50c-10 1 -21 3 -32 5c-20 4 -42 6 -63 6c-24 0 -48 -3 -73 -15h1c-52 -20 -87 -71 -87 -123c0 -12 2 -29 10 -45c21 -53 85 -97 152 -97c16 0 31 1 51 9l-1 -1c63 18 131 64 149 79l53 -69c-56 -39 -140 -84 -260 -151l-244 -135c-16 29 -26 49 -42 77l210 117
c-71 31 -126 82 -151 137c-9 24 -14 50 -14 79c0 88 57 171 141 205c34 13 69 20 105 20c52 0 101 -11 121 -18z" />
    <glyph glyph-name="uni0656" unicode="&#x656;" 
d="M13 -653c11 53 17 117 17 173c0 59 -9 157 -19 211c24 8 60 13 81 21c11 -52 19 -148 19 -214c0 -64 -4 -130 -19 -211z" />
    <glyph glyph-name="uni0660" unicode="&#x660;" horiz-adv-x="967" 
d="M149 483c0 187 151 341 339 341c187 0 341 -154 341 -341c0 -188 -154 -339 -341 -339c-188 0 -339 151 -339 339zM301 483c0 -104 85 -189 189 -189c105 0 190 85 190 189c0 105 -85 190 -190 190c-104 0 -189 -85 -189 -190z" />
    <glyph glyph-name="uni0661" unicode="&#x661;" horiz-adv-x="633" 
d="M320 11c0 514 -29 1034 -221 1353l122 78c101 -167 166 -387 205 -674c35 -255 40 -524 40 -757h-146z" />
    <glyph glyph-name="uni0662" unicode="&#x662;" horiz-adv-x="1142" 
d="M979 1463c5 -31 14 -98 11 -177v-1c-3 -151 -38 -265 -105 -343c-61 -76 -153 -115 -261 -115c-65 0 -132 16 -200 45l7 -68l6 -37c32 -253 40 -527 40 -757h-146c0 419 -16 849 -138 1163c-25 64 -47 124 -84 189l123 79c36 -60 68 -130 97 -207c0 -3 1 -2 1 -3
s0 -1 1 -1v1c69 -157 126 -260 293 -260c67 0 114 20 150 63c56 67 72 178 72 274c0 52 -5 96 -9 128z" />
    <glyph glyph-name="uni0663" unicode="&#x663;" horiz-adv-x="1467" 
d="M1280 1473c19 -101 28 -189 28 -264c0 -125 -26 -218 -77 -279c-45 -55 -110 -85 -189 -85c-64 0 -148 29 -223 149c-17 -24 -34 -51 -45 -64c-59 -64 -122 -103 -215 -103c-54 0 -77 12 -139 36l13 -96c35 -255 40 -522 40 -756h-145c1 55 1 92 1 147
c0 397 -51 768 -163 1050v-1c-2 7 -10 25 -74 155l135 81c17 -29 45 -84 68 -135l42 -93c80 -181 111 -243 222 -243c53 0 73 17 104 53c41 51 68 142 71 255c0 24 -4 117 -7 162l144 18c3 -17 5 -46 8 -85c8 -88 21 -184 46 -260c43 -123 95 -123 117 -123
c43 0 65 17 77 30c16 19 44 74 44 188c0 60 -6 137 -25 237z" />
    <glyph glyph-name="uni0664" unicode="&#x664;" horiz-adv-x="1133" 
d="M706 1338c-63 -22 -191 -73 -296 -140c-57 -37 -100 -73 -127 -108c-25 -34 -35 -64 -31 -91c15 -88 145 -142 398 -142c11 0 29 2 48 5c16 3 -6 5 66 5l25 -150c-224 -67 -356 -199 -404 -296c-14 -31 -21 -60 -21 -86c0 -13 3 -27 8 -42l-1 1c21 -47 88 -86 172 -103
c31 -7 64 -9 95 -9c88 0 190 22 299 67l59 -149c-96 -37 -185 -62 -266 -71h1c-30 -4 -61 -6 -92 -6c-47 0 -87 4 -126 11c-140 27 -243 98 -286 197c-15 35 -22 70 -22 105c0 49 12 100 36 151v-1c36 80 98 157 181 222l9 8s-1 0 10 7c-60 9 -107 22 -150 39
c-136 56 -185 146 -196 210c-2 12 -3 26 -3 41c0 57 24 118 65 173c39 51 97 99 166 146c115 75 262 133 333 157z" />
    <glyph glyph-name="uni0665" unicode="&#x665;" horiz-adv-x="1231" 
d="M680 1292c184 -192 433 -499 433 -790c0 -108 -35 -210 -102 -306c-92 -115 -223 -176 -376 -176c-131 0 -268 42 -359 147c-89 100 -141 267 -120 413c27 220 182 481 345 660l-49 51c47 47 79 77 118 116c15 -15 10 -9 111 -116zM890 297c50 66 68 148 68 205
c0 152 -148 388 -361 633c-138 -157 -283 -405 -304 -575c-11 -96 14 -203 81 -283h-1c53 -61 160 -91 262 -91c108 0 199 35 255 111z" />
    <glyph glyph-name="uni0666" unicode="&#x666;" horiz-adv-x="1189" 
d="M149 1461c101 -43 234 -58 338 -58c41 0 81 2 122 5h-1c131 13 199 35 241 43l104 -91s-32 -132 -31 -347c0 -91 3 -195 14 -318c29 -379 121 -536 161 -627l-144 -70c-6 12 -154 276 -186 682c-9 125 -13 234 -13 326c0 108 4 189 9 253c-85 -15 -174 -28 -273 -28
c-128 0 -263 23 -402 84z" />
    <glyph glyph-name="uni0667" unicode="&#x667;" horiz-adv-x="1328" 
d="M918 760c-107 -306 -166 -585 -169 -753h-145c-8 593 -246 1044 -474 1412l121 77c155 -247 266 -472 345 -689c28 -80 57 -182 88 -301c120 400 291 808 403 990l120 -78c-80 -133 -198 -404 -289 -658z" />
    <glyph glyph-name="uni0668" unicode="&#x668;" horiz-adv-x="1297" 
d="M1063 2c-109 178 -282 585 -402 990c-31 -123 -57 -221 -88 -302c-77 -219 -188 -440 -345 -688l-121 76c227 367 469 822 473 1413h145c3 -170 63 -447 170 -754c88 -237 213 -523 290 -659z" />
    <glyph glyph-name="uni0669" unicode="&#x669;" horiz-adv-x="1041" 
d="M271 1010c37 -45 96 -70 176 -74c99 -5 165 1 199 18c-5 91 -14 169 -27 234c-4 19 -9 39 -16 58c-9 25 -20 48 -33 68c-34 53 -76 79 -127 79c-58 0 -106 -32 -145 -95c-32 -51 -51 -108 -58 -171c-5 -47 6 -86 31 -117zM779 853v-41l-1 -26c-1 -93 17 -222 52 -386
l15 -65c7 -29 15 -57 22 -82c19 -68 38 -116 55 -145l-7 -9l-39 -50c-21 -26 -36 -46 -46 -59c-46 65 -88 173 -125 323c-39 160 -59 313 -60 459v28l-28 -4c-34 -6 -69 -9 -104 -9c-145 0 -254 41 -326 124c-55 63 -76 143 -63 240c9 66 28 129 58 188
c35 70 81 123 136 160c42 28 89 42 140 42c75 0 138 -27 191 -81c59 -62 98 -161 116 -296c7 -52 12 -112 13 -180c1 -27 1 -56 1 -88v-43z" />
    <glyph glyph-name="uni066A" unicode="&#x66a;" horiz-adv-x="1217" 
d="M212 19c195 520 383 1012 578 1530h179c-197 -519 -386 -1011 -580 -1530h-177zM1090 207l-174 -173l-175 175l174 173zM459 1327l-174 -173l-175 175l174 173z" />
    <glyph glyph-name="uni066B" unicode="&#x66b;" horiz-adv-x="758" 
d="M2 -146l520 1084h143c-165 -370 -355 -714 -518 -1084h-145z" />
    <glyph glyph-name="uni066C" unicode="&#x66c;" horiz-adv-x="570" 
d="M102 193c5 77 73 139 158 142c124 3 186 -100 186 -214c7 -184 -95 -328 -319 -441c-23 47 -40 78 -52 95c180 83 264 185 252 306c-104 -43 -209 -22 -225 112z" />
    <glyph glyph-name="uni066D" unicode="&#x66d;" horiz-adv-x="965" 
d="M391 764l90 317l91 -317c245 8 312 8 332 13l-277 -185c35 -100 76 -210 112 -310l-260 204l-256 -202l111 308l-274 183z" />
    <glyph glyph-name="uni066E" unicode="&#x66e;" horiz-adv-x="1982" 
d="M994 20c-232 3 -427 31 -568 82c-129 51 -224 126 -269 219c-27 51 -40 107 -40 169c0 59 14 125 38 189c27 68 58 121 75 148l126 -94c-8 -11 -5 -9 -56 -114c-17 -47 -28 -89 -28 -128c0 -35 9 -70 22 -98c74 -132 331 -215 700 -215c217 0 530 31 767 161
c-16 173 -145 380 -182 442l133 86c36 -57 138 -231 178 -401c9 -40 15 -75 15 -108c0 -60 -30 -108 -105 -157c-184 -104 -554 -184 -806 -181z" />
    <glyph glyph-name="uni066F" unicode="&#x66f;" horiz-adv-x="1581" 
d="M1063 21c-140 11 -244 54 -307 135c-43 55 -65 120 -65 195c0 126 55 267 121 352c61 80 137 121 217 121c91 0 170 -42 246 -123v1c114 -127 182 -331 182 -536c0 -31 -1 -60 -4 -91c3 -6 -6 -173 -94 -341c-53 -103 -123 -183 -209 -242c-108 -76 -233 -111 -385 -111
c-131 0 -243 25 -338 74c-101 51 -181 121 -233 214c-57 93 -88 204 -88 328c0 19 1 40 3 61c11 147 59 301 142 462l140 -76c-84 -161 -126 -311 -126 -446c0 -92 20 -176 63 -248c81 -135 239 -208 434 -211c12 -1 26 -1 37 -1c265 0 439 230 492 480zM1029 665
c-116 -12 -188 -212 -188 -310c0 -43 10 -76 29 -99v1c46 -60 149 -74 202 -79c40 -2 77 -3 112 -3c37 0 90 1 117 4c-8 188 -74 336 -143 416c-32 32 -76 70 -129 70z" />
    <glyph glyph-name="uni0670" unicode="&#x670;" 
d="M7 1140c11 53 17 117 17 173c0 59 -9 157 -19 211c24 8 60 13 81 21c11 -52 19 -148 19 -214c0 -64 -4 -130 -19 -211z" />
    <glyph glyph-name="uni06C2.001" unicode="&#x6c2;" horiz-adv-x="1330" 
d="M1333 176c43 0 78 -35 78 -78s-35 -78 -78 -78c-197 0 -304 132 -419 265c-90 106 -181 209 -300 209c-27 0 -55 -4 -84 -13h1c-136 -48 -226 -235 -282 -441l-150 40c66 255 175 485 385 549c48 15 91 21 130 21c187 0 306 -135 418 -263c85 -99 184 -211 301 -211z
M425 1093l-27 6c-17 3 -40 7 -65 7c-20 0 -41 -3 -62 -12v2c-43 -19 -71 -60 -71 -104c0 -11 3 -23 8 -36l-1 1c19 -47 71 -82 128 -82c15 0 27 0 42 7c35 11 69 30 96 46c15 9 30 19 43 29l59 -78c-52 -39 -129 -79 -242 -142l-227 -126l-48 87l179 100
c-55 23 -98 68 -121 120c-9 23 -14 47 -14 74c0 83 53 161 133 193c31 13 64 19 98 19c31 0 59 -5 82 -10l38 -9z" />
    <glyph glyph-name="uni06C3" unicode="&#x6c3;" horiz-adv-x="1390" 
d="M1391 176c43 0 78 -35 78 -78s-35 -78 -78 -78c-197 0 -304 132 -419 265c-90 106 -181 209 -300 209c-27 0 -55 -4 -84 -13h1c-136 -48 -226 -235 -282 -441l-150 40c66 255 175 485 385 549c48 15 91 21 130 21c187 0 306 -135 418 -263c85 -99 184 -211 301 -211z
M515 985l-146 -146l-148 147l146 147zM870 983l-145 -146l-148 148l146 146z" />
    <glyph glyph-name="uni06D5" unicode="&#x6d5;" horiz-adv-x="983" 
d="M485 16c-11 0 -109 1 -204 46c-119 56 -182 152 -182 281c0 113 54 237 158 364c41 49 93 99 132 135c-77 67 -72 71 -75 68l107 114c34 -32 131 -118 214 -209c156 -179 238 -341 238 -472c0 -129 -59 -225 -168 -280c-83 -40 -172 -47 -220 -47zM473 719
c-80 -69 -232 -236 -232 -375c0 -45 27 -100 108 -139h-1c56 -27 116 -30 137 -30c26 0 96 1 150 28c57 31 95 67 95 135c0 90 -92 232 -223 376l-18 20z" />
    <glyph glyph-name="uni06F0" unicode="&#x6f0;" horiz-adv-x="975" 
d="M149 503c0 187 151 341 339 341c187 0 341 -154 341 -341c0 -188 -154 -339 -341 -339c-188 0 -339 151 -339 339zM301 503c0 -104 85 -189 189 -189c105 0 190 85 190 189c0 105 -85 190 -190 190c-104 0 -189 -85 -189 -190z" />
    <glyph glyph-name="uni06F1" unicode="&#x6f1;" horiz-adv-x="708" 
d="M320 11c0 514 -29 1034 -221 1353l122 78c101 -167 166 -387 205 -674c35 -255 40 -524 40 -757h-146z" />
    <glyph glyph-name="uni06F2" unicode="&#x6f2;" horiz-adv-x="1133" 
d="M979 1463c5 -31 14 -98 11 -177v-1c-3 -151 -38 -265 -105 -343c-61 -76 -153 -115 -261 -115c-65 0 -132 16 -200 45l7 -68l6 -37c32 -253 40 -527 40 -757h-146c0 419 -16 849 -138 1163c-25 64 -47 124 -84 189l123 79c36 -60 68 -130 97 -207c0 -3 1 -2 1 -3
s0 -1 1 -1v1c69 -157 126 -260 293 -260c67 0 114 20 150 63c56 67 72 178 72 274c0 52 -5 96 -9 128z" />
    <glyph glyph-name="uni06F3" unicode="&#x6f3;" horiz-adv-x="1466" 
d="M1280 1473c19 -101 28 -189 28 -264c0 -125 -26 -218 -77 -279c-45 -55 -110 -85 -189 -85c-64 0 -148 29 -223 149c-17 -24 -34 -51 -45 -64c-59 -64 -122 -103 -215 -103c-54 0 -77 12 -139 36l13 -96c35 -255 40 -522 40 -756h-145c1 55 1 92 1 147
c0 397 -51 768 -163 1050v-1c-2 7 -10 25 -74 155l135 81c17 -29 45 -84 68 -135l42 -93c80 -181 111 -243 222 -243c53 0 73 17 104 53c41 51 68 142 71 255c0 24 -4 117 -7 162l144 18c3 -17 5 -46 8 -85c8 -88 21 -184 46 -260c43 -123 95 -123 117 -123
c43 0 65 17 77 30c16 19 44 74 44 188c0 60 -6 137 -25 237z" />
    <glyph glyph-name="uni06F4" unicode="&#x6f4;" horiz-adv-x="1217" 
d="M792 733c-141 0 -254 42 -354 151l22 -138c27 -232 34 -506 34 -731h-157c0 508 -32 1006 -219 1337c90 56 121 74 132 80c41 -71 80 -143 119 -250c49 173 195 285 389 290c125 3 242 -61 342 -161l-116 -111c-63 57 -128 119 -221 116c-68 -5 -136 -38 -180 -89h1
c-41 -51 -78 -99 -71 -162v1c19 -119 155 -177 279 -177c74 0 195 35 255 90l71 -129c-83 -80 -231 -117 -326 -117z" />
    <glyph glyph-name="uni06F5" unicode="&#x6f5;" horiz-adv-x="1379" 
d="M916 -1c-87 0 -163 46 -212 126l-25 38c-19 -31 -33 -53 -44 -66c-53 -64 -124 -97 -201 -97c-76 0 -152 38 -207 105h1c-42 51 -68 116 -78 193c-5 31 -7 64 -7 96c0 60 9 132 24 207c48 206 148 438 346 745l-51 56l103 100c113 -107 238 -223 367 -386
c121 -153 217 -341 276 -512c16 -57 29 -128 29 -189c0 -19 -1 -41 -4 -62c-11 -91 -36 -175 -83 -235c-57 -80 -137 -119 -233 -119h-1zM752 509c0 -125 35 -371 165 -371c52 0 90 20 122 63c37 51 57 130 57 214c0 49 -7 99 -22 147c-96 308 -297 534 -457 689
c-181 -290 -274 -493 -314 -679c-15 -64 -21 -125 -21 -180c0 -88 18 -156 54 -201c32 -37 71 -50 98 -50c68 0 129 61 164 177c15 51 23 100 28 136c3 21 4 41 5 60z" />
    <glyph glyph-name="uni06F6" unicode="&#x6f6;" horiz-adv-x="1160" 
d="M126 52c16 50 85 216 197 389c69 104 172 225 273 321c-187 11 -337 99 -371 218v-1c-9 35 -14 66 -14 101c0 115 54 221 154 297c72 59 162 90 258 97c11 1 18 1 29 1c89 0 175 -23 258 -68l-74 -124c-64 35 -125 48 -181 48c-84 0 -154 -30 -202 -66
c-64 -51 -99 -116 -99 -185c0 -21 3 -42 10 -61c16 -52 105 -111 217 -111c123 -3 274 35 356 61l27 9l22 8l45 -140c-11 -5 -29 -10 -54 -16c-463 -173 -678 -729 -713 -823z" />
    <glyph glyph-name="uni06F7" unicode="&#x6f7;" horiz-adv-x="1292" 
d="M896 760c-107 -306 -166 -585 -169 -753h-145c-8 593 -246 1044 -474 1412l121 77c155 -247 266 -472 345 -689c28 -80 57 -182 88 -301c120 400 291 808 403 990l120 -78c-80 -133 -198 -404 -289 -658z" />
    <glyph glyph-name="uni06F8" unicode="&#x6f8;" horiz-adv-x="1291" 
d="M1063 2c-109 178 -282 585 -402 990c-31 -123 -57 -221 -88 -302c-77 -219 -188 -440 -345 -688l-121 76c227 367 469 822 473 1413h145c3 -170 63 -447 170 -754c88 -237 213 -523 290 -659z" />
    <glyph glyph-name="uni06F9" unicode="&#x6f9;" horiz-adv-x="1125" 
d="M285 1010c37 -45 96 -70 176 -74c99 -5 165 1 199 18c-5 91 -14 169 -27 234c-4 19 -9 39 -16 58c-9 25 -20 48 -33 68c-34 53 -76 79 -127 79c-58 0 -106 -32 -145 -95c-32 -51 -51 -108 -58 -171c-5 -47 6 -86 31 -117zM793 853v-41l-1 -26c-1 -93 17 -222 52 -386
l15 -65c7 -29 15 -57 22 -82c19 -68 38 -116 55 -145l-7 -9l-39 -50c-21 -26 -36 -46 -46 -59c-46 65 -88 173 -125 323c-39 160 -59 313 -60 459v28l-28 -4c-34 -6 -69 -9 -104 -9c-145 0 -254 41 -326 124c-55 63 -76 143 -63 240c9 66 28 129 58 188
c35 70 81 123 136 160c42 28 89 42 140 42c75 0 138 -27 191 -81c59 -62 98 -161 116 -296c7 -52 12 -112 13 -180c1 -27 1 -56 1 -88v-43z" />
    <glyph glyph-name="uni200C" unicode="&#x200c;" horiz-adv-x="148" 
 />
    <glyph glyph-name="quoteleft" unicode="&#x2018;" horiz-adv-x="441" 
d="M288 1760l87 -62c-73 -95 -110 -197 -112 -307v-155h-144v136c0 74 15 145 45 214s71 127 124 174z" />
    <glyph glyph-name="quoteright" unicode="&#x2019;" horiz-adv-x="441" 
d="M161 1209l-86 63c73 98 110 201 113 308v158h142v-122c0 -169 -56 -304 -169 -407z" />
    <glyph glyph-name="quotesinglbase" unicode="&#x201a;" horiz-adv-x="427" 
d="M136 -401l-86 63c67 90 103 183 110 279l1 186h144v-122c0 -168 -56 -303 -169 -406z" />
    <glyph glyph-name="quotereversed" unicode="&#x201b;" horiz-adv-x="441" 
d="M252 1738v-158c2 -107 39 -210 112 -308l-87 -63c-113 104 -169 240 -169 407v122h144z" />
    <glyph glyph-name="quotedblleft" unicode="&#x201c;" horiz-adv-x="741" 
d="M289 1760l87 -62c-72 -95 -109 -197 -112 -307v-155h-144v136c0 74 15 145 45 214c31 69 72 127 124 174zM593 1760l87 -62c-73 -95 -110 -197 -112 -307v-155h-144v136c0 74 15 145 45 214s71 127 124 174z" />
    <glyph glyph-name="quotedblright" unicode="&#x201d;" horiz-adv-x="747" 
d="M168 1209l-86 63c73 98 110 201 113 308v158h143v-122c0 -169 -57 -304 -170 -407zM464 1209l-86 63c73 98 110 201 112 308v158h143v-122c0 -169 -56 -304 -169 -407z" />
    <glyph glyph-name="quotedblbase" unicode="&#x201e;" horiz-adv-x="718" 
d="M136 -412l-86 63c71 99 108 205 111 316v198h144v-158c0 -175 -56 -314 -169 -419zM419 -412l-86 63c71 99 107 204 110 316v198h145v-158c0 -175 -56 -314 -169 -419z" />
    <glyph glyph-name="dagger" unicode="&#x2020;" horiz-adv-x="1364" 
d="M1280 1062h-523v-1183h-146v1183h-530v127h530v452h146v-452h523v-127z" />
    <glyph glyph-name="daggerdbl" unicode="&#x2021;" horiz-adv-x="1397" 
d="M1299 -121h-536v-504h-147v504h-514v122h514v1063h-514v125h514v452h147v-452h536v-125h-536v-1063h536v-122z" />
    <glyph glyph-name="bullet" unicode="&#x2022;" horiz-adv-x="801" 
d="M177 789c0 64 20 116 61 156c41 41 96 61 163 61c66 0 119 -20 160 -59s63 -89 65 -152v-48c0 -65 -21 -117 -62 -156s-95 -58 -162 -58c-68 0 -123 20 -164 59s-61 92 -61 157v40z" />
    <glyph glyph-name="twodotenleader" unicode="&#x2025;" horiz-adv-x="1125" 
d="M201 -34c0 56 38 102 102 102c65 0 105 -46 105 -102s-40 -97 -105 -97c-64 0 -102 41 -102 97zM697 -34c0 56 39 102 103 102c65 0 104 -46 104 -102s-39 -97 -104 -97c-64 0 -103 41 -103 97z" />
    <glyph glyph-name="ellipsis" unicode="&#x2026;" horiz-adv-x="1589" 
d="M201 -34c0 56 38 102 102 102c65 0 105 -46 105 -102s-40 -97 -105 -97c-64 0 -102 41 -102 97zM697 -34c0 56 39 102 103 102c65 0 104 -46 104 -102s-39 -97 -104 -97c-64 0 -103 41 -103 97zM1172 -34c0 56 38 102 102 102c65 0 105 -46 105 -102s-40 -97 -105 -97
c-64 0 -102 41 -102 97z" />
    <glyph glyph-name="uni2027" unicode="&#x2027;" horiz-adv-x="278" 
d="M212 588h-148v137h148v-137z" />
    <glyph glyph-name="minute" unicode="&#x2032;" horiz-adv-x="421" 
d="M274 1568l-21 -370h-109c4 239 6 419 6 540h124v-170z" />
    <glyph glyph-name="second" unicode="&#x2033;" horiz-adv-x="712" 
d="M294 1569l-24 -379h-97l4 548h117v-169zM580 1569l-24 -379h-98l4 548h118v-169z" />
    <glyph glyph-name="guilsinglleft" unicode="&#x2039;" horiz-adv-x="737" 
d="M281 551l334 -470h-127l-357 459v23l357 459h127z" />
    <glyph glyph-name="guilsinglright" unicode="&#x203a;" horiz-adv-x="737" 
d="M246 1022l357 -465v-23l-357 -459h-129l335 470l-335 477h129z" />
    <glyph glyph-name="fraction" unicode="&#x2044;" horiz-adv-x="1111" 
d="M165 25l-90 59l861 1377l89 -58z" />
    <glyph glyph-name="notequal" unicode="&#x2260;" horiz-adv-x="1372" 
d="M1190 385h-640l-184 -321l-86 50l156 271h-256v128h330l211 369h-541v129h615l190 329l86 -50l-161 -279h280v-129h-354l-213 -369h567v-128z" />
    <glyph glyph-name="lessequal" unicode="&#x2264;" horiz-adv-x="1267" 
d="M252 718l842 -326v-138l-1001 413v106l1001 412v-138zM1094 -120h-1010v124h1010v-124z" />
    <glyph glyph-name="greaterequal" unicode="&#x2265;" horiz-adv-x="1286" 
d="M1011 723l-861 330v134l1023 -412v-106l-1023 -412v135zM1155 -120h-1011v124h1011v-124z" />
    <glyph glyph-name="NULL" 
 />
    <glyph glyph-name="CR" horiz-adv-x="602" 
 />
    <glyph glyph-name="feh_dotless.isol" horiz-adv-x="1948" 
d="M1699 999c93 -101 166 -284 166 -475c0 -55 -1 -112 -20 -168c-104 -303 -482 -335 -890 -335c-397 0 -652 98 -767 294c-47 80 -64 163 -64 243c0 146 39 240 63 287c47 -25 92 -51 139 -76c-19 -44 -44 -107 -44 -210c0 -55 14 -114 43 -165c84 -136 285 -211 600 -223
c29 -1 57 -1 84 -1c330 0 611 77 694 224c-204 -45 -385 4 -481 108c-31 35 -58 92 -58 179c0 181 118 431 310 431c82 0 157 -37 225 -112v-1zM1709 572c-26 138 -68 354 -231 383c-60 11 -173 -134 -173 -257c0 -37 15 -71 36 -99c72 -93 265 -79 371 -52z" />
    <glyph glyph-name="uni06A1.fina" horiz-adv-x="2106" 
d="M1947 536c0 -126 -39 -209 -101 -297c-3 -3 -5 -7 -30 -32c104 -19 201 -31 292 -31c43 0 79 -34 79 -78c0 -43 -36 -78 -79 -78c-169 0 -330 25 -470 73l-67 -22c-128 -48 -375 -73 -610 -73c-400 1 -666 98 -782 295c-48 80 -64 164 -64 244c0 146 50 257 72 303
c47 -25 92 -51 139 -76c-21 -44 -54 -126 -54 -228c0 -55 14 -113 43 -164c86 -137 260 -210 590 -218c39 -1 74 -2 107 -2c183 0 304 20 415 41c-109 87 -159 213 -159 308c0 193 151 417 355 417c84 0 161 -30 218 -93c47 -47 106 -138 106 -289zM1629 263
c133 76 188 165 188 265c0 211 -158 231 -194 231c-84 0 -207 -86 -207 -263c0 -69 80 -193 213 -233z" />
    <glyph glyph-name="onedot.above" horiz-adv-x="1024" 
d="M671 1224l-147 -147l-148 148l147 147z" />
    <glyph glyph-name="twodots.above" horiz-adv-x="1024" 
d="M488 1022l-146 -146l-148 147l146 147zM843 1020l-145 -146l-148 148l146 146z" />
    <glyph glyph-name="threedots.above" horiz-adv-x="1151" 
d="M622 1152l146 146l148 -148l-146 -146zM216 1153l146 147l148 -148l-146 -147zM439 1443l132 132l133 -133l-132 -132z" />
    <glyph glyph-name="threedots.below" horiz-adv-x="1057" 
d="M743 -90l146 -146l-148 -148l-146 146zM337 -91l146 -147l-148 -148l-146 147zM545 -396l132 -132l-133 -133l-132 132z" />
    <glyph glyph-name="wasla" 
d="M37 1449c70 -8 193 -7 249 41c17 15 27 34 29 57c0 19 -11 34 -18 41c-27 28 -58 27 -82 23c-36 -7 -72 -24 -103 -55c-39 -39 -64 -84 -75 -107zM-237 1480c17 9 35 16 52 22c29 11 63 19 86 14s41 -14 54 -25c7 -6 14 -12 19 -19c13 25 43 83 94 132
c39 37 87 63 135 70c56 12 106 -3 141 -40c25 -27 39 -57 35 -92c-1 -41 -19 -76 -53 -104c-58 -47 -152 -58 -224 -58c-39 0 -72 4 -85 5c-17 2 -33 7 -49 14c-19 8 -34 19 -53 44c-21 16 -55 9 -83 -3c-17 -7 -34 -17 -51 -28z" />
    <glyph glyph-name="beh_dotless_alt.init" horiz-adv-x="843" 
d="M-78 98c0 44 35 78 78 78h111c149 0 383 4 439 130v-1c11 22 16 51 16 88c0 63 -21 142 -50 235c-22 67 -64 161 -80 198l142 71c16 -37 55 -122 87 -221c35 -108 52 -201 52 -281c0 -59 -9 -110 -28 -153c-47 -97 -128 -170 -240 -201c-68 -21 -237 -21 -295 -21h-154
c-43 0 -78 34 -78 78z" />
    <glyph glyph-name="beh_dotless_alt.medi" horiz-adv-x="852" 
d="M-81 98c0 44 34 78 78 78h76c236 0 448 35 440 246c-3 72 -10 126 -37 227c56 15 96 28 149 43c32 -115 34 -185 47 -288c13 -111 28 -228 183 -228c44 0 80 -34 80 -78s-35 -78 -78 -78c-126 0 -215 58 -273 138c-103 -101 -322 -138 -511 -138h-76c-44 0 -78 34 -78 78
z" />
    <glyph glyph-name="onedot.below" horiz-adv-x="1024" 
d="M586 -360l-147 -147l-148 148l147 147z" />
    <glyph glyph-name="twodots.below" horiz-adv-x="1024" 
d="M467 -363l-148 -148l-150 149l148 149zM861 -364l-148 -149l-150 150l148 148z" />
    <glyph glyph-name="alef_alt.isol" horiz-adv-x="467" 
d="M141 23c19 289 20 500 17 763c-3 109 -6 205 -13 274c-9 124 -17 256 -34 384c57 9 98 10 154 17c24 -176 39 -387 47 -568c3 -91 5 -190 5 -302c0 -173 -4 -364 -19 -577z" />
    <glyph glyph-name="alef_alt.fina" horiz-adv-x="542" 
d="M542 20c-141 0 -239 32 -307 100c-83 83 -81 198 -81 260c1 40 4 145 4 285c0 122 -1 266 -7 412c-4 149 -12 268 -26 355l156 28c16 -94 24 -221 28 -378c6 -153 6 -307 6 -437c0 -103 -1 -183 -2 -267c-1 -64 0 -112 36 -147c33 -33 95 -54 184 -55h9
c43 0 79 -35 79 -78c0 -44 -36 -78 -79 -78z" />
    <glyph glyph-name="heh_ae.fina" horiz-adv-x="1090" 
d="M544 160c-166 0 -281 39 -344 118c-36 44 -48 99 -48 147c0 43 7 78 18 101c105 219 355 322 470 365l-15 145l157 34c4 -33 33 -317 37 -346v1c40 -348 71 -427 79 -445v1c34 -82 90 -105 192 -105c43 0 79 -34 79 -78c0 -43 -36 -78 -79 -78c-51 0 -122 4 -187 35h1
c-50 23 -94 65 -131 126c-90 -14 -166 -21 -229 -21zM634 720c-100 -44 -331 -138 -331 -281c0 -99 119 -125 235 -125c61 0 132 9 181 18c-19 92 -38 229 -59 398z" />
    </font>
</defs>
</svg>
